osu file format v14

[General]
AudioFilename: audio.mp3
AudioLeadIn: 0
PreviewTime: -1
Countdown: 1
SampleSet: Normal
StackLeniency: 0.7
Mode: 1
LetterboxInBreaks: 0
WidescreenStoryboard: 0

[Editor]
Bookmarks: 165359,191670,217971,244273,257413,270564,283715,296865,329742,342893,356044,369194,382345,408646,421797,434948,461249,487550
DistanceSpacing: 0.8
BeatDivisor: 8
GridSize: 32
TimelineZoom: 2.3

[Metadata]
Title:Sarasvati
TitleUnicode:Sarasvati
Artist:3R2 & Ice
ArtistUnicode:3R2 & Ice
Creator:Lno
Version:Oni
Source:
Tags:
BeatmapID:1397764
BeatmapSetID:660074

[Difficulty]
HPDrainRate:5
CircleSize:5
OverallDifficulty:6.5
ApproachRate:5
SliderMultiplier:1.4
SliderTickRate:1

[Events]
//Background and Video events
0,0,"bg.jpg",0,0
//Break Periods
//Storyboard Layer 0 (Background)
//Storyboard Layer 1 (Fail)
//Storyboard Layer 2 (Pass)
//Storyboard Layer 3 (Foreground)
//Storyboard Sound Samples

[TimingPoints]
775,895.522388059701,4,1,2,5,1,0
36610,895.522388059701,4,1,2,5,1,0
36610,-76.9230769230769,4,1,2,25,0,0
86455,410.958904109589,4,1,1,65,1,0
86765,-100,4,1,3,80,0,0
86971,-100,4,1,1,65,0,0
87176,-100,4,1,3,80,0,0
87382,-100,4,1,1,65,0,0
87998,-100,4,1,3,80,0,0
88204,-100,4,1,1,65,0,0
88615,-100,4,1,3,80,0,0
88821,-100,4,1,1,65,0,0
89642,-100,4,1,3,80,0,0
89848,-100,4,1,1,65,0,0
90053,-100,4,1,3,80,0,0
90259,-100,4,1,1,65,0,0
91286,-100,4,1,3,80,0,0
91492,-100,4,1,1,65,0,0
91697,-100,4,1,3,80,0,0
91903,-100,4,1,1,65,0,0
92930,-100,4,1,3,80,0,0
93136,-100,4,1,1,65,0,0
93752,-100,4,1,3,80,0,0
93958,-100,4,1,1,65,0,0
94574,-100,4,1,3,80,0,0
94780,-100,4,1,1,65,0,0
95190,-100,4,1,3,80,0,0
95396,-100,4,1,1,65,0,0
96218,-100,4,1,3,80,0,0
96424,-100,4,1,1,65,0,0
97039,-100,4,1,3,80,0,0
97245,-100,4,1,1,65,0,0
97450,-100,4,1,3,80,0,0
97656,-100,4,1,1,65,0,0
97861,-100,4,1,3,80,0,0
98067,-100,4,1,1,65,0,0
98889,-100,4,1,3,80,0,0
99095,-100,4,1,1,65,0,0
99505,-100,4,1,3,80,0,0
99711,-100,4,1,1,65,0,0
99916,-100,4,1,3,80,0,0
100122,-100,4,1,1,65,0,0
100327,-100,4,1,3,80,0,0
100533,-100,4,1,1,65,0,0
101149,-100,4,1,3,80,0,0
101355,-100,4,1,1,65,0,0
101560,-100,4,1,3,80,0,0
101766,-100,4,1,1,65,0,0
101971,-100,4,1,3,80,0,0
102177,-100,4,1,1,65,0,0
102793,-100,4,1,3,80,0,0
102999,-100,4,1,1,65,0,0
103615,-100,4,1,3,80,0,0
103821,-100,4,1,1,65,0,0
104026,-100,4,1,3,80,0,0
104232,-100,4,1,1,65,0,0
104437,-100,4,1,3,80,0,0
104643,-100,4,1,1,65,0,0
106081,-100,4,1,3,80,0,0
106287,-100,4,1,1,65,0,0
106902,-100,4,1,3,80,0,0
107108,-100,4,1,1,65,0,0
107724,-100,4,1,3,80,0,0
107930,-100,4,1,1,65,0,0
109368,-100,4,1,3,80,0,0
109574,-100,4,1,1,65,0,0
125016,-100,4,1,4,65,0,0
125427,-100,4,1,1,65,0,0
242619,410.958904109589,5,1,1,65,1,0
243441,-90.9090909090909,5,1,1,65,0,0
243578,-80,5,1,1,65,0,0
243715,-71.4285714285714,5,1,1,65,0,0
243852,-64.5161290322581,5,1,1,65,0,0
244057,-80,5,1,1,65,0,0
244263,-50,5,1,1,65,0,0
244673,410.958904109589,4,1,1,65,1,0
257412,410.958904109589,4,1,1,65,1,0

[HitObjects]
224,224,775,5,0,0:0:0:0:
288,224,1670,1,8,0:0:0:0:
288,224,2566,1,8,0:0:0:0:
224,224,3013,1,0,0:0:0:0:
224,224,3461,1,0,0:0:0:0:
288,224,4357,1,8,0:0:0:0:
224,224,5252,1,0,0:0:0:0:
288,224,6148,1,8,0:0:0:0:
224,224,6595,1,0,0:0:0:0:
224,224,7043,1,0,0:0:0:0:
224,224,7939,1,0,0:0:0:0:
288,224,8834,1,8,0:0:0:0:
224,224,9730,1,0,0:0:0:0:
224,224,10177,1,0,0:0:0:0:
288,224,10625,1,8,0:0:0:0:
224,224,11521,1,0,0:0:0:0:
224,224,11969,1,0,0:0:0:0:
288,224,12416,1,8,0:0:0:0:
224,224,12864,1,0,0:0:0:0:
288,224,13312,1,8,0:0:0:0:
224,224,15103,1,0,0:0:0:0:
224,224,15551,1,0,0:0:0:0:
288,224,15998,1,8,0:0:0:0:
288,224,16894,1,8,0:0:0:0:
224,224,17342,1,0,0:0:0:0:
288,224,17789,1,8,0:0:0:0:
288,224,18685,1,8,0:0:0:0:
224,224,19133,1,0,0:0:0:0:
224,224,19580,1,0,0:0:0:0:
288,224,20476,1,8,0:0:0:0:
224,224,20924,1,0,0:0:0:0:
288,224,21372,1,8,0:0:0:0:
288,224,22267,1,8,0:0:0:0:
224,224,22715,1,0,0:0:0:0:
224,224,23163,1,0,0:0:0:0:
288,224,24058,1,8,0:0:0:0:
224,224,24506,1,0,0:0:0:0:
288,224,24954,1,8,0:0:0:0:
224,224,25849,1,0,0:0:0:0:
224,224,26297,1,0,0:0:0:0:
288,224,26745,1,8,0:0:0:0:
224,224,27192,1,0,0:0:0:0:
288,224,27640,1,8,0:0:0:0:
224,224,28536,1,0,0:0:0:0:
288,224,29431,1,8,0:0:0:0:
224,224,29879,1,0,0:0:0:0:
288,224,30327,1,8,0:0:0:0:
224,224,30774,1,0,0:0:0:0:
288,224,31222,1,8,0:0:0:0:
224,224,31670,1,0,0:0:0:0:
288,224,32118,1,8,0:0:0:0:
224,224,32566,1,0,0:0:0:0:
224,224,33013,1,0,0:0:0:0:
288,224,33088,1,8,0:0:0:0:
288,160,36610,1,12,0:0:0:0:
224,224,37057,1,0,0:0:0:0:
224,224,37505,1,0,0:0:0:0:
224,224,37953,1,0,0:0:0:0:
224,224,38177,1,0,0:0:0:0:
288,224,38401,1,8,0:0:0:0:
224,224,38848,1,0,0:0:0:0:
288,224,39296,1,8,0:0:0:0:
224,224,39744,1,0,0:0:0:0:
224,160,40192,1,4,0:0:0:0:
224,224,40639,1,0,0:0:0:0:
224,224,41087,1,0,0:0:0:0:
224,224,41535,1,0,0:0:0:0:
224,224,41759,1,0,0:0:0:0:
288,224,41983,1,8,0:0:0:0:
224,224,42430,1,0,0:0:0:0:
224,224,42878,1,0,0:0:0:0:
224,224,43326,1,0,0:0:0:0:
288,160,43774,1,12,0:0:0:0:
224,224,44221,1,0,0:0:0:0:
224,224,44669,1,0,0:0:0:0:
224,224,45117,1,0,0:0:0:0:
224,224,45341,1,0,0:0:0:0:
288,224,45565,1,8,0:0:0:0:
224,224,46012,1,0,0:0:0:0:
288,224,46460,1,8,0:0:0:0:
224,224,46908,1,0,0:0:0:0:
224,160,47356,1,4,0:0:0:0:
224,224,47804,1,0,0:0:0:0:
224,224,48251,1,0,0:0:0:0:
224,224,48699,1,0,0:0:0:0:
224,224,48923,1,0,0:0:0:0:
288,224,49147,1,8,0:0:0:0:
224,224,49595,1,0,0:0:0:0:
224,160,50042,1,4,0:0:0:0:
224,224,50490,1,0,0:0:0:0:
288,160,50938,1,12,0:0:0:0:
224,224,51386,1,0,0:0:0:0:
224,224,51833,1,0,0:0:0:0:
224,224,52281,1,0,0:0:0:0:
224,224,52505,1,0,0:0:0:0:
288,224,52729,1,8,0:0:0:0:
224,224,53177,1,0,0:0:0:0:
288,224,53624,1,8,0:0:0:0:
224,224,54072,1,0,0:0:0:0:
288,160,54520,1,12,0:0:0:0:
224,224,54968,1,0,0:0:0:0:
224,224,55415,1,0,0:0:0:0:
224,224,55863,1,0,0:0:0:0:
288,160,56311,1,12,0:0:0:0:
224,224,56759,1,0,0:0:0:0:
224,224,57207,1,0,0:0:0:0:
224,224,57654,1,0,0:0:0:0:
288,160,58102,1,12,0:0:0:0:
224,224,58550,1,0,0:0:0:0:
224,224,58998,1,0,0:0:0:0:
224,224,59445,1,0,0:0:0:0:
224,224,59669,1,0,0:0:0:0:
288,224,59893,1,8,0:0:0:0:
224,224,60341,1,0,0:0:0:0:
288,224,60789,1,8,0:0:0:0:
224,224,61236,1,0,0:0:0:0:
224,160,61684,1,4,0:0:0:0:
224,224,62132,1,0,0:0:0:0:
224,224,62580,1,0,0:0:0:0:
224,224,63027,1,0,0:0:0:0:
224,160,63475,1,4,0:0:0:0:
224,224,63923,1,0,0:0:0:0:
224,224,64371,1,0,0:0:0:0:
288,224,64818,1,8,0:0:0:0:
288,224,64930,1,8,0:0:0:0:
288,224,65042,1,8,0:0:0:0:
288,224,65154,1,8,0:0:0:0:
224,224,65266,1,0,0:0:0:0:
288,224,65714,1,8,0:0:0:0:
224,224,65863,1,0,0:0:0:0:
224,224,66012,1,0,0:0:0:0:
288,224,66162,1,8,0:0:0:0:
288,224,66609,1,8,0:0:0:0:
224,224,66759,1,0,0:0:0:0:
224,224,66908,1,0,0:0:0:0:
288,224,67057,1,8,0:0:0:0:
288,224,67505,1,8,0:0:0:0:
224,224,67617,1,0,0:0:0:0:
224,224,67729,1,0,0:0:0:0:
224,224,67841,1,0,0:0:0:0:
288,224,67953,1,8,0:0:0:0:
224,224,68177,1,0,0:0:0:0:
288,224,68401,1,8,0:0:0:0:
288,224,68624,1,8,0:0:0:0:
288,224,68848,1,8,0:0:0:0:
288,224,69296,1,8,0:0:0:0:
224,224,69408,1,0,0:0:0:0:
288,224,69520,1,8,0:0:0:0:
224,224,69632,1,0,0:0:0:0:
288,224,69744,1,8,0:0:0:0:
288,224,70192,1,8,0:0:0:0:
224,224,70304,1,0,0:0:0:0:
224,224,70415,1,0,0:0:0:0:
224,224,70527,1,0,0:0:0:0:
288,224,70639,1,8,0:0:0:0:
288,224,71087,1,8,0:0:0:0:
224,224,71199,1,0,0:0:0:0:
288,224,71311,1,8,0:0:0:0:
224,224,71423,1,0,0:0:0:0:
288,224,71535,1,8,0:0:0:0:
224,224,71759,1,0,0:0:0:0:
288,224,71983,1,8,0:0:0:0:
288,224,72207,1,8,0:0:0:0:
288,224,72430,1,8,0:0:0:0:
288,224,72878,1,8,0:0:0:0:
224,224,72990,1,0,0:0:0:0:
224,224,73102,1,0,0:0:0:0:
288,224,73214,1,8,0:0:0:0:
288,224,73326,1,8,0:0:0:0:
224,224,73774,1,0,0:0:0:0:
224,224,73886,1,0,0:0:0:0:
288,224,73998,1,8,0:0:0:0:
224,224,74109,1,0,0:0:0:0:
288,224,74221,1,8,0:0:0:0:
224,224,74445,1,0,0:0:0:0:
288,224,74669,1,8,0:0:0:0:
224,224,74893,1,0,0:0:0:0:
288,224,75117,1,8,0:0:0:0:
288,224,75341,1,8,0:0:0:0:
224,224,75565,1,0,0:0:0:0:
288,224,75789,1,8,0:0:0:0:
288,224,76012,1,8,0:0:0:0:
224,224,76460,1,0,0:0:0:0:
288,224,76908,1,8,0:0:0:0:
288,224,77356,1,8,0:0:0:0:
288,224,77804,1,8,0:0:0:0:
224,224,78699,1,0,0:0:0:0:
256,192,79595,12,8,83177,0:0:0:0:
224,224,86455,5,0,0:0:0:0:
288,224,86865,1,8,0:0:0:0:
224,224,87071,1,0,0:0:0:0:
288,224,87276,1,8,0:0:0:0:
224,224,87482,1,0,0:0:0:0:
224,224,87893,1,0,0:0:0:0:
288,224,88098,1,8,0:0:0:0:
224,224,88509,1,0,0:0:0:0:
288,224,88715,1,8,0:0:0:0:
224,224,89126,1,0,0:0:0:0:
224,224,89537,1,0,0:0:0:0:
288,224,89742,1,8,0:0:0:0:
288,224,90153,1,8,0:0:0:0:
224,224,90359,1,0,0:0:0:0:
224,224,90770,1,0,0:0:0:0:
224,224,91181,1,0,0:0:0:0:
288,224,91386,1,8,0:0:0:0:
288,224,91797,1,8,0:0:0:0:
224,224,92002,1,0,0:0:0:0:
224,224,92413,1,0,0:0:0:0:
224,224,92824,1,0,0:0:0:0:
288,224,93030,1,8,0:0:0:0:
224,224,93441,1,0,0:0:0:0:
224,224,93646,1,0,0:0:0:0:
288,224,93852,1,8,0:0:0:0:
224,224,94057,1,0,0:0:0:0:
224,224,94468,1,0,0:0:0:0:
288,224,94674,1,8,0:0:0:0:
224,224,95085,1,0,0:0:0:0:
288,224,95290,1,8,0:0:0:0:
224,224,95701,1,0,0:0:0:0:
224,224,96112,1,0,0:0:0:0:
288,224,96318,1,8,0:0:0:0:
224,224,96728,1,0,0:0:0:0:
224,224,96934,1,0,0:0:0:0:
288,224,97139,1,8,0:0:0:0:
224,224,97345,1,0,0:0:0:0:
288,224,97550,1,8,0:0:0:0:
224,224,97756,1,0,0:0:0:0:
288,224,97961,1,8,0:0:0:0:
224,224,98372,1,0,0:0:0:0:
224,224,98783,1,0,0:0:0:0:
288,224,98989,1,8,0:0:0:0:
224,224,99400,1,0,0:0:0:0:
288,224,99605,1,8,0:0:0:0:
288,224,100016,1,8,0:0:0:0:
288,224,100427,1,8,0:0:0:0:
224,224,100838,1,0,0:0:0:0:
288,224,101249,1,8,0:0:0:0:
288,224,101660,1,8,0:0:0:0:
288,224,102071,1,8,0:0:0:0:
224,224,102482,1,0,0:0:0:0:
288,224,102585,1,8,0:0:0:0:
288,224,102893,1,8,0:0:0:0:
224,224,103304,1,0,0:0:0:0:
288,224,103715,1,8,0:0:0:0:
288,224,104126,1,8,0:0:0:0:
288,224,104537,1,8,0:0:0:0:
224,224,104948,1,0,0:0:0:0:
224,224,105359,1,0,0:0:0:0:
224,224,105770,1,0,0:0:0:0:
288,224,106181,1,8,0:0:0:0:
224,224,106591,1,0,0:0:0:0:
288,224,107002,1,8,0:0:0:0:
224,224,107413,1,0,0:0:0:0:
288,224,107824,1,8,0:0:0:0:
224,224,108235,1,0,0:0:0:0:
224,224,108646,1,0,0:0:0:0:
224,224,109057,1,0,0:0:0:0:
288,224,109468,1,8,0:0:0:0:
224,224,109879,1,0,0:0:0:0:
224,224,110290,1,0,0:0:0:0:
224,224,110701,1,0,0:0:0:0:
224,224,111112,1,0,0:0:0:0:
224,224,111523,1,0,0:0:0:0:
288,224,111728,1,8,0:0:0:0:
288,224,111831,1,8,0:0:0:0:
288,224,111934,1,8,0:0:0:0:
288,224,112037,1,8,0:0:0:0:
288,224,112139,1,8,0:0:0:0:
288,224,112242,1,8,0:0:0:0:
288,224,112345,1,8,0:0:0:0:
288,224,112448,1,8,0:0:0:0:
288,224,112550,1,8,0:0:0:0:
224,160,112756,1,4,0:0:0:0:
224,224,113167,1,0,0:0:0:0:
224,224,113578,1,0,0:0:0:0:
288,224,113783,1,8,0:0:0:0:
224,224,113989,1,0,0:0:0:0:
288,224,114091,1,8,0:0:0:0:
288,224,114297,1,8,0:0:0:0:
224,224,114400,1,0,0:0:0:0:
224,224,114605,1,0,0:0:0:0:
288,224,114811,1,8,0:0:0:0:
224,224,115016,1,0,0:0:0:0:
224,224,115222,1,0,0:0:0:0:
288,224,115427,1,8,0:0:0:0:
288,224,115633,1,8,0:0:0:0:
224,224,116044,1,0,0:0:0:0:
288,224,116455,1,8,0:0:0:0:
224,224,116865,1,0,0:0:0:0:
288,224,117071,1,8,0:0:0:0:
224,224,117276,1,0,0:0:0:0:
288,224,117379,1,8,0:0:0:0:
288,224,117585,1,8,0:0:0:0:
224,224,117687,1,0,0:0:0:0:
288,224,117893,1,8,0:0:0:0:
224,224,118098,1,0,0:0:0:0:
288,224,118201,1,8,0:0:0:0:
288,224,118407,1,8,0:0:0:0:
224,224,118509,1,0,0:0:0:0:
224,224,118612,1,0,0:0:0:0:
288,224,118715,1,8,0:0:0:0:
288,224,118920,1,8,0:0:0:0:
224,224,119331,1,0,0:0:0:0:
288,224,119742,1,8,0:0:0:0:
224,224,120153,1,0,0:0:0:0:
224,224,120564,1,0,0:0:0:0:
288,224,120667,1,8,0:0:0:0:
288,224,120872,1,8,0:0:0:0:
224,224,120975,1,0,0:0:0:0:
288,224,121181,1,8,0:0:0:0:
224,224,121386,1,0,0:0:0:0:
288,224,121591,1,8,0:0:0:0:
224,224,121797,1,0,0:0:0:0:
288,224,122002,1,8,0:0:0:0:
288,224,122208,1,8,0:0:0:0:
224,224,122619,1,0,0:0:0:0:
288,224,123030,1,8,0:0:0:0:
224,224,123441,1,0,0:0:0:0:
224,160,124263,1,4,0:0:0:0:
288,160,124468,1,12,0:0:0:0:
288,224,124674,1,8,0:0:0:0:
288,224,124811,1,8,0:0:0:0:
288,224,124948,1,8,0:0:0:0:
224,224,125085,1,0,0:0:0:0:
288,224,125222,1,8,0:0:0:0:
224,224,125359,1,0,0:0:0:0:
288,160,125496,1,12,0:0:0:0:
224,160,125907,1,4,0:0:0:0:
288,224,126318,1,8,0:0:0:0:
224,224,126523,1,0,0:0:0:0:
224,224,126728,1,0,0:0:0:0:
288,224,126831,1,8,0:0:0:0:
288,224,127139,1,8,0:0:0:0:
224,224,127550,1,0,0:0:0:0:
224,224,127756,1,0,0:0:0:0:
224,224,127859,1,0,0:0:0:0:
288,224,127961,1,8,0:0:0:0:
224,224,128167,1,0,0:0:0:0:
224,224,128372,1,0,0:0:0:0:
224,224,128578,1,0,0:0:0:0:
288,224,128783,1,8,0:0:0:0:
224,224,129194,1,0,0:0:0:0:
288,224,129605,1,8,0:0:0:0:
224,224,129811,1,0,0:0:0:0:
224,224,130016,1,0,0:0:0:0:
288,224,130119,1,8,0:0:0:0:
288,224,130324,1,8,0:0:0:0:
224,224,130427,1,0,0:0:0:0:
224,224,130838,1,0,0:0:0:0:
224,224,131044,1,0,0:0:0:0:
224,224,131146,1,0,0:0:0:0:
288,224,131249,1,8,0:0:0:0:
288,224,131352,1,8,0:0:0:0:
224,224,131455,1,0,0:0:0:0:
288,224,131557,1,8,0:0:0:0:
224,224,131660,1,0,0:0:0:0:
224,224,131763,1,0,0:0:0:0:
224,224,131865,1,0,0:0:0:0:
288,224,132071,1,8,0:0:0:0:
224,224,132276,1,0,0:0:0:0:
224,224,132482,1,0,0:0:0:0:
288,224,132893,1,8,0:0:0:0:
224,224,133098,1,0,0:0:0:0:
224,224,133201,1,0,0:0:0:0:
224,224,133304,1,0,0:0:0:0:
224,224,133509,1,0,0:0:0:0:
288,224,133715,1,8,0:0:0:0:
224,224,133818,1,0,0:0:0:0:
224,224,134023,1,0,0:0:0:0:
224,224,134126,1,0,0:0:0:0:
224,224,134331,1,0,0:0:0:0:
288,224,134537,1,8,0:0:0:0:
288,224,134639,1,8,0:0:0:0:
224,224,134742,1,0,0:0:0:0:
224,224,134948,1,0,0:0:0:0:
288,224,135153,1,8,0:0:0:0:
224,224,135256,1,0,0:0:0:0:
288,224,135359,1,8,0:0:0:0:
224,224,135564,1,0,0:0:0:0:
224,224,135770,1,0,0:0:0:0:
224,224,135872,1,0,0:0:0:0:
224,224,135975,1,0,0:0:0:0:
288,224,136181,1,8,0:0:0:0:
224,224,136386,1,0,0:0:0:0:
288,224,136489,1,8,0:0:0:0:
288,224,136591,1,8,0:0:0:0:
224,224,136797,1,0,0:0:0:0:
288,224,137002,1,8,0:0:0:0:
224,224,137105,1,0,0:0:0:0:
288,160,137413,1,12,0:0:0:0:
224,224,137619,1,0,0:0:0:0:
288,224,137824,1,8,0:0:0:0:
224,224,137927,1,0,0:0:0:0:
224,224,138133,1,0,0:0:0:0:
288,224,138235,1,8,0:0:0:0:
288,224,138338,1,8,0:0:0:0:
224,224,138441,1,0,0:0:0:0:
288,224,138646,1,8,0:0:0:0:
224,160,139057,1,4,0:0:0:0:
224,224,139263,1,0,0:0:0:0:
224,224,139468,1,0,0:0:0:0:
224,224,139674,1,0,0:0:0:0:
224,224,139776,1,0,0:0:0:0:
224,224,139982,1,0,0:0:0:0:
224,224,140187,1,0,0:0:0:0:
224,224,140290,1,0,0:0:0:0:
224,224,140393,1,0,0:0:0:0:
288,224,140496,1,8,0:0:0:0:
288,224,140598,1,8,0:0:0:0:
224,224,142345,1,0,0:0:0:0:
224,224,142550,1,0,0:0:0:0:
224,224,142756,1,0,0:0:0:0:
224,224,142961,1,0,0:0:0:0:
224,224,143064,1,0,0:0:0:0:
224,224,143270,1,0,0:0:0:0:
224,224,143475,1,0,0:0:0:0:
224,224,143578,1,0,0:0:0:0:
224,224,143681,1,0,0:0:0:0:
288,224,143783,1,8,0:0:0:0:
288,224,143886,1,8,0:0:0:0:
224,224,145633,1,0,0:0:0:0:
224,224,145838,1,0,0:0:0:0:
224,224,146044,1,0,0:0:0:0:
224,224,146249,1,0,0:0:0:0:
224,224,146352,1,0,0:0:0:0:
224,224,146557,1,0,0:0:0:0:
224,224,146763,1,0,0:0:0:0:
224,224,146865,1,0,0:0:0:0:
224,224,146968,1,0,0:0:0:0:
288,224,147071,1,8,0:0:0:0:
288,224,147174,1,8,0:0:0:0:
224,224,148920,1,0,0:0:0:0:
224,224,149126,1,0,0:0:0:0:
224,224,149331,1,0,0:0:0:0:
224,224,149537,1,0,0:0:0:0:
224,224,149639,1,0,0:0:0:0:
224,224,149845,1,0,0:0:0:0:
224,224,150050,1,0,0:0:0:0:
224,224,150153,1,0,0:0:0:0:
224,224,150256,1,0,0:0:0:0:
288,224,150359,1,8,0:0:0:0:
288,224,150461,1,8,0:0:0:0:
224,224,152208,1,0,0:0:0:0:
288,224,152413,1,8,0:0:0:0:
224,224,152619,1,0,0:0:0:0:
288,224,152824,1,8,0:0:0:0:
224,224,152927,1,0,0:0:0:0:
288,224,153133,1,8,0:0:0:0:
224,224,153338,1,0,0:0:0:0:
288,224,153441,1,8,0:0:0:0:
224,224,153544,1,0,0:0:0:0:
288,224,153646,1,8,0:0:0:0:
288,224,153749,1,8,0:0:0:0:
224,224,153852,1,0,0:0:0:0:
288,224,154057,1,8,0:0:0:0:
224,224,154263,1,0,0:0:0:0:
288,224,154468,1,8,0:0:0:0:
224,224,154571,1,0,0:0:0:0:
288,224,154776,1,8,0:0:0:0:
224,224,154982,1,0,0:0:0:0:
288,224,155085,1,8,0:0:0:0:
288,224,155187,1,8,0:0:0:0:
224,224,155290,1,0,0:0:0:0:
288,224,155393,1,8,0:0:0:0:
224,224,155496,1,0,0:0:0:0:
288,224,155701,1,8,0:0:0:0:
224,224,155907,1,0,0:0:0:0:
288,224,156112,1,8,0:0:0:0:
224,224,156215,1,0,0:0:0:0:
288,224,156420,1,8,0:0:0:0:
224,224,156626,1,0,0:0:0:0:
288,224,156728,1,8,0:0:0:0:
224,224,156831,1,0,0:0:0:0:
288,224,156934,1,8,0:0:0:0:
288,224,157037,1,8,0:0:0:0:
224,224,157139,1,0,0:0:0:0:
288,224,157345,1,8,0:0:0:0:
224,224,157550,1,0,0:0:0:0:
288,224,157756,1,8,0:0:0:0:
224,224,157859,1,0,0:0:0:0:
288,224,158064,1,8,0:0:0:0:
224,224,158270,1,0,0:0:0:0:
288,224,158372,1,8,0:0:0:0:
288,224,158475,1,8,0:0:0:0:
224,224,158578,1,0,0:0:0:0:
288,224,158681,1,8,0:0:0:0:
224,224,158783,1,0,0:0:0:0:
288,224,158989,1,8,0:0:0:0:
224,224,159194,1,0,0:0:0:0:
288,224,159400,1,8,0:0:0:0:
224,224,159502,1,0,0:0:0:0:
288,224,159708,1,8,0:0:0:0:
224,224,159913,1,0,0:0:0:0:
288,224,160016,1,8,0:0:0:0:
224,224,160119,1,0,0:0:0:0:
288,224,160222,1,8,0:0:0:0:
288,224,160324,1,8,0:0:0:0:
224,224,160427,1,0,0:0:0:0:
288,224,160633,1,8,0:0:0:0:
224,224,160838,1,0,0:0:0:0:
288,224,161044,1,8,0:0:0:0:
224,224,161146,1,0,0:0:0:0:
288,224,161352,1,8,0:0:0:0:
224,224,161557,1,0,0:0:0:0:
288,224,161660,1,8,0:0:0:0:
288,224,161763,1,8,0:0:0:0:
224,224,161865,1,0,0:0:0:0:
288,224,161968,1,8,0:0:0:0:
224,224,162071,1,0,0:0:0:0:
288,224,162276,1,8,0:0:0:0:
224,224,162482,1,0,0:0:0:0:
288,224,162687,1,8,0:0:0:0:
224,224,162790,1,0,0:0:0:0:
288,224,162996,1,8,0:0:0:0:
224,224,163201,1,0,0:0:0:0:
288,224,163304,1,8,0:0:0:0:
224,224,163407,1,0,0:0:0:0:
288,224,163509,1,8,0:0:0:0:
224,224,163612,1,0,0:0:0:0:
288,224,163715,1,8,0:0:0:0:
224,224,163920,1,0,0:0:0:0:
288,224,164126,1,8,0:0:0:0:
224,224,164434,1,0,0:0:0:0:
288,224,164639,1,8,0:0:0:0:
288,224,164845,1,8,0:0:0:0:
224,224,164948,1,0,0:0:0:0:
288,224,165050,1,8,0:0:0:0:
224,160,165359,1,4,0:0:0:0:
288,224,165564,1,8,0:0:0:0:
224,224,165667,1,0,0:0:0:0:
288,224,165770,1,8,0:0:0:0:
288,224,165975,1,8,0:0:0:0:
288,224,166078,1,8,0:0:0:0:
224,224,166283,1,0,0:0:0:0:
288,224,166489,1,8,0:0:0:0:
288,224,166591,1,8,0:0:0:0:
224,224,166694,1,0,0:0:0:0:
288,224,166797,1,8,0:0:0:0:
288,224,166900,1,8,0:0:0:0:
224,224,167002,1,0,0:0:0:0:
288,224,167208,1,8,0:0:0:0:
224,224,167311,1,0,0:0:0:0:
288,224,167413,1,8,0:0:0:0:
288,224,167619,1,8,0:0:0:0:
288,224,167722,1,8,0:0:0:0:
224,224,167927,1,0,0:0:0:0:
288,224,168133,1,8,0:0:0:0:
288,224,168235,1,8,0:0:0:0:
224,224,168338,1,0,0:0:0:0:
288,224,168441,1,8,0:0:0:0:
288,224,168544,1,8,0:0:0:0:
224,224,168646,1,0,0:0:0:0:
288,224,168852,1,8,0:0:0:0:
224,224,168955,1,0,0:0:0:0:
288,224,169057,1,8,0:0:0:0:
288,224,169263,1,8,0:0:0:0:
288,224,169365,1,8,0:0:0:0:
224,224,169571,1,0,0:0:0:0:
224,224,169776,1,0,0:0:0:0:
288,224,169879,1,8,0:0:0:0:
224,224,169982,1,0,0:0:0:0:
288,224,170085,1,8,0:0:0:0:
288,224,170187,1,8,0:0:0:0:
224,224,170290,1,0,0:0:0:0:
288,224,170496,1,8,0:0:0:0:
224,224,170598,1,0,0:0:0:0:
224,224,170701,1,0,0:0:0:0:
288,224,170907,1,8,0:0:0:0:
224,224,171009,1,0,0:0:0:0:
224,224,171215,1,0,0:0:0:0:
224,224,171420,1,0,0:0:0:0:
288,224,171523,1,8,0:0:0:0:
224,224,171626,1,0,0:0:0:0:
288,224,171728,1,8,0:0:0:0:
288,224,171831,1,8,0:0:0:0:
224,224,171934,1,0,0:0:0:0:
288,224,172139,1,8,0:0:0:0:
224,224,172242,1,0,0:0:0:0:
288,224,172345,1,8,0:0:0:0:
288,224,172550,1,8,0:0:0:0:
288,224,172653,1,8,0:0:0:0:
224,224,172859,1,0,0:0:0:0:
288,224,173064,1,8,0:0:0:0:
288,224,173167,1,8,0:0:0:0:
224,224,173270,1,0,0:0:0:0:
288,224,173372,1,8,0:0:0:0:
288,224,173475,1,8,0:0:0:0:
224,224,173578,1,0,0:0:0:0:
288,224,173783,1,8,0:0:0:0:
224,224,173886,1,0,0:0:0:0:
288,224,173989,1,8,0:0:0:0:
288,224,174194,1,8,0:0:0:0:
288,224,174297,1,8,0:0:0:0:
224,224,174502,1,0,0:0:0:0:
288,224,174708,1,8,0:0:0:0:
288,224,174811,1,8,0:0:0:0:
224,224,174913,1,0,0:0:0:0:
288,224,175016,1,8,0:0:0:0:
288,224,175119,1,8,0:0:0:0:
224,224,175222,1,0,0:0:0:0:
288,224,175427,1,8,0:0:0:0:
224,224,175530,1,0,0:0:0:0:
288,224,175633,1,8,0:0:0:0:
288,224,175838,1,8,0:0:0:0:
288,224,175941,1,8,0:0:0:0:
224,224,176146,1,0,0:0:0:0:
224,224,176352,1,0,0:0:0:0:
288,224,176455,1,8,0:0:0:0:
224,224,176557,1,0,0:0:0:0:
288,224,176660,1,8,0:0:0:0:
288,224,176763,1,8,0:0:0:0:
224,224,176865,1,0,0:0:0:0:
288,224,177071,1,8,0:0:0:0:
224,224,177174,1,0,0:0:0:0:
224,224,177276,1,0,0:0:0:0:
288,224,177482,1,8,0:0:0:0:
224,224,177585,1,0,0:0:0:0:
224,224,177790,1,0,0:0:0:0:
288,224,177996,1,8,0:0:0:0:
288,224,178098,1,8,0:0:0:0:
224,224,178201,1,0,0:0:0:0:
288,224,178304,1,8,0:0:0:0:
288,224,178407,1,8,0:0:0:0:
224,224,178509,1,0,0:0:0:0:
288,224,178715,1,8,0:0:0:0:
224,224,178818,1,0,0:0:0:0:
288,224,178920,1,8,0:0:0:0:
288,224,179126,1,8,0:0:0:0:
288,224,179228,1,8,0:0:0:0:
224,224,179434,1,0,0:0:0:0:
288,224,179639,1,8,0:0:0:0:
288,224,179742,1,8,0:0:0:0:
224,224,179845,1,0,0:0:0:0:
288,224,179948,1,8,0:0:0:0:
288,224,180050,1,8,0:0:0:0:
224,224,180153,1,0,0:0:0:0:
288,224,180359,1,8,0:0:0:0:
224,224,180461,1,0,0:0:0:0:
288,224,180564,1,8,0:0:0:0:
288,224,180770,1,8,0:0:0:0:
288,224,180872,1,8,0:0:0:0:
224,224,181078,1,0,0:0:0:0:
288,224,181283,1,8,0:0:0:0:
288,224,181386,1,8,0:0:0:0:
224,224,181489,1,0,0:0:0:0:
288,224,181591,1,8,0:0:0:0:
288,224,181694,1,8,0:0:0:0:
224,224,181797,1,0,0:0:0:0:
288,224,182002,1,8,0:0:0:0:
224,224,182105,1,0,0:0:0:0:
288,224,182208,1,8,0:0:0:0:
288,224,182413,1,8,0:0:0:0:
288,224,182516,1,8,0:0:0:0:
224,224,182722,1,0,0:0:0:0:
224,224,182927,1,0,0:0:0:0:
288,224,183030,1,8,0:0:0:0:
224,224,183133,1,0,0:0:0:0:
288,224,183235,1,8,0:0:0:0:
288,224,183338,1,8,0:0:0:0:
224,224,183441,1,0,0:0:0:0:
288,224,183646,1,8,0:0:0:0:
224,224,183749,1,0,0:0:0:0:
224,224,183852,1,0,0:0:0:0:
288,224,184057,1,8,0:0:0:0:
224,224,184160,1,0,0:0:0:0:
224,224,184365,1,0,0:0:0:0:
224,224,184571,1,0,0:0:0:0:
288,224,184674,1,8,0:0:0:0:
224,224,184776,1,0,0:0:0:0:
288,224,184879,1,8,0:0:0:0:
288,224,184982,1,8,0:0:0:0:
224,224,185085,1,0,0:0:0:0:
288,224,185290,1,8,0:0:0:0:
224,224,185393,1,0,0:0:0:0:
288,224,185496,1,8,0:0:0:0:
288,224,185701,1,8,0:0:0:0:
288,224,185804,1,8,0:0:0:0:
224,224,186009,1,0,0:0:0:0:
288,224,186215,1,8,0:0:0:0:
288,224,186318,1,8,0:0:0:0:
224,224,186420,1,0,0:0:0:0:
288,224,186523,1,8,0:0:0:0:
288,224,186626,1,8,0:0:0:0:
224,224,186728,1,0,0:0:0:0:
288,224,186934,1,8,0:0:0:0:
224,224,187037,1,0,0:0:0:0:
288,224,187139,1,8,0:0:0:0:
288,224,187345,1,8,0:0:0:0:
288,224,187448,1,8,0:0:0:0:
224,224,187653,1,0,0:0:0:0:
288,224,187859,1,8,0:0:0:0:
288,224,187961,1,8,0:0:0:0:
224,224,188064,1,0,0:0:0:0:
288,224,188167,1,8,0:0:0:0:
288,224,188270,1,8,0:0:0:0:
224,224,188372,1,0,0:0:0:0:
288,224,188578,1,8,0:0:0:0:
224,224,188681,1,0,0:0:0:0:
288,224,188783,1,8,0:0:0:0:
288,224,188989,1,8,0:0:0:0:
288,224,189091,1,8,0:0:0:0:
224,224,189297,1,0,0:0:0:0:
224,224,189502,1,0,0:0:0:0:
288,224,189605,1,8,0:0:0:0:
224,224,189708,1,0,0:0:0:0:
288,224,189811,1,8,0:0:0:0:
288,224,189913,1,8,0:0:0:0:
224,224,190016,1,0,0:0:0:0:
288,224,190222,1,8,0:0:0:0:
288,224,190427,1,8,0:0:0:0:
224,224,190633,1,0,0:0:0:0:
288,224,190735,1,8,0:0:0:0:
224,224,190941,1,0,0:0:0:0:
288,224,191146,1,8,0:0:0:0:
288,224,191249,1,8,0:0:0:0:
224,224,191352,1,0,0:0:0:0:
288,224,191455,1,8,0:0:0:0:
224,160,191660,1,4,0:0:0:0:
288,224,191865,1,8,0:0:0:0:
288,224,191968,1,8,0:0:0:0:
224,224,192071,1,0,0:0:0:0:
288,224,192276,1,8,0:0:0:0:
224,224,192379,1,0,0:0:0:0:
224,224,192585,1,0,0:0:0:0:
224,224,192790,1,0,0:0:0:0:
288,224,192893,1,8,0:0:0:0:
224,224,192996,1,0,0:0:0:0:
288,224,193098,1,8,0:0:0:0:
288,224,193201,1,8,0:0:0:0:
224,224,193304,1,0,0:0:0:0:
288,224,193509,1,8,0:0:0:0:
224,224,193612,1,0,0:0:0:0:
288,224,193715,1,8,0:0:0:0:
288,224,193920,1,8,0:0:0:0:
288,224,194023,1,8,0:0:0:0:
224,224,194228,1,0,0:0:0:0:
288,224,194434,1,8,0:0:0:0:
288,224,194537,1,8,0:0:0:0:
224,224,194639,1,0,0:0:0:0:
288,224,194742,1,8,0:0:0:0:
288,224,194845,1,8,0:0:0:0:
224,224,194948,1,0,0:0:0:0:
224,224,195153,1,0,0:0:0:0:
288,224,195256,1,8,0:0:0:0:
288,224,195359,1,8,0:0:0:0:
224,224,195564,1,0,0:0:0:0:
288,224,195667,1,8,0:0:0:0:
224,224,195872,1,0,0:0:0:0:
224,224,196078,1,0,0:0:0:0:
288,224,196181,1,8,0:0:0:0:
288,224,196283,1,8,0:0:0:0:
224,224,196386,1,0,0:0:0:0:
288,224,196489,1,8,0:0:0:0:
224,224,196591,1,0,0:0:0:0:
288,224,196797,1,8,0:0:0:0:
288,224,196900,1,8,0:0:0:0:
224,224,197002,1,0,0:0:0:0:
288,224,197208,1,8,0:0:0:0:
288,224,197311,1,8,0:0:0:0:
224,224,197516,1,0,0:0:0:0:
288,224,197722,1,8,0:0:0:0:
224,224,197824,1,0,0:0:0:0:
288,224,197927,1,8,0:0:0:0:
288,224,198030,1,8,0:0:0:0:
288,224,198133,1,8,0:0:0:0:
224,224,198235,1,0,0:0:0:0:
288,224,198441,1,8,0:0:0:0:
288,224,198544,1,8,0:0:0:0:
224,224,198646,1,0,0:0:0:0:
288,224,198852,1,8,0:0:0:0:
224,224,198955,1,0,0:0:0:0:
224,224,199160,1,0,0:0:0:0:
224,224,199365,1,0,0:0:0:0:
288,224,199468,1,8,0:0:0:0:
224,224,199571,1,0,0:0:0:0:
288,224,199674,1,8,0:0:0:0:
288,224,199776,1,8,0:0:0:0:
224,224,199879,1,0,0:0:0:0:
288,224,200085,1,8,0:0:0:0:
224,224,200187,1,0,0:0:0:0:
288,224,200290,1,8,0:0:0:0:
288,224,200496,1,8,0:0:0:0:
288,224,200598,1,8,0:0:0:0:
224,224,200804,1,0,0:0:0:0:
288,224,201009,1,8,0:0:0:0:
288,224,201112,1,8,0:0:0:0:
224,224,201215,1,0,0:0:0:0:
288,224,201318,1,8,0:0:0:0:
288,224,201420,1,8,0:0:0:0:
224,224,201523,1,0,0:0:0:0:
224,224,201728,1,0,0:0:0:0:
288,224,201831,1,8,0:0:0:0:
288,224,201934,1,8,0:0:0:0:
224,224,202139,1,0,0:0:0:0:
288,224,202242,1,8,0:0:0:0:
224,224,202448,1,0,0:0:0:0:
224,224,202653,1,0,0:0:0:0:
288,224,202756,1,8,0:0:0:0:
288,224,202859,1,8,0:0:0:0:
224,224,202961,1,0,0:0:0:0:
288,224,203064,1,8,0:0:0:0:
224,224,203167,1,0,0:0:0:0:
288,224,203372,1,8,0:0:0:0:
288,224,203475,1,8,0:0:0:0:
224,224,203578,1,0,0:0:0:0:
288,224,203783,1,8,0:0:0:0:
288,224,203886,1,8,0:0:0:0:
224,224,204091,1,0,0:0:0:0:
288,224,204297,1,8,0:0:0:0:
224,224,204400,1,0,0:0:0:0:
288,224,204502,1,8,0:0:0:0:
288,224,204605,1,8,0:0:0:0:
288,224,204708,1,8,0:0:0:0:
224,160,204811,1,4,0:0:0:0:
288,224,205016,1,8,0:0:0:0:
288,224,205119,1,8,0:0:0:0:
224,224,205222,1,0,0:0:0:0:
288,224,205427,1,8,0:0:0:0:
224,224,205530,1,0,0:0:0:0:
224,224,205735,1,0,0:0:0:0:
288,224,205941,1,8,0:0:0:0:
224,224,206044,1,0,0:0:0:0:
288,224,206146,1,8,0:0:0:0:
288,224,206249,1,8,0:0:0:0:
224,224,206352,1,0,0:0:0:0:
224,224,206455,1,0,0:0:0:0:
288,224,206660,1,8,0:0:0:0:
224,224,206763,1,0,0:0:0:0:
288,224,206865,1,8,0:0:0:0:
288,224,207071,1,8,0:0:0:0:
288,224,207174,1,8,0:0:0:0:
224,224,207379,1,0,0:0:0:0:
224,224,207585,1,0,0:0:0:0:
288,224,207687,1,8,0:0:0:0:
224,224,207790,1,0,0:0:0:0:
288,224,207893,1,8,0:0:0:0:
288,224,207996,1,8,0:0:0:0:
224,224,208098,1,0,0:0:0:0:
224,224,208304,1,0,0:0:0:0:
288,224,208407,1,8,0:0:0:0:
288,224,208509,1,8,0:0:0:0:
224,224,208715,1,0,0:0:0:0:
288,224,208818,1,8,0:0:0:0:
224,224,209023,1,0,0:0:0:0:
224,224,209228,1,0,0:0:0:0:
288,224,209331,1,8,0:0:0:0:
288,224,209434,1,8,0:0:0:0:
224,224,209537,1,0,0:0:0:0:
288,224,209639,1,8,0:0:0:0:
224,224,209742,1,0,0:0:0:0:
288,224,209948,1,8,0:0:0:0:
288,224,210050,1,8,0:0:0:0:
224,224,210153,1,0,0:0:0:0:
288,224,210359,1,8,0:0:0:0:
288,224,210461,1,8,0:0:0:0:
224,224,210667,1,0,0:0:0:0:
224,224,210872,1,0,0:0:0:0:
224,224,210975,1,0,0:0:0:0:
288,224,211078,1,8,0:0:0:0:
288,224,211181,1,8,0:0:0:0:
288,224,211283,1,8,0:0:0:0:
224,224,211386,1,0,0:0:0:0:
288,224,211591,1,8,0:0:0:0:
288,224,211694,1,8,0:0:0:0:
224,224,211797,1,0,0:0:0:0:
288,224,212002,1,8,0:0:0:0:
224,224,212105,1,0,0:0:0:0:
224,224,212311,1,0,0:0:0:0:
288,224,212516,1,8,0:0:0:0:
224,224,212619,1,0,0:0:0:0:
288,224,212722,1,8,0:0:0:0:
288,224,212824,1,8,0:0:0:0:
224,224,212927,1,0,0:0:0:0:
224,224,213030,1,0,0:0:0:0:
288,224,213235,1,8,0:0:0:0:
224,224,213338,1,0,0:0:0:0:
288,224,213441,1,8,0:0:0:0:
288,224,213646,1,8,0:0:0:0:
288,224,213749,1,8,0:0:0:0:
224,224,213955,1,0,0:0:0:0:
224,224,214160,1,0,0:0:0:0:
288,224,214263,1,8,0:0:0:0:
224,224,214365,1,0,0:0:0:0:
288,224,214468,1,8,0:0:0:0:
288,224,214571,1,8,0:0:0:0:
224,224,214674,1,0,0:0:0:0:
224,224,214879,1,0,0:0:0:0:
288,224,214982,1,8,0:0:0:0:
288,224,215085,1,8,0:0:0:0:
224,224,215290,1,0,0:0:0:0:
288,224,215393,1,8,0:0:0:0:
224,224,215598,1,0,0:0:0:0:
224,224,215804,1,0,0:0:0:0:
288,224,215907,1,8,0:0:0:0:
288,224,216009,1,8,0:0:0:0:
224,224,216112,1,0,0:0:0:0:
288,224,216215,1,8,0:0:0:0:
224,224,216318,1,0,0:0:0:0:
224,224,216523,1,0,0:0:0:0:
224,224,216626,1,0,0:0:0:0:
288,224,216728,1,8,0:0:0:0:
288,224,216831,1,8,0:0:0:0:
288,224,216934,1,8,0:0:0:0:
224,224,217037,1,0,0:0:0:0:
224,224,217242,1,0,0:0:0:0:
224,224,217448,1,0,0:0:0:0:
288,224,217550,1,8,0:0:0:0:
224,160,217961,5,4,0:0:0:0:
224,224,218167,1,0,0:0:0:0:
224,224,218270,1,0,0:0:0:0:
288,224,218372,1,8,0:0:0:0:
224,224,218475,1,0,0:0:0:0:
288,224,218578,1,8,0:0:0:0:
288,224,218681,1,8,0:0:0:0:
288,224,218783,1,8,0:0:0:0:
224,224,218989,1,0,0:0:0:0:
224,224,219194,1,0,0:0:0:0:
224,224,219297,1,0,0:0:0:0:
288,224,219400,1,8,0:0:0:0:
224,224,219502,1,0,0:0:0:0:
288,224,219605,1,8,0:0:0:0:
288,224,219708,1,8,0:0:0:0:
224,224,219811,1,0,0:0:0:0:
224,224,219913,1,0,0:0:0:0:
288,224,220016,1,8,0:0:0:0:
224,224,220119,1,0,0:0:0:0:
288,224,220222,1,8,0:0:0:0:
288,224,220427,1,8,0:0:0:0:
224,224,220633,1,0,0:0:0:0:
224,224,220735,1,0,0:0:0:0:
288,224,220838,1,8,0:0:0:0:
224,224,220941,1,0,0:0:0:0:
288,224,221044,1,8,0:0:0:0:
224,224,221249,1,0,0:0:0:0:
224,224,221455,1,0,0:0:0:0:
224,224,221557,1,0,0:0:0:0:
288,224,221660,1,8,0:0:0:0:
224,224,221763,1,0,0:0:0:0:
288,224,221865,1,8,0:0:0:0:
288,224,221968,1,8,0:0:0:0:
288,224,222071,1,8,0:0:0:0:
224,224,222276,1,0,0:0:0:0:
288,224,222482,1,8,0:0:0:0:
288,224,222687,1,8,0:0:0:0:
224,224,222790,1,0,0:0:0:0:
288,224,222893,1,8,0:0:0:0:
288,224,222996,1,8,0:0:0:0:
224,224,223098,1,0,0:0:0:0:
224,224,223201,1,0,0:0:0:0:
288,224,223304,1,8,0:0:0:0:
288,224,223407,1,8,0:0:0:0:
224,224,223509,1,0,0:0:0:0:
224,224,223612,1,0,0:0:0:0:
224,224,223715,1,0,0:0:0:0:
224,224,223818,1,0,0:0:0:0:
288,224,223920,1,8,0:0:0:0:
224,224,224023,1,0,0:0:0:0:
288,224,224126,1,8,0:0:0:0:
288,224,224331,1,8,0:0:0:0:
224,224,224434,1,0,0:0:0:0:
288,224,224537,1,8,0:0:0:0:
288,224,224742,1,8,0:0:0:0:
224,224,224948,1,0,0:0:0:0:
224,224,225050,1,0,0:0:0:0:
288,224,225153,1,8,0:0:0:0:
224,224,225256,1,0,0:0:0:0:
224,224,225359,1,0,0:0:0:0:
288,224,225564,1,8,0:0:0:0:
288,224,225667,1,8,0:0:0:0:
288,224,225770,1,8,0:0:0:0:
224,224,225975,1,0,0:0:0:0:
288,224,226181,1,8,0:0:0:0:
224,224,226386,1,0,0:0:0:0:
224,224,226489,1,0,0:0:0:0:
288,224,226591,1,8,0:0:0:0:
224,224,226797,1,0,0:0:0:0:
224,224,227002,1,0,0:0:0:0:
224,224,227105,1,0,0:0:0:0:
288,224,227208,1,8,0:0:0:0:
288,224,227311,1,8,0:0:0:0:
224,224,227413,1,0,0:0:0:0:
224,224,227516,1,0,0:0:0:0:
288,224,227619,1,8,0:0:0:0:
224,224,227722,1,0,0:0:0:0:
224,224,227824,1,0,0:0:0:0:
288,224,228030,1,8,0:0:0:0:
288,224,228133,1,8,0:0:0:0:
224,224,228235,1,0,0:0:0:0:
224,224,228338,1,0,0:0:0:0:
288,224,228441,1,8,0:0:0:0:
224,224,228646,1,0,0:0:0:0:
288,224,228749,1,8,0:0:0:0:
224,224,228852,1,0,0:0:0:0:
224,224,228955,1,0,0:0:0:0:
224,224,229057,1,0,0:0:0:0:
288,224,229160,1,8,0:0:0:0:
288,224,229263,1,8,0:0:0:0:
224,224,229365,1,0,0:0:0:0:
288,224,229468,1,8,0:0:0:0:
224,224,229571,1,0,0:0:0:0:
288,224,229674,1,8,0:0:0:0:
288,224,229776,1,8,0:0:0:0:
224,224,229879,1,0,0:0:0:0:
288,224,229982,1,8,0:0:0:0:
288,224,230085,1,8,0:0:0:0:
224,224,230187,1,0,0:0:0:0:
224,224,230290,1,0,0:0:0:0:
224,224,230359,1,0,0:0:0:0:
288,224,230427,1,8,0:0:0:0:
224,224,230496,1,0,0:0:0:0:
224,224,230564,1,0,0:0:0:0:
288,224,230633,1,8,0:0:0:0:
288,224,230701,1,8,0:0:0:0:
224,224,230804,1,0,0:0:0:0:
288,224,230907,1,8,0:0:0:0:
288,224,231009,1,8,0:0:0:0:
224,224,231112,1,0,0:0:0:0:
224,224,231318,1,0,0:0:0:0:
224,224,231523,1,0,0:0:0:0:
224,224,231591,1,0,0:0:0:0:
288,224,231660,1,8,0:0:0:0:
288,224,231728,1,8,0:0:0:0:
224,224,231797,1,0,0:0:0:0:
288,224,231865,1,8,0:0:0:0:
224,224,231934,1,0,0:0:0:0:
224,224,232002,1,0,0:0:0:0:
288,224,232071,1,8,0:0:0:0:
288,224,232139,1,8,0:0:0:0:
224,224,232208,1,0,0:0:0:0:
288,224,232276,1,8,0:0:0:0:
224,224,232345,1,0,0:0:0:0:
224,224,232550,1,0,0:0:0:0:
288,224,232756,1,8,0:0:0:0:
224,224,233167,1,0,0:0:0:0:
288,224,233235,1,8,0:0:0:0:
224,224,233304,1,0,0:0:0:0:
288,224,233372,1,8,0:0:0:0:
224,224,233441,1,0,0:0:0:0:
288,224,233509,1,8,0:0:0:0:
224,224,233578,1,0,0:0:0:0:
288,224,233646,1,8,0:0:0:0:
224,224,233715,1,0,0:0:0:0:
288,224,233783,1,8,0:0:0:0:
224,224,233852,1,0,0:0:0:0:
288,224,233920,1,8,0:0:0:0:
224,224,233989,1,0,0:0:0:0:
288,224,234057,1,8,0:0:0:0:
224,224,234126,1,0,0:0:0:0:
288,224,234194,1,8,0:0:0:0:
288,224,234297,1,8,0:0:0:0:
288,224,234400,1,8,0:0:0:0:
224,224,234502,1,0,0:0:0:0:
288,224,234605,1,8,0:0:0:0:
224,224,234708,1,0,0:0:0:0:
224,224,234811,1,0,0:0:0:0:
288,224,234913,1,8,0:0:0:0:
288,224,235016,1,8,0:0:0:0:
224,224,235119,1,0,0:0:0:0:
224,224,235222,1,0,0:0:0:0:
288,224,235324,1,8,0:0:0:0:
288,224,235427,1,8,0:0:0:0:
224,224,235530,1,0,0:0:0:0:
288,224,235633,1,8,0:0:0:0:
224,224,235735,1,0,0:0:0:0:
224,224,235838,1,0,0:0:0:0:
224,224,235941,1,0,0:0:0:0:
288,224,236044,1,8,0:0:0:0:
224,224,236146,1,0,0:0:0:0:
288,224,236249,1,8,0:0:0:0:
288,224,236352,1,8,0:0:0:0:
224,224,236455,1,0,0:0:0:0:
288,224,236523,1,8,0:0:0:0:
224,224,236591,1,0,0:0:0:0:
288,224,236660,1,8,0:0:0:0:
288,224,236763,1,8,0:0:0:0:
224,224,236865,1,0,0:0:0:0:
288,224,236968,1,8,0:0:0:0:
288,224,237071,1,8,0:0:0:0:
224,224,237174,1,0,0:0:0:0:
288,224,237276,1,8,0:0:0:0:
288,224,237379,1,8,0:0:0:0:
224,224,237482,1,0,0:0:0:0:
288,224,237585,1,8,0:0:0:0:
288,224,237687,1,8,0:0:0:0:
288,224,237893,1,8,0:0:0:0:
288,224,238098,1,8,0:0:0:0:
288,224,238201,1,8,0:0:0:0:
288,224,238304,1,8,0:0:0:0:
224,224,238509,1,0,0:0:0:0:
288,224,238612,1,8,0:0:0:0:
224,224,238715,1,0,0:0:0:0:
288,224,238818,1,8,0:0:0:0:
224,224,238920,1,0,0:0:0:0:
288,224,239023,1,8,0:0:0:0:
288,224,239126,1,8,0:0:0:0:
224,224,239228,1,0,0:0:0:0:
224,224,239331,1,0,0:0:0:0:
288,224,239537,1,8,0:0:0:0:
288,224,239639,1,8,0:0:0:0:
224,224,239742,1,0,0:0:0:0:
288,224,239845,1,8,0:0:0:0:
288,224,240050,1,8,0:0:0:0:
224,224,240153,1,0,0:0:0:0:
224,224,240256,1,0,0:0:0:0:
288,224,240359,1,8,0:0:0:0:
288,224,240461,1,8,0:0:0:0:
224,224,240564,1,0,0:0:0:0:
288,224,240667,1,8,0:0:0:0:
288,224,240770,1,8,0:0:0:0:
288,224,240872,1,8,0:0:0:0:
224,224,240975,1,0,0:0:0:0:
288,224,241181,1,8,0:0:0:0:
288,224,241283,1,8,0:0:0:0:
224,224,241386,1,0,0:0:0:0:
288,224,241591,1,8,0:0:0:0:
224,224,241797,1,0,0:0:0:0:
224,224,241900,1,0,0:0:0:0:
288,224,242002,1,8,0:0:0:0:
224,224,242208,1,0,0:0:0:0:
288,224,242413,1,8,0:0:0:0:
224,160,242619,1,4,0:0:0:0:
224,160,243029,1,4,0:0:0:0:
224,160,243440,1,4,0:0:0:0:
224,160,243577,1,4,0:0:0:0:
224,160,243714,1,4,0:0:0:0:
288,160,243851,1,12,0:0:0:0:
224,160,244057,1,4,0:0:0:0:
288,160,244262,1,12,0:0:0:0:
288,160,244673,1,12,0:0:0:0:
224,224,245083,1,0,0:0:0:0:
288,224,245289,1,8,0:0:0:0:
224,224,245392,1,0,0:0:0:0:
288,224,245494,1,8,0:0:0:0:
224,224,245700,1,0,0:0:0:0:
224,224,245803,1,0,0:0:0:0:
288,224,245905,1,8,0:0:0:0:
224,224,246008,1,0,0:0:0:0:
288,224,246111,1,8,0:0:0:0:
224,224,246316,1,0,0:0:0:0:
288,224,246522,1,8,0:0:0:0:
288,224,246625,1,8,0:0:0:0:
224,224,246727,1,0,0:0:0:0:
224,224,246830,1,0,0:0:0:0:
288,224,246933,1,8,0:0:0:0:
224,224,247138,1,0,0:0:0:0:
224,224,247241,1,0,0:0:0:0:
288,224,247344,1,8,0:0:0:0:
288,160,247549,1,12,0:0:0:0:
224,224,247960,1,0,0:0:0:0:
288,224,248166,1,8,0:0:0:0:
288,224,248268,1,8,0:0:0:0:
224,224,248371,1,0,0:0:0:0:
288,224,248577,1,8,0:0:0:0:
224,224,248782,1,0,0:0:0:0:
224,224,248885,1,0,0:0:0:0:
288,224,248988,1,8,0:0:0:0:
224,224,249090,1,0,0:0:0:0:
288,224,249193,1,8,0:0:0:0:
288,224,249399,1,8,0:0:0:0:
224,224,249501,1,0,0:0:0:0:
288,224,249604,1,8,0:0:0:0:
288,224,249809,1,8,0:0:0:0:
288,224,250015,1,8,0:0:0:0:
224,224,250118,1,0,0:0:0:0:
224,224,250220,1,0,0:0:0:0:
224,224,250289,1,0,0:0:0:0:
224,224,250357,1,0,0:0:0:0:
288,224,250426,1,8,0:0:0:0:
288,224,250631,1,8,0:0:0:0:
288,224,250734,1,8,0:0:0:0:
224,224,250837,1,0,0:0:0:0:
288,160,251248,1,12,0:0:0:0:
288,224,251453,1,8,0:0:0:0:
288,224,251556,1,8,0:0:0:0:
224,224,251659,1,0,0:0:0:0:
288,224,251864,1,8,0:0:0:0:
224,224,252070,1,0,0:0:0:0:
288,224,252275,1,8,0:0:0:0:
288,224,252378,1,8,0:0:0:0:
224,224,252481,1,0,0:0:0:0:
224,224,252583,1,0,0:0:0:0:
288,224,252686,1,8,0:0:0:0:
224,224,252892,1,0,0:0:0:0:
224,224,252994,1,0,0:0:0:0:
288,224,253097,1,8,0:0:0:0:
288,224,253200,1,8,0:0:0:0:
224,224,253303,1,0,0:0:0:0:
288,224,253508,1,8,0:0:0:0:
224,160,253714,1,4,0:0:0:0:
288,224,253919,1,8,0:0:0:0:
224,160,254125,1,4,0:0:0:0:
288,224,254330,1,8,0:0:0:0:
224,160,254536,1,4,0:0:0:0:
288,224,254741,1,8,0:0:0:0:
288,224,254844,1,8,0:0:0:0:
224,224,254946,1,0,0:0:0:0:
288,224,255152,1,8,0:0:0:0:
224,224,255357,1,0,0:0:0:0:
224,224,255563,1,0,0:0:0:0:
288,224,255666,1,8,0:0:0:0:
288,224,255768,1,8,0:0:0:0:
288,224,256179,1,8,0:0:0:0:
224,224,256385,1,0,0:0:0:0:
288,224,256590,1,8,0:0:0:0:
288,224,256693,1,8,0:0:0:0:
288,224,256796,1,8,0:0:0:0:
288,224,256899,1,8,0:0:0:0:
224,224,257001,1,0,0:0:0:0:
288,160,257412,1,12,0:0:0:0:
288,224,257720,1,8,0:0:0:0:
224,224,257822,1,0,0:0:0:0:
224,224,257925,1,0,0:0:0:0:
288,224,258028,1,8,0:0:0:0:
224,224,258131,1,0,0:0:0:0:
288,224,258233,1,8,0:0:0:0:
224,224,258439,1,0,0:0:0:0:
224,224,258542,1,0,0:0:0:0:
288,224,258644,1,8,0:0:0:0:
224,224,258747,1,0,0:0:0:0:
288,224,258850,1,8,0:0:0:0:
224,224,258953,1,0,0:0:0:0:
288,224,259055,1,8,0:0:0:0:
288,224,259261,1,8,0:0:0:0:
288,224,259466,1,8,0:0:0:0:
224,224,259569,1,0,0:0:0:0:
288,224,259672,1,8,0:0:0:0:
288,224,259775,1,8,0:0:0:0:
224,224,259877,1,0,0:0:0:0:
288,224,260083,1,8,0:0:0:0:
224,224,260288,1,0,0:0:0:0:
224,224,260391,1,0,0:0:0:0:
288,224,260494,1,8,0:0:0:0:
224,224,260596,1,0,0:0:0:0:
224,224,260699,1,0,0:0:0:0:
288,224,260905,1,8,0:0:0:0:
288,224,261110,1,8,0:0:0:0:
224,224,261213,1,0,0:0:0:0:
288,224,261316,1,8,0:0:0:0:
288,224,261418,1,8,0:0:0:0:
224,224,261521,1,0,0:0:0:0:
224,224,261727,1,0,0:0:0:0:
288,224,261829,1,8,0:0:0:0:
288,224,261932,1,8,0:0:0:0:
224,224,262035,1,0,0:0:0:0:
288,224,262138,1,8,0:0:0:0:
288,224,262240,1,8,0:0:0:0:
224,224,262343,1,0,0:0:0:0:
288,224,262548,1,8,0:0:0:0:
224,224,262651,1,0,0:0:0:0:
288,224,262754,1,8,0:0:0:0:
288,224,262857,1,8,0:0:0:0:
224,224,262959,1,0,0:0:0:0:
224,224,263062,1,0,0:0:0:0:
288,224,263165,1,8,0:0:0:0:
224,224,263370,1,0,0:0:0:0:
288,224,263576,1,8,0:0:0:0:
288,224,263679,1,8,0:0:0:0:
224,224,263781,1,0,0:0:0:0:
288,224,263884,1,8,0:0:0:0:
224,224,263987,1,0,0:0:0:0:
288,224,264192,1,8,0:0:0:0:
288,224,264398,1,8,0:0:0:0:
224,224,264501,1,0,0:0:0:0:
288,224,264603,1,8,0:0:0:0:
288,224,264706,1,8,0:0:0:0:
224,224,264809,1,0,0:0:0:0:
224,224,265014,1,0,0:0:0:0:
288,224,265220,1,8,0:0:0:0:
288,224,265322,1,8,0:0:0:0:
224,224,265425,1,0,0:0:0:0:
288,224,265528,1,8,0:0:0:0:
224,224,265631,1,0,0:0:0:0:
288,224,265836,1,8,0:0:0:0:
288,224,266042,1,8,0:0:0:0:
224,224,266144,1,0,0:0:0:0:
288,224,266247,1,8,0:0:0:0:
288,224,266350,1,8,0:0:0:0:
224,224,266453,1,0,0:0:0:0:
224,224,266658,1,0,0:0:0:0:
288,224,266864,1,8,0:0:0:0:
288,224,266966,1,8,0:0:0:0:
224,224,267069,1,0,0:0:0:0:
288,224,267172,1,8,0:0:0:0:
224,224,267275,1,0,0:0:0:0:
288,224,267480,1,8,0:0:0:0:
224,224,267583,1,0,0:0:0:0:
224,224,267685,1,0,0:0:0:0:
288,224,267891,1,8,0:0:0:0:
288,224,267994,1,8,0:0:0:0:
224,224,268096,1,0,0:0:0:0:
288,224,268302,1,8,0:0:0:0:
224,224,268405,1,0,0:0:0:0:
224,224,268507,1,0,0:0:0:0:
288,224,268713,1,8,0:0:0:0:
288,224,268816,1,8,0:0:0:0:
224,224,268918,1,0,0:0:0:0:
288,224,269021,1,8,0:0:0:0:
224,224,269124,1,0,0:0:0:0:
224,224,269227,1,0,0:0:0:0:
288,224,269329,1,8,0:0:0:0:
224,224,269432,1,0,0:0:0:0:
288,224,269535,1,8,0:0:0:0:
288,224,269638,1,8,0:0:0:0:
288,224,269740,1,8,0:0:0:0:
224,224,269843,1,0,0:0:0:0:
288,224,269946,1,8,0:0:0:0:
288,224,270048,1,8,0:0:0:0:
288,224,270151,1,8,0:0:0:0:
224,224,270254,1,0,0:0:0:0:
288,224,270357,1,8,0:0:0:0:
288,224,270459,1,8,0:0:0:0:
288,224,270562,1,8,0:0:0:0:
224,224,270870,1,0,0:0:0:0:
288,224,271179,1,8,0:0:0:0:
224,224,271487,1,0,0:0:0:0:
288,224,271795,1,8,0:0:0:0:
224,224,272001,1,0,0:0:0:0:
288,224,272206,1,8,0:0:0:0:
224,224,272514,1,0,0:0:0:0:
288,224,272822,1,8,0:0:0:0:
224,224,273131,1,0,0:0:0:0:
288,224,273439,1,8,0:0:0:0:
224,224,273644,1,0,0:0:0:0:
224,224,273850,1,0,0:0:0:0:
224,224,274158,1,0,0:0:0:0:
224,224,274466,1,0,0:0:0:0:
224,224,274775,1,0,0:0:0:0:
224,224,275083,1,0,0:0:0:0:
224,224,275288,1,0,0:0:0:0:
288,224,275494,1,8,0:0:0:0:
288,224,275802,1,8,0:0:0:0:
288,224,276110,1,8,0:0:0:0:
288,224,276418,1,8,0:0:0:0:
288,224,276727,1,8,0:0:0:0:
288,224,276829,1,8,0:0:0:0:
224,224,276932,1,0,0:0:0:0:
224,224,277035,1,0,0:0:0:0:
288,224,277138,1,8,0:0:0:0:
224,224,277343,1,0,0:0:0:0:
288,224,277446,1,8,0:0:0:0:
224,224,277651,1,0,0:0:0:0:
288,224,277754,1,8,0:0:0:0:
224,224,277959,1,0,0:0:0:0:
288,224,278062,1,8,0:0:0:0:
224,224,278268,1,0,0:0:0:0:
288,224,278370,1,8,0:0:0:0:
288,224,278473,1,8,0:0:0:0:
224,224,278576,1,0,0:0:0:0:
288,224,278679,1,8,0:0:0:0:
288,224,278781,1,8,0:0:0:0:
224,224,278987,1,0,0:0:0:0:
288,224,279090,1,8,0:0:0:0:
224,224,279295,1,0,0:0:0:0:
288,224,279398,1,8,0:0:0:0:
224,224,279603,1,0,0:0:0:0:
288,224,279706,1,8,0:0:0:0:
224,224,279912,1,0,0:0:0:0:
288,224,280014,1,8,0:0:0:0:
288,224,280117,1,8,0:0:0:0:
224,224,280220,1,0,0:0:0:0:
288,224,280322,1,8,0:0:0:0:
288,224,280425,1,8,0:0:0:0:
224,224,280631,1,0,0:0:0:0:
288,224,280733,1,8,0:0:0:0:
224,224,280939,1,0,0:0:0:0:
288,224,281042,1,8,0:0:0:0:
224,224,281247,1,0,0:0:0:0:
288,224,281350,1,8,0:0:0:0:
224,224,281555,1,0,0:0:0:0:
288,224,281658,1,8,0:0:0:0:
288,224,281761,1,8,0:0:0:0:
224,224,281864,1,0,0:0:0:0:
224,224,281966,1,0,0:0:0:0:
288,224,282069,1,8,0:0:0:0:
224,224,282275,1,0,0:0:0:0:
288,224,282377,1,8,0:0:0:0:
224,224,282583,1,0,0:0:0:0:
288,224,282685,1,8,0:0:0:0:
224,224,282891,1,0,0:0:0:0:
288,224,282994,1,8,0:0:0:0:
224,224,283199,1,0,0:0:0:0:
288,224,283302,1,8,0:0:0:0:
288,224,283405,1,8,0:0:0:0:
224,224,283507,1,0,0:0:0:0:
288,224,283610,1,8,0:0:0:0:
224,224,283713,1,0,0:0:0:0:
224,224,283816,1,0,0:0:0:0:
224,224,284021,1,0,0:0:0:0:
224,224,284124,1,0,0:0:0:0:
224,224,284329,1,0,0:0:0:0:
224,224,284432,1,0,0:0:0:0:
224,224,284638,1,0,0:0:0:0:
224,224,284740,1,0,0:0:0:0:
224,224,284946,1,0,0:0:0:0:
288,224,285151,1,8,0:0:0:0:
224,224,285254,1,0,0:0:0:0:
288,224,285357,1,8,0:0:0:0:
288,224,285459,1,8,0:0:0:0:
288,224,285665,1,8,0:0:0:0:
288,224,285768,1,8,0:0:0:0:
288,224,285973,1,8,0:0:0:0:
288,224,286076,1,8,0:0:0:0:
288,224,286281,1,8,0:0:0:0:
288,224,286384,1,8,0:0:0:0:
288,224,286590,1,8,0:0:0:0:
224,224,286795,1,0,0:0:0:0:
224,224,286898,1,0,0:0:0:0:
288,224,287001,1,8,0:0:0:0:
224,224,287103,1,0,0:0:0:0:
288,224,287309,1,8,0:0:0:0:
224,224,287412,1,0,0:0:0:0:
288,224,287617,1,8,0:0:0:0:
224,224,287720,1,0,0:0:0:0:
288,224,287925,1,8,0:0:0:0:
224,224,288028,1,0,0:0:0:0:
288,224,288233,1,8,0:0:0:0:
288,224,288336,1,8,0:0:0:0:
224,224,288439,1,0,0:0:0:0:
288,224,288542,1,8,0:0:0:0:
288,224,288644,1,8,0:0:0:0:
224,224,288747,1,0,0:0:0:0:
288,224,288953,1,8,0:0:0:0:
224,224,289055,1,0,0:0:0:0:
288,224,289261,1,8,0:0:0:0:
224,224,289364,1,0,0:0:0:0:
288,224,289569,1,8,0:0:0:0:
224,224,289672,1,0,0:0:0:0:
224,224,289877,1,0,0:0:0:0:
288,224,289980,1,8,0:0:0:0:
288,224,290083,1,8,0:0:0:0:
224,224,290185,1,0,0:0:0:0:
288,224,290288,1,8,0:0:0:0:
288,224,290391,1,8,0:0:0:0:
288,224,290596,1,8,0:0:0:0:
288,224,290699,1,8,0:0:0:0:
288,224,290905,1,8,0:0:0:0:
288,224,291007,1,8,0:0:0:0:
288,224,291213,1,8,0:0:0:0:
288,224,291316,1,8,0:0:0:0:
224,224,291521,1,0,0:0:0:0:
224,224,291624,1,0,0:0:0:0:
288,224,291727,1,8,0:0:0:0:
288,224,291829,1,8,0:0:0:0:
224,224,291932,1,0,0:0:0:0:
224,224,292035,1,0,0:0:0:0:
224,224,292240,1,0,0:0:0:0:
224,224,292343,1,0,0:0:0:0:
224,224,292548,1,0,0:0:0:0:
224,224,292651,1,0,0:0:0:0:
224,224,292857,1,0,0:0:0:0:
224,224,292959,1,0,0:0:0:0:
224,224,293165,1,0,0:0:0:0:
224,224,293268,1,0,0:0:0:0:
288,224,293370,1,8,0:0:0:0:
288,224,293473,1,8,0:0:0:0:
224,224,293576,1,0,0:0:0:0:
224,224,293781,1,0,0:0:0:0:
288,224,293884,1,8,0:0:0:0:
224,224,294090,1,0,0:0:0:0:
288,224,294192,1,8,0:0:0:0:
288,224,294398,1,8,0:0:0:0:
288,224,294535,1,8,0:0:0:0:
288,224,294672,1,8,0:0:0:0:
288,224,294809,1,8,0:0:0:0:
288,224,294946,1,8,0:0:0:0:
288,224,295083,1,8,0:0:0:0:
224,224,295220,1,0,0:0:0:0:
224,224,295631,1,0,0:0:0:0:
288,224,296042,1,8,0:0:0:0:
288,224,296144,1,8,0:0:0:0:
288,224,296247,1,8,0:0:0:0:
288,224,296350,1,8,0:0:0:0:
224,224,296453,1,0,0:0:0:0:
224,224,296555,1,0,0:0:0:0:
288,160,296864,1,12,0:0:0:0:
256,192,297275,12,0,303028,0:0:0:0:
224,224,303439,5,0,0:0:0:0:
288,224,304261,1,8,0:0:0:0:
224,224,305083,1,0,0:0:0:0:
224,224,305905,1,0,0:0:0:0:
288,224,306727,1,8,0:0:0:0:
224,224,307548,1,0,0:0:0:0:
288,224,308370,1,8,0:0:0:0:
224,224,309192,1,0,0:0:0:0:
224,224,310014,1,0,0:0:0:0:
288,224,310836,1,8,0:0:0:0:
224,224,311658,1,0,0:0:0:0:
288,224,312480,1,8,0:0:0:0:
224,224,313302,1,0,0:0:0:0:
224,224,313713,1,0,0:0:0:0:
288,224,314124,1,8,0:0:0:0:
224,224,314535,1,0,0:0:0:0:
224,224,314946,1,0,0:0:0:0:
224,224,315357,1,0,0:0:0:0:
224,224,315562,1,0,0:0:0:0:
288,224,315768,1,8,0:0:0:0:
224,224,316179,1,0,0:0:0:0:
224,224,316590,1,0,0:0:0:0:
224,224,317001,1,0,0:0:0:0:
288,224,317412,1,8,0:0:0:0:
224,224,317822,1,0,0:0:0:0:
224,224,318233,1,0,0:0:0:0:
224,224,318644,1,0,0:0:0:0:
224,224,319055,1,0,0:0:0:0:
224,224,319466,1,0,0:0:0:0:
288,224,319877,1,8,0:0:0:0:
224,224,320288,1,0,0:0:0:0:
288,224,320699,1,8,0:0:0:0:
224,224,321110,1,0,0:0:0:0:
288,224,321521,1,8,0:0:0:0:
224,224,321932,1,0,0:0:0:0:
224,224,322343,1,0,0:0:0:0:
224,224,322754,1,0,0:0:0:0:
288,224,323165,1,8,0:0:0:0:
224,224,323576,1,0,0:0:0:0:
224,224,323987,1,0,0:0:0:0:
224,224,324398,1,0,0:0:0:0:
288,224,324809,1,8,0:0:0:0:
224,224,325220,1,0,0:0:0:0:
288,224,325631,1,8,0:0:0:0:
224,224,326042,1,0,0:0:0:0:
224,224,326453,1,0,0:0:0:0:
224,224,326864,1,0,0:0:0:0:
288,224,327275,1,8,0:0:0:0:
224,224,327685,1,0,0:0:0:0:
288,224,328096,1,8,0:0:0:0:
288,224,328199,1,8,0:0:0:0:
288,224,328302,1,8,0:0:0:0:
224,224,328405,1,0,0:0:0:0:
288,224,328507,1,8,0:0:0:0:
288,224,328610,1,8,0:0:0:0:
288,224,328713,1,8,0:0:0:0:
224,224,328816,1,0,0:0:0:0:
288,224,328918,1,8,0:0:0:0:
288,224,329021,1,8,0:0:0:0:
288,224,329124,1,8,0:0:0:0:
224,224,329227,1,0,0:0:0:0:
288,224,329329,1,8,0:0:0:0:
288,224,329432,1,8,0:0:0:0:
288,224,329535,1,8,0:0:0:0:
288,160,329740,1,12,0:0:0:0:
288,224,330151,1,8,0:0:0:0:
288,224,330562,1,8,0:0:0:0:
224,224,330768,1,0,0:0:0:0:
288,224,330973,1,8,0:0:0:0:
224,224,331179,1,0,0:0:0:0:
288,224,331384,1,8,0:0:0:0:
288,224,331795,1,8,0:0:0:0:
288,224,332206,1,8,0:0:0:0:
224,224,332412,1,0,0:0:0:0:
288,224,332617,1,8,0:0:0:0:
288,160,333028,1,12,0:0:0:0:
288,224,333439,1,8,0:0:0:0:
288,224,333850,1,8,0:0:0:0:
288,224,334261,1,8,0:0:0:0:
224,224,334466,1,0,0:0:0:0:
288,224,334672,1,8,0:0:0:0:
224,224,334877,1,0,0:0:0:0:
288,224,335083,1,8,0:0:0:0:
288,224,335494,1,8,0:0:0:0:
224,224,335699,1,0,0:0:0:0:
288,224,335905,1,8,0:0:0:0:
288,160,336316,1,12,0:0:0:0:
288,224,336727,1,8,0:0:0:0:
224,224,337138,1,0,0:0:0:0:
288,224,337343,1,8,0:0:0:0:
224,224,337754,1,0,0:0:0:0:
288,224,337959,1,8,0:0:0:0:
288,224,338370,1,8,0:0:0:0:
224,224,338576,1,0,0:0:0:0:
288,224,338781,1,8,0:0:0:0:
224,224,338987,1,0,0:0:0:0:
288,224,339192,1,8,0:0:0:0:
224,160,339603,1,4,0:0:0:0:
288,224,340014,1,8,0:0:0:0:
224,224,340425,1,0,0:0:0:0:
288,224,340836,1,8,0:0:0:0:
224,224,341042,1,0,0:0:0:0:
288,224,341247,1,8,0:0:0:0:
288,224,341658,1,8,0:0:0:0:
288,224,342069,1,8,0:0:0:0:
224,224,342275,1,0,0:0:0:0:
288,224,342480,1,8,0:0:0:0:
288,224,342685,1,8,0:0:0:0:
224,160,342891,1,4,0:0:0:0:
288,224,343302,1,8,0:0:0:0:
224,224,343507,1,0,0:0:0:0:
288,224,343713,1,8,0:0:0:0:
288,224,343918,1,8,0:0:0:0:
288,224,344124,1,8,0:0:0:0:
224,224,344329,1,0,0:0:0:0:
288,224,344535,1,8,0:0:0:0:
288,224,344946,1,8,0:0:0:0:
288,224,345151,1,8,0:0:0:0:
224,224,345357,1,0,0:0:0:0:
224,224,345562,1,0,0:0:0:0:
288,224,345768,1,8,0:0:0:0:
224,224,345973,1,0,0:0:0:0:
288,224,346179,1,8,0:0:0:0:
288,224,346590,1,8,0:0:0:0:
224,224,346795,1,0,0:0:0:0:
288,224,347001,1,8,0:0:0:0:
224,224,347206,1,0,0:0:0:0:
288,224,347412,1,8,0:0:0:0:
288,224,347617,1,8,0:0:0:0:
224,224,347822,1,0,0:0:0:0:
224,224,348233,1,0,0:0:0:0:
224,224,348439,1,0,0:0:0:0:
288,224,348644,1,8,0:0:0:0:
224,224,348850,1,0,0:0:0:0:
288,224,349055,1,8,0:0:0:0:
224,224,349466,1,0,0:0:0:0:
224,224,349877,1,0,0:0:0:0:
288,224,350083,1,8,0:0:0:0:
224,224,350288,1,0,0:0:0:0:
288,224,350699,1,8,0:0:0:0:
224,224,350905,1,0,0:0:0:0:
288,224,351110,1,8,0:0:0:0:
288,224,351521,1,8,0:0:0:0:
224,224,351932,1,0,0:0:0:0:
288,224,352343,1,8,0:0:0:0:
288,224,352446,1,8,0:0:0:0:
224,224,352548,1,0,0:0:0:0:
288,224,352754,1,8,0:0:0:0:
224,224,352959,1,0,0:0:0:0:
288,224,353165,1,8,0:0:0:0:
224,224,353370,1,0,0:0:0:0:
288,224,353576,1,8,0:0:0:0:
224,224,353781,1,0,0:0:0:0:
288,224,353987,1,8,0:0:0:0:
288,224,354398,1,8,0:0:0:0:
224,224,354603,1,0,0:0:0:0:
288,224,354809,1,8,0:0:0:0:
288,224,355014,1,8,0:0:0:0:
256,192,355220,12,0,355631,0:0:0:0:
224,160,356042,5,4,0:0:0:0:
224,224,356453,1,0,0:0:0:0:
224,224,356555,1,0,0:0:0:0:
288,224,356658,1,8,0:0:0:0:
224,224,356761,1,0,0:0:0:0:
288,224,356864,1,8,0:0:0:0:
224,224,357275,1,0,0:0:0:0:
224,224,357377,1,0,0:0:0:0:
288,224,357480,1,8,0:0:0:0:
224,224,357583,1,0,0:0:0:0:
288,224,357685,1,8,0:0:0:0:
224,224,358096,1,0,0:0:0:0:
224,224,358199,1,0,0:0:0:0:
288,224,358302,1,8,0:0:0:0:
224,224,358405,1,0,0:0:0:0:
288,224,358507,1,8,0:0:0:0:
224,224,358713,1,0,0:0:0:0:
288,224,358918,1,8,0:0:0:0:
288,224,359124,1,8,0:0:0:0:
288,224,359329,1,8,0:0:0:0:
224,224,359740,1,0,0:0:0:0:
224,224,359843,1,0,0:0:0:0:
288,224,359946,1,8,0:0:0:0:
224,224,360048,1,0,0:0:0:0:
288,224,360151,1,8,0:0:0:0:
224,224,360562,1,0,0:0:0:0:
224,224,360665,1,0,0:0:0:0:
288,224,360768,1,8,0:0:0:0:
224,224,360870,1,0,0:0:0:0:
288,224,360973,1,8,0:0:0:0:
288,224,361384,1,8,0:0:0:0:
224,224,361487,1,0,0:0:0:0:
224,224,361590,1,0,0:0:0:0:
224,224,361692,1,0,0:0:0:0:
288,224,361795,1,8,0:0:0:0:
224,224,362001,1,0,0:0:0:0:
288,224,362206,1,8,0:0:0:0:
288,224,362412,1,8,0:0:0:0:
288,224,362617,1,8,0:0:0:0:
288,224,363028,1,8,0:0:0:0:
224,224,363131,1,0,0:0:0:0:
288,224,363233,1,8,0:0:0:0:
224,224,363336,1,0,0:0:0:0:
288,224,363439,1,8,0:0:0:0:
224,224,363850,1,0,0:0:0:0:
224,224,363953,1,0,0:0:0:0:
288,224,364055,1,8,0:0:0:0:
224,224,364158,1,0,0:0:0:0:
288,224,364261,1,8,0:0:0:0:
224,224,364466,1,0,0:0:0:0:
288,224,364672,1,8,0:0:0:0:
224,224,364877,1,0,0:0:0:0:
288,224,365083,1,8,0:0:0:0:
288,224,365288,1,8,0:0:0:0:
224,224,365494,1,0,0:0:0:0:
224,224,365699,1,0,0:0:0:0:
288,224,365905,1,8,0:0:0:0:
224,224,366316,1,0,0:0:0:0:
224,224,366727,1,0,0:0:0:0:
288,224,367138,1,8,0:0:0:0:
224,224,367548,1,0,0:0:0:0:
288,224,367959,1,8,0:0:0:0:
288,224,368062,1,8,0:0:0:0:
224,224,368165,1,0,0:0:0:0:
224,224,368370,1,0,0:0:0:0:
224,224,368576,1,0,0:0:0:0:
288,224,368781,1,8,0:0:0:0:
288,224,368884,1,8,0:0:0:0:
224,224,368987,1,0,0:0:0:0:
224,160,369192,1,4,0:0:0:0:
288,224,369603,1,8,0:0:0:0:
224,224,370014,1,0,0:0:0:0:
224,224,370425,1,0,0:0:0:0:
288,224,370631,1,8,0:0:0:0:
224,224,370836,1,0,0:0:0:0:
288,224,371247,1,8,0:0:0:0:
224,224,371658,1,0,0:0:0:0:
288,224,371864,1,8,0:0:0:0:
224,224,372069,1,0,0:0:0:0:
224,224,372480,1,0,0:0:0:0:
288,224,372891,1,8,0:0:0:0:
224,224,373302,1,0,0:0:0:0:
288,224,373507,1,8,0:0:0:0:
224,224,373713,1,0,0:0:0:0:
224,224,374124,1,0,0:0:0:0:
224,224,374227,1,0,0:0:0:0:
288,224,374329,1,8,0:0:0:0:
224,224,374535,1,0,0:0:0:0:
288,224,374638,1,8,0:0:0:0:
224,224,374843,1,0,0:0:0:0:
288,224,374946,1,8,0:0:0:0:
288,224,375048,1,8,0:0:0:0:
224,224,375151,1,0,0:0:0:0:
288,224,375254,1,8,0:0:0:0:
224,224,375459,1,0,0:0:0:0:
288,224,375562,1,8,0:0:0:0:
288,224,375665,1,8,0:0:0:0:
224,224,375768,1,0,0:0:0:0:
288,224,375973,1,8,0:0:0:0:
224,224,376179,1,0,0:0:0:0:
288,224,376281,1,8,0:0:0:0:
224,224,376487,1,0,0:0:0:0:
288,224,376590,1,8,0:0:0:0:
288,224,376692,1,8,0:0:0:0:
224,224,376795,1,0,0:0:0:0:
288,224,376898,1,8,0:0:0:0:
288,224,377103,1,8,0:0:0:0:
288,224,377206,1,8,0:0:0:0:
288,224,377309,1,8,0:0:0:0:
224,224,377412,1,0,0:0:0:0:
288,224,377617,1,8,0:0:0:0:
224,224,377822,1,0,0:0:0:0:
288,224,377925,1,8,0:0:0:0:
224,224,378131,1,0,0:0:0:0:
288,224,378233,1,8,0:0:0:0:
288,224,378336,1,8,0:0:0:0:
224,224,378439,1,0,0:0:0:0:
288,224,378542,1,8,0:0:0:0:
288,224,378747,1,8,0:0:0:0:
224,224,378850,1,0,0:0:0:0:
288,224,378953,1,8,0:0:0:0:
224,224,379055,1,0,0:0:0:0:
288,224,379261,1,8,0:0:0:0:
224,224,379466,1,0,0:0:0:0:
288,224,379569,1,8,0:0:0:0:
224,224,379775,1,0,0:0:0:0:
288,224,379877,1,8,0:0:0:0:
288,224,379980,1,8,0:0:0:0:
224,224,380083,1,0,0:0:0:0:
288,224,380185,1,8,0:0:0:0:
224,224,380391,1,0,0:0:0:0:
288,224,380494,1,8,0:0:0:0:
224,224,380596,1,0,0:0:0:0:
224,224,380699,1,0,0:0:0:0:
224,224,381110,1,0,0:0:0:0:
224,224,381316,1,0,0:0:0:0:
288,224,381521,1,8,0:0:0:0:
224,224,381727,1,0,0:0:0:0:
288,224,381932,1,8,0:0:0:0:
288,224,382138,1,8,0:0:0:0:
288,224,382240,1,8,0:0:0:0:
224,224,382343,1,0,0:0:0:0:
224,224,382446,1,0,0:0:0:0:
288,224,382548,1,8,0:0:0:0:
224,224,382651,1,0,0:0:0:0:
224,224,382754,1,0,0:0:0:0:
288,224,382857,1,8,0:0:0:0:
224,224,382959,1,0,0:0:0:0:
224,224,383062,1,0,0:0:0:0:
288,224,383165,1,8,0:0:0:0:
288,224,383268,1,8,0:0:0:0:
224,224,383370,1,0,0:0:0:0:
288,224,383473,1,8,0:0:0:0:
224,224,383679,1,0,0:0:0:0:
288,224,383781,1,8,0:0:0:0:
288,224,383884,1,8,0:0:0:0:
224,224,383987,1,0,0:0:0:0:
224,224,384090,1,0,0:0:0:0:
288,224,384192,1,8,0:0:0:0:
288,224,384295,1,8,0:0:0:0:
224,224,384398,1,0,0:0:0:0:
288,224,384501,1,8,0:0:0:0:
288,224,384603,1,8,0:0:0:0:
224,224,384706,1,0,0:0:0:0:
288,224,384809,1,8,0:0:0:0:
288,224,384912,1,8,0:0:0:0:
224,224,385014,1,0,0:0:0:0:
288,224,385117,1,8,0:0:0:0:
288,224,385322,1,8,0:0:0:0:
288,224,385425,1,8,0:0:0:0:
288,224,385528,1,8,0:0:0:0:
224,224,385631,1,0,0:0:0:0:
224,224,385733,1,0,0:0:0:0:
288,224,385836,1,8,0:0:0:0:
224,224,385939,1,0,0:0:0:0:
224,224,386042,1,0,0:0:0:0:
288,224,386144,1,8,0:0:0:0:
224,224,386247,1,0,0:0:0:0:
224,224,386350,1,0,0:0:0:0:
288,224,386453,1,8,0:0:0:0:
288,224,386555,1,8,0:0:0:0:
224,224,386658,1,0,0:0:0:0:
288,224,386761,1,8,0:0:0:0:
288,224,386966,1,8,0:0:0:0:
224,224,387069,1,0,0:0:0:0:
288,224,387172,1,8,0:0:0:0:
224,224,387275,1,0,0:0:0:0:
224,224,387377,1,0,0:0:0:0:
288,224,387480,1,8,0:0:0:0:
288,224,387583,1,8,0:0:0:0:
224,224,387685,1,0,0:0:0:0:
288,224,387788,1,8,0:0:0:0:
288,224,387891,1,8,0:0:0:0:
224,224,387994,1,0,0:0:0:0:
288,224,388096,1,8,0:0:0:0:
288,224,388199,1,8,0:0:0:0:
224,224,388302,1,0,0:0:0:0:
288,224,388405,1,8,0:0:0:0:
224,224,388610,1,0,0:0:0:0:
288,224,388713,1,8,0:0:0:0:
224,224,388816,1,0,0:0:0:0:
224,224,388918,1,0,0:0:0:0:
288,224,389021,1,8,0:0:0:0:
288,224,389124,1,8,0:0:0:0:
224,224,389227,1,0,0:0:0:0:
288,224,389329,1,8,0:0:0:0:
288,224,389432,1,8,0:0:0:0:
224,224,389535,1,0,0:0:0:0:
224,224,389638,1,0,0:0:0:0:
288,224,389740,1,8,0:0:0:0:
288,224,389843,1,8,0:0:0:0:
224,224,389946,1,0,0:0:0:0:
288,224,390048,1,8,0:0:0:0:
224,224,390254,1,0,0:0:0:0:
288,224,390357,1,8,0:0:0:0:
288,224,390459,1,8,0:0:0:0:
224,224,390562,1,0,0:0:0:0:
224,224,390665,1,0,0:0:0:0:
288,224,390768,1,8,0:0:0:0:
288,224,390870,1,8,0:0:0:0:
224,224,390973,1,0,0:0:0:0:
288,224,391076,1,8,0:0:0:0:
288,224,391179,1,8,0:0:0:0:
224,224,391281,1,0,0:0:0:0:
288,224,391384,1,8,0:0:0:0:
224,224,391487,1,0,0:0:0:0:
224,224,391590,1,0,0:0:0:0:
288,224,391692,1,8,0:0:0:0:
224,224,391898,1,0,0:0:0:0:
288,224,392001,1,8,0:0:0:0:
288,224,392103,1,8,0:0:0:0:
224,224,392206,1,0,0:0:0:0:
224,224,392309,1,0,0:0:0:0:
288,224,392412,1,8,0:0:0:0:
288,224,392514,1,8,0:0:0:0:
224,224,392617,1,0,0:0:0:0:
288,224,392720,1,8,0:0:0:0:
288,224,392822,1,8,0:0:0:0:
224,224,392925,1,0,0:0:0:0:
288,224,393028,1,8,0:0:0:0:
224,224,393131,1,0,0:0:0:0:
224,224,393233,1,0,0:0:0:0:
288,224,393336,1,8,0:0:0:0:
224,224,393542,1,0,0:0:0:0:
288,224,393644,1,8,0:0:0:0:
224,224,393747,1,0,0:0:0:0:
224,224,393850,1,0,0:0:0:0:
288,224,393953,1,8,0:0:0:0:
288,224,394055,1,8,0:0:0:0:
224,224,394158,1,0,0:0:0:0:
224,224,394261,1,0,0:0:0:0:
288,224,394364,1,8,0:0:0:0:
224,224,394466,1,0,0:0:0:0:
224,224,394569,1,0,0:0:0:0:
288,224,394672,1,8,0:0:0:0:
288,224,394775,1,8,0:0:0:0:
224,224,394877,1,0,0:0:0:0:
288,224,394980,1,8,0:0:0:0:
224,224,395185,1,0,0:0:0:0:
288,224,395288,1,8,0:0:0:0:
288,224,395391,1,8,0:0:0:0:
224,224,395494,1,0,0:0:0:0:
224,224,395596,1,0,0:0:0:0:
288,224,395699,1,8,0:0:0:0:
288,224,395802,1,8,0:0:0:0:
224,224,395905,1,0,0:0:0:0:
288,224,396007,1,8,0:0:0:0:
288,224,396110,1,8,0:0:0:0:
224,224,396213,1,0,0:0:0:0:
288,224,396316,1,8,0:0:0:0:
224,224,396418,1,0,0:0:0:0:
224,224,396521,1,0,0:0:0:0:
288,224,396624,1,8,0:0:0:0:
224,224,396829,1,0,0:0:0:0:
288,224,396932,1,8,0:0:0:0:
224,224,397035,1,0,0:0:0:0:
224,224,397138,1,0,0:0:0:0:
224,224,397240,1,0,0:0:0:0:
288,224,397343,1,8,0:0:0:0:
288,224,397446,1,8,0:0:0:0:
224,224,397549,1,0,0:0:0:0:
288,224,397651,1,8,0:0:0:0:
288,224,397754,1,8,0:0:0:0:
224,224,397857,1,0,0:0:0:0:
288,224,397960,1,8,0:0:0:0:
224,224,398062,1,0,0:0:0:0:
224,224,398165,1,0,0:0:0:0:
288,224,398268,1,8,0:0:0:0:
224,224,398473,1,0,0:0:0:0:
288,224,398576,1,8,0:0:0:0:
224,224,398679,1,0,0:0:0:0:
224,224,398781,1,0,0:0:0:0:
224,224,398883,1,0,0:0:0:0:
288,224,398986,1,8,0:0:0:0:
288,224,399089,1,8,0:0:0:0:
224,224,399192,1,0,0:0:0:0:
288,224,399294,1,8,0:0:0:0:
288,224,399397,1,8,0:0:0:0:
224,224,399500,1,0,0:0:0:0:
288,224,399603,1,8,0:0:0:0:
224,224,399705,1,0,0:0:0:0:
224,224,399808,1,0,0:0:0:0:
288,224,399911,1,8,0:0:0:0:
224,224,400116,1,0,0:0:0:0:
288,224,400219,1,8,0:0:0:0:
224,224,400322,1,0,0:0:0:0:
224,224,400425,1,0,0:0:0:0:
224,224,400528,1,0,0:0:0:0:
288,224,400631,1,8,0:0:0:0:
224,224,400733,1,0,0:0:0:0:
224,224,400836,1,0,0:0:0:0:
288,224,400939,1,8,0:0:0:0:
288,224,401042,1,8,0:0:0:0:
224,224,401144,1,0,0:0:0:0:
288,224,401247,1,8,0:0:0:0:
224,224,401350,1,0,0:0:0:0:
224,224,401453,1,0,0:0:0:0:
288,224,401555,1,8,0:0:0:0:
224,224,401761,1,0,0:0:0:0:
288,224,401864,1,8,0:0:0:0:
288,224,401966,1,8,0:0:0:0:
224,224,402069,1,0,0:0:0:0:
224,224,402171,1,0,0:0:0:0:
288,224,402274,1,8,0:0:0:0:
288,224,402377,1,8,0:0:0:0:
224,224,402480,1,0,0:0:0:0:
288,224,402582,1,8,0:0:0:0:
288,224,402685,1,8,0:0:0:0:
224,224,402788,1,0,0:0:0:0:
288,224,402891,1,8,0:0:0:0:
224,224,402993,1,0,0:0:0:0:
224,224,403096,1,0,0:0:0:0:
288,224,403199,1,8,0:0:0:0:
224,224,403404,1,0,0:0:0:0:
288,224,403507,1,8,0:0:0:0:
224,224,403610,1,0,0:0:0:0:
224,224,403713,1,0,0:0:0:0:
224,224,403815,1,0,0:0:0:0:
288,224,403918,1,8,0:0:0:0:
288,224,404021,1,8,0:0:0:0:
224,224,404124,1,0,0:0:0:0:
288,224,404226,1,8,0:0:0:0:
288,224,404329,1,8,0:0:0:0:
224,224,404432,1,0,0:0:0:0:
288,224,404535,1,8,0:0:0:0:
288,224,404638,1,8,0:0:0:0:
224,224,404740,1,0,0:0:0:0:
288,224,404843,1,8,0:0:0:0:
224,224,405048,1,0,0:0:0:0:
288,224,405151,1,8,0:0:0:0:
288,224,405254,1,8,0:0:0:0:
224,224,405357,1,0,0:0:0:0:
224,224,405459,1,0,0:0:0:0:
288,224,405562,1,8,0:0:0:0:
288,224,405665,1,8,0:0:0:0:
224,224,405768,1,0,0:0:0:0:
288,224,405870,1,8,0:0:0:0:
288,224,405973,1,8,0:0:0:0:
224,224,406076,1,0,0:0:0:0:
288,224,406179,1,8,0:0:0:0:
224,224,406281,1,0,0:0:0:0:
224,224,406384,1,0,0:0:0:0:
288,224,406487,1,8,0:0:0:0:
224,224,406692,1,0,0:0:0:0:
288,224,406795,1,8,0:0:0:0:
224,224,406898,1,0,0:0:0:0:
224,224,407001,1,0,0:0:0:0:
224,224,407103,1,0,0:0:0:0:
288,224,407206,1,8,0:0:0:0:
224,224,407309,1,0,0:0:0:0:
224,224,407412,1,0,0:0:0:0:
288,224,407514,1,8,0:0:0:0:
288,224,407617,1,8,0:0:0:0:
224,224,407720,1,0,0:0:0:0:
288,224,407822,1,8,0:0:0:0:
224,224,407925,1,0,0:0:0:0:
224,224,408028,1,0,0:0:0:0:
288,224,408131,1,8,0:0:0:0:
288,224,408233,1,8,0:0:0:0:
224,224,408336,1,0,0:0:0:0:
288,224,408439,1,8,0:0:0:0:
224,224,408542,1,0,0:0:0:0:
224,224,408644,1,0,0:0:0:0:
