osu file format v14

[General]
AudioFilename: audio.mp3
AudioLeadIn: 0
PreviewTime: 43906
Countdown: 0
SampleSet: Soft
StackLeniency: 0.7
Mode: 0
LetterboxInBreaks: 0
WidescreenStoryboard: 1

[Editor]
DistanceSpacing: 2
BeatDivisor: 6
GridSize: 32
TimelineZoom: 1.6

[Metadata]
Title:On My Own (feat. Nevve)
TitleUnicode:On My Own (feat. Nevve)
Artist:3LAU
ArtistUnicode:3LAU
Creator:Asphyxia
Version:Paper Planes And Sakura Lanes
Source:
Tags:zer0- electronic english ultraviolet dance music edm
BeatmapID:2811662
BeatmapSetID:1358727

[Difficulty]
HPDrainRate:6
CircleSize:4.5
OverallDifficulty:8.5
ApproachRate:9
SliderMultiplier:2.4
SliderTickRate:1

[Events]
//Background and Video events
0,0,"on my own.jpg",0,0
//Break Periods
2,2760,5063
2,6553,9200
2,10691,13338
//Storyboard Layer 0 (Background)
Sprite,Background,Centre,"sb\pixel.png",320,240 S,0,4628,,1000 C,0,4628,,255,192,203 S,0,21180,,1000 C,0,21180,,255,255,255 S,0,43939,,0 S,0,103292,,1000 C,0,103292,,255,192,203 S,0,110146,,0 S,0,155015,,1000 C,0,155015,,255,192,203 S,0,158249,,1000 C,0,158249,,255,255,255 S,0,161611,,1000 C,0,161611,,255,192,203 S,0,165878,,1000 C,0,165878,,255,255,255 S,0,175663,,1000 C,0,175663,,255,255,255 S,0,176353,,0
Sprite,Background,Centre,"sb\circle.png",0,0 M,0,2559,,347,332 C,0,2559,,255,192,203 S,1,2559,4628,0,2.8
Sprite,Background,Centre,"sb\circle.png",0,0 M,0,19111,,494,281 C,0,19111,,255,255,255 S,1,19111,21180,0,2.8
Sprite,Background,Centre,"sb\circle.png",0,0 M,0,39801,,158,207 C,0,39801,,255,192,203 S,26,39801,40301,0,0.18 F,0,43939,,1
Sprite,Background,Centre,"sb\circle.png",0,0 M,0,40318,,257,158 C,0,40318,,255,192,203 S,26,40318,40818,0,0.18 F,0,43939,,1
Sprite,Background,Centre,"sb\circle.png",0,0 M,0,40835,,269,312 C,0,40835,,255,192,203 S,26,40835,41335,0,0.18 F,0,43939,,1
Sprite,Background,Centre,"sb\circle.png",0,0 M,0,41353,,441,247 C,0,41353,,255,192,203 S,26,41353,41853,0,0.18 F,0,43939,,1
Sprite,Background,Centre,"sb\circle.png",0,0 M,0,41870,,398,413 C,0,41870,,255,192,203 S,26,41870,42370,0,0.18 F,0,43939,,1
Sprite,Background,Centre,"sb\circle.png",0,0 M,0,42215,,480,372 C,0,42215,,255,192,203 S,26,42215,42715,0,0.18 F,0,43939,,1
Sprite,Background,Centre,"sb\circle.png",0,0 M,0,42560,,368,217 C,0,42560,,255,192,203 S,26,42560,43060,0,0.18 F,0,43939,,1
Sprite,Background,Centre,"sb\circle.png",0,0 M,0,42904,,576,173 C,0,42904,,255,192,203 S,26,42904,43404,0,0.18 F,0,43939,,1
Sprite,Background,Centre,"sb\circle.png",0,0 M,0,43249,,438,56 C,0,43249,,255,192,203 S,26,43249,43749,0,0.18 F,0,43939,,1
Sprite,Background,Centre,"sb\circle.png",0,0 M,0,43594,,526,81 C,0,43594,,255,192,203 S,26,43594,43939,0,0.18 F,0,43939,,1
Sprite,Background,Centre,"sb\circle.png",0,0 M,0,101870,,478,424 C,0,101870,,255,192,203 S,1,101870,103939,0,2.8
Sprite,Background,Centre,"sb\circle.png",0,0 M,0,109111,,239,70 C,0,109111,,255,255,255 S,26,109111,109611,0,0.18 F,0,110146,,1
Sprite,Background,Centre,"sb\circle.png",0,0 M,0,109456,,399,146 C,0,109456,,255,255,255 S,26,109456,109956,0,0.18 F,0,110146,,1
Sprite,Background,Centre,"sb\circle.png",0,0 M,0,109801,,210,232 C,0,109801,,255,255,255 S,26,109801,110146,0,0.18 F,0,110146,,1
Sprite,Background,Centre,"sb\circle.png",0,0 M,0,151525,,558,412 C,0,151525,,255,192,203 S,1,151525,155663,0,2.8
Sprite,Background,Centre,"sb\circle.png",0,0 M,0,155663,,177,250 C,0,155663,,255,255,255 S,1,155663,159801,0,2.8
Sprite,Background,Centre,"sb\circle.png",0,0 M,0,159801,,242,212 C,0,159801,,255,192,203 S,1,159801,162559,0,2.8
Sprite,Background,Centre,"sb\circle.png",0,0 M,0,163939,,68,440 C,0,163939,,255,255,255 S,1,163939,166697,0,2.8
Sprite,Background,Centre,"sb\circle.png",0,0 M,0,172215,,349,319 C,0,172215,,255,192,203 S,1,172215,173870,0,2.8
Sprite,Background,Centre,"sb\circle.png",0,0 M,0,172732,,365,243 C,0,172732,,255,255,255 S,1,172732,174387,0,2.8
Sprite,Background,Centre,"sb\circle.png",0,0 M,0,173249,,188,210 C,0,173249,,255,192,203 S,1,173249,174904,0,2.8
Sprite,Background,Centre,"sb\circle.png",0,0 M,0,173766,,175,89 C,0,173766,,255,255,255 S,1,173766,175421,0,2.8
Sprite,Background,Centre,"sb\circle.png",0,0 M,0,174284,,130,291 C,0,174284,,255,192,203 S,26,174284,174784,0,0.18 F,0,176353,,1
Sprite,Background,Centre,"sb\circle.png",0,0 M,0,174628,,215,287 C,0,174628,,255,192,203 S,26,174628,175128,0,0.18 F,0,176353,,1
Sprite,Background,Centre,"sb\circle.png",0,0 M,0,174973,,346,316 C,0,174973,,255,192,203 S,26,174973,175473,0,0.18 F,0,176353,,1
Sprite,Background,Centre,"sb\circle.png",0,0 M,0,175318,,263,414 C,0,175318,,255,192,203 S,26,175318,175818,0,0.18 F,0,176353,,1
Sprite,Background,Centre,"sb\circle.png",0,0 M,0,175663,,250,213 C,0,175663,,255,192,203 S,26,175663,176163,0,0.18 F,0,176353,,1
Sprite,Background,Centre,"sb\circle.png",0,0 M,0,175835,,375,238 C,0,175835,,255,192,203 S,26,175835,176335,0,0.18 F,0,176353,,1
Sprite,Background,Centre,"sb\circle.png",0,0 M,0,176008,,348,63 C,0,176008,,255,192,203 S,26,176008,176353,0,0.18 F,0,176353,,1
//Storyboard Layer 1 (Fail)
//Storyboard Layer 2 (Pass)
//Storyboard Layer 3 (Foreground)
//Storyboard Layer 4 (Overlay)
//Storyboard Sound Samples

[TimingPoints]
2560,517.241379310345,4,2,0,100,1,0
2560,-200,4,2,1,50,0,0
19111,-333.333333333333,4,2,1,50,0,0
39801,-200,4,2,1,50,0,0
41870,-133.333333333333,4,2,1,50,0,0
43939,-83.3333333333333,4,2,1,75,0,1
46008,-125,4,2,1,75,0,1
47042,-83.3333333333333,4,2,1,75,0,1
50146,-125,4,2,1,75,0,1
51180,-83.3333333333333,4,2,1,75,0,1
51697,-100,4,2,1,75,0,1
59456,-100,4,2,1,75,0,0
60491,-83.3333333333333,4,2,1,75,0,1
62560,-125,4,2,1,75,0,1
63594,-83.3333333333333,4,2,1,75,0,1
66697,-125,4,2,1,75,0,1
68249,-100,4,2,1,75,0,1
77042,-125,4,2,1,65,0,0
86353,-100,4,2,1,65,0,0
86870,-125,4,2,1,65,0,0
93594,-125,4,2,2,65,0,0
94111,-333.333333333333,4,2,1,50,0,0
109111,-125,4,2,1,50,0,0
110146,-83.3333333333333,4,2,1,75,0,1
112215,-125,4,2,1,75,0,1
113249,-83.3333333333333,4,2,1,75,0,1
116353,-125,4,2,1,75,0,1
117387,-83.3333333333333,4,2,1,75,0,1
117904,-100,4,2,1,75,0,1
125663,-100,4,2,1,75,0,0
126697,-83.3333333333333,4,2,1,75,0,1
128766,-125,4,2,1,75,0,1
130318,-83.3333333333333,4,2,1,75,0,1
132904,-125,4,2,1,75,0,1
134456,-100,4,2,1,75,0,1
143249,-333.333333333333,4,2,2,50,0,0
143335,-333.333333333333,4,2,1,50,0,0
172215,-200,4,2,1,50,0,0
174284,-133.333333333333,4,2,1,50,0,0
176353,-83.3333333333333,4,2,1,75,0,1
182560,-125,4,2,1,75,0,1
183594,-83.3333333333333,4,2,1,75,0,1
191870,-100,4,2,1,75,0,0
192904,-83.3333333333333,4,2,1,75,0,1
194973,-125,4,2,1,75,0,1
196008,-83.3333333333333,4,2,1,75,0,1
199111,-125,4,2,1,75,0,1
200146,-83.3333333333333,4,2,1,75,0,1
209456,-333.333333333333,4,2,1,50,0,0
222646,-333.333333333333,4,2,1,40,0,0
223853,-333.333333333333,4,2,1,30,0,0
225404,-333.333333333333,4,2,1,20,0,0
225922,-333.333333333333,4,2,1,10,0,0
226439,-333.333333333333,4,2,1,5,0,0

[Colours]
Combo1 : 128,128,255
Combo2 : 255,191,223
Combo3 : 255,128,128
Combo4 : 128,128,192

[HitObjects]
283,276,2560,5,0,0:0:0:0:
184,244,5663,5,2,0:0:0:0:
184,244,6353,1,2,0:0:0:0:
184,139,9800,5,2,0:0:0:0:
184,139,10491,1,2,0:0:0:0:
283,107,13938,5,2,0:0:0:0:
283,107,14628,1,2,0:0:0:0:
256,192,15404,12,0,17732,0:0:0:0:
344,192,18077,5,2,0:0:0:0:
344,192,18766,1,2,0:0:0:0:
430,225,19111,6,0,P|312:336|260:183,1,383.99998828125,2|0,0:2|0:0,0:0:0:0:
181,168,22215,1,2,0:0:0:0:
181,168,22904,1,2,0:0:0:0:
101,148,23249,6,0,P|153:-4|271:106,1,383.99998828125,2|0,0:2|0:0,0:0:0:0:
349,129,26353,1,2,0:0:0:0:
349,129,27042,1,2,0:0:0:0:
495,29,27387,6,0,P|498:52|504:75,1,47.9999985351563,2|0,0:2|0:0,0:0:0:0:
431,90,27904,2,0,P|427:66|421:43,1,47.9999985351563,2|0,0:2|0:0,0:0:0:0:
358,82,28422,2,0,P|322:76|287:67,1,71.9999978027344,2|0,0:2|0:0,0:0:0:0:
148,12,29456,6,0,P|145:35|139:58,1,47.9999985351563,2|0,0:2|0:0,0:0:0:0:
212,73,29973,2,0,P|216:49|222:26,1,47.9999985351563,2|0,0:2|0:0,0:0:0:0:
287,67,30491,2,0,P|293:90|296:113,1,47.9999985351563,2|0,0:2|0:0,0:0:0:0:
370,99,31008,2,0,P|363:75|360:52,1,47.9999985351563,2|0,0:2|0:0,0:0:0:0:
444,112,31525,6,0,P|439:128|436:145,18,23.9999992675781,2|0|0|0|0|0|0|0|0|0|0|0|0|0|0|0|2|0|2,0:0|0:0|0:0|0:0|0:0|0:0|0:0|0:0|0:0|0:0|0:0|0:0|0:0|0:0|0:0|0:0|0:0|0:0|0:0,0:0:0:0:
512,148,34973,1,0,0:0:0:0:
512,148,35146,1,2,0:0:0:0:
471,259,35663,6,0,P|477:282|480:305,1,47.9999985351563,2|0,0:2|0:0,0:0:0:0:
420,350,36180,2,0,P|396:343|374:335,1,47.9999985351563,2|0,0:2|0:0,0:0:0:0:
366,260,36697,2,0,P|383:243|401:227,1,47.9999985351563,2|0,0:2|0:0,0:0:0:0:
195,296,37732,6,0,P|188:319|185:343,1,47.9999985351563,2|0,0:2|0:0,0:0:0:0:
270,266,38422,1,2,0:0:0:0:
270,266,38594,1,2,0:0:0:0:
195,296,38766,2,0,P|187:234|171:174,1,119.999996337891,2|0,0:2|0:0,0:0:0:0:
94,151,39801,6,0,P|97:122|116:72,1,80,2|0,1:2|0:0,0:0:0:0:
193,102,40318,2,0,P|190:131|171:181,1,80,2|0,1:2|0:0,0:0:0:0:
205,256,40835,2,0,P|244:250|281:235,1,80,2|0,1:2|0:0,0:0:0:0:
377,191,41353,2,0,P|362:227|357:267,1,80,0|2,1:0|0:0,0:0:0:0:
334,357,41870,6,0,P|313:331|286:310,1,60.0000022888184,0|0,3:0|0:0,0:0:0:0:
416,316,42215,2,0,P|428:285|432:251,1,60.0000022888184,0|0,3:0|0:0,0:0:0:0:
304,161,42560,2,0,P|324:135|351:114,1,60.0000022888184,0|0,3:0|0:0,0:0:0:0:
512,117,42904,2,0,P|479:112|447:99,1,60.0000022888184,2|0,3:0|0:0,0:0:0:0:
374,0,43249,2,0,P|386:30|391:64,1,60.0000022888184,4|8,3:0|0:0,0:0:0:0:
462,25,43594,1,4,3:0:0:0:
228,77,43939,6,0,B|168:72|125:100|156:110|109:133|49:129,1,191.999994140625,6|0,3:2|0:0,0:0:0:0:
49,129,44370,1,0,0:0:0:0:
49,129,44456,1,10,0:0:0:0:
215,244,44628,1,0,0:0:0:0:
21,315,44801,2,0,P|43:322|67:326,1,47.9999985351563
144,312,44973,1,2,3:2:0:0:
203,151,45146,1,0,0:0:0:0:
301,293,45318,1,0,0:0:0:0:
353,192,45491,2,0,P|369:239|375:289,1,95.9999970703126,10|0,0:0|0:0,0:0:0:0:
512,191,45835,1,0,0:0:0:0:
439,204,46008,6,0,P|443:171|454:139,1,64,2|0,3:2|0:0,0:0:0:0:
381,109,46353,1,0,0:0:0:0:
436,2,46525,2,0,P|446:32|450:64,1,64,10|0,0:0|0:0,0:0:0:0:
251,17,46870,1,2,0:0:0:0:
251,17,46956,1,0,0:0:0:0:
251,17,47042,1,2,3:2:0:0:
334,40,47215,1,2,0:0:0:0:
193,101,47387,1,2,0:0:0:0:
0,6,47560,2,0,P|15:51|21:98,1,95.9999970703126,10|0,0:0|0:0,0:0:0:0:
17,184,47904,1,0,0:0:0:0:
254,213,48077,6,0,B|314:209|361:232|330:242|373:270|433:265,1,191.999994140625,2|0,3:2|0:0,0:0:0:0:
432,265,48508,1,0,0:0:0:0:
432,265,48594,1,10,0:0:0:0:
323,334,48766,1,0,0:0:0:0:
509,335,48939,2,0,P|485:338|462:346,1,47.9999985351563
393,373,49111,1,2,3:2:0:0:
406,192,49284,1,0,0:0:0:0:
307,131,49456,1,0,0:0:0:0:
403,14,49628,2,0,P|409:61|424:106,1,95.9999970703126,10|0,0:0|0:0,0:0:0:0:
406,192,49973,1,0,0:0:0:0:
255,196,50146,6,0,P|223:189|193:179,1,64,2|0,3:2|0:0,0:0:0:0:
307,131,50491,1,0,0:0:0:0:
121,50,50663,2,0,P|132:80|138:111,1,64,10|0,0:0|0:0,0:0:0:0:
110,201,51008,1,2,0:0:0:0:
110,201,51094,1,0,0:0:0:0:
110,201,51180,1,2,3:2:0:0:
30,242,51353,1,2,0:0:0:0:
137,366,51525,1,2,0:0:0:0:
319,246,51697,2,0,P|307:161|280:80,1,160,10|0,0:0|0:0,0:0:0:0:
381,5,52215,6,0,P|374:44|360:82,1,80,2|0,3:2|0:0,0:0:0:0:
419,143,52560,2,0,P|456:129|496:122,1,80,2|8,0:0|0:0,0:0:0:0:
323,161,52904,2,0,P|316:184|313:208,1,40,2|0,0:0|0:0,0:0:0:0:
405,262,53077,2,0,P|398:239|395:215,1,40,2|0,0:0|0:0,0:0:0:0:
311,287,53249,2,0,P|273:273|234:266,1,80,2|0,3:2|0:0,0:0:0:0:
129,212,53594,2,0,P|142:249|150:289,1,80,2|8,0:0|0:0,0:0:0:0:
85,340,53939,2,0,P|47:327|8:320,1,80,2|0,0:0|0:0,0:0:0:0:
129,212,54284,6,0,P|168:204|205:191,1,80,2|0,3:2|0:0,0:0:0:0:
19,115,54628,2,0,P|58:123|95:136,1,80,2|8,0:0|0:0,0:0:0:0:
277,251,54973,2,0,P|290:213|298:174,1,80,2|0,0:0|0:0,0:0:0:0:
114,60,55318,2,0,P|153:51|190:38,1,80,2|0,3:2|0:0,0:0:0:0:
405,209,55663,2,0,P|391:171|383:132,1,80,2|8,0:0|0:0,0:0:0:0:
287,4,56008,2,0,P|306:10|325:13,1,40,2|0,0:0|0:0,0:0:0:0:
413,67,56180,2,0,P|406:47|403:28,1,40,2|0,0:0|0:0,0:0:0:0:
486,12,56353,5,2,3:2:0:0:
486,91,56525,1,0,0:0:0:0:
432,170,56697,1,0,0:0:0:0:
402,278,56870,1,10,0:0:0:0:
483,376,57042,1,0,0:0:0:0:
493,365,57215,5,0,0:0:0:0:
413,327,57387,1,2,3:2:0:0:
300,330,57560,1,0,0:0:0:0:
198,376,57732,1,0,0:0:0:0:
79,362,57904,1,10,0:0:0:0:
225,300,58077,1,0,0:0:0:0:
107,106,58249,1,0,0:0:0:0:
146,198,58422,5,2,3:2:0:0:
184,92,58594,1,0,0:0:0:0:
269,188,58766,1,0,0:0:0:0:
262,111,58939,1,0,0:0:0:0:
344,144,59111,1,0,0:0:0:0:
344,144,59197,1,0,0:0:0:0:
344,144,59284,1,0,0:0:0:0:
392,50,59456,6,0,P|398:69|401:88,1,40,4|0,3:0|0:0,0:0:0:0:
411,247,59628,2,0,P|407:227|401:208,1,40,4|0,3:0|0:0,0:0:0:0:
482,107,59801,1,0,3:0:0:0:
499,248,59973,1,0,0:0:0:0:
499,248,60146,2,0,P|505:228|508:209,1,40,4|0,3:0|0:0,0:0:0:0:
482,107,60318,2,0,P|475:126|472:145,1,40,4|0,3:0|0:0,0:0:0:0:
336,264,60491,6,0,B|276:259|233:287|264:297|217:320|157:316,1,191.999994140625,6|0,3:2|0:0,0:0:0:0:
157,316,60922,1,0,0:0:0:0:
157,316,61008,1,10,0:0:0:0:
37,241,61180,1,0,0:0:0:0:
143,196,61353,2,0,P|119:192|96:184,1,47.9999985351563
52,128,61525,1,2,3:2:0:0:
221,170,61697,1,0,0:0:0:0:
326,44,61870,1,0,0:0:0:0:
469,135,62042,2,0,P|453:180|447:227,1,95.9999970703126,10|0,0:0|0:0,0:0:0:0:
340,336,62387,1,0,0:0:0:0:
418,350,62560,6,0,P|413:316|402:283,1,64,2|0,3:2|0:0,0:0:0:0:
338,256,62904,1,0,0:0:0:0:
386,129,63077,2,0,P|380:160|371:191,1,64,10|0,0:0|0:0,0:0:0:0:
264,300,63422,1,2,0:0:0:0:
264,300,63508,1,0,0:0:0:0:
264,300,63594,1,2,3:2:0:0:
161,232,63766,1,2,0:0:0:0:
276,121,63939,1,2,0:0:0:0:
86,0,64111,2,0,P|69:44|65:92,1,95.9999970703126,10|0,0:0|0:0,0:0:0:0:
98,177,64456,1,0,0:0:0:0:
0,316,64628,6,0,B|60:312|107:335|76:345|119:373|179:368,1,191.999994140625,2|0,3:2|0:0,0:0:0:0:
178,368,65060,1,0,0:0:0:0:
178,368,65146,1,10,0:0:0:0:
215,188,65318,1,0,0:0:0:0:
294,365,65491,1,0,0:0:0:0:
174,255,65663,2,0,P|219:270|266:276,1,95.9999970703126,2|0,3:2|0:0,0:0:0:0:
417,258,66008,1,0,0:0:0:0:
302,139,66180,6,0,P|306:162|314:185,1,47.9999985351563,10|0,0:0|0:0,0:0:0:0:
409,158,66353,2,0,P|405:135|397:112,1,47.9999985351563,2|0,0:0|0:0,0:0:0:0:
327,59,66525,1,0,0:0:0:0:
84,111,66697,6,0,P|87:88|95:66,1,32,2|0,3:2|0:0,0:0:0:0:
175,104,66870,2,0,P|171:126|163:148,1,32,2|0,0:0|0:0,0:0:0:0:
109,185,67042,1,0,0:0:0:0:
274,246,67215,6,0,P|271:223|263:201,1,32,10|0,0:0|0:0,0:0:0:0:
199,235,67388,2,0,P|203:257|211:279,1,32,2|0,0:0|0:0,0:0:0:0:
143,317,67560,1,2,0:0:0:0:
143,317,67646,1,0,0:0:0:0:
143,317,67732,1,2,3:2:0:0:
262,366,67904,1,2,0:0:0:0:
420,224,68077,1,2,0:0:0:0:
282,34,68249,2,0,P|205:10|126:-1,1,160,10|2,0:0|0:0,0:0:0:0:
36,7,68766,6,0,P|49:44|56:83,1,80,2|0,3:2|0:0,0:0:0:0:
212,95,69111,2,0,P|172:87|135:74,1,80,2|8,0:0|0:0,0:0:0:0:
104,151,69456,2,0,P|97:170|94:189,1,40,2|0,0:0|0:0,0:0:0:0:
167,215,69628,2,0,P|170:234|176:253,1,40,2|0,0:0|0:0,0:0:0:0:
162,334,69801,2,0,P|201:327|239:313,1,80,2|0,3:2|0:0,0:0:0:0:
269,156,70146,2,0,P|262:195|248:233,1,80,2|8,0:0|0:0,0:0:0:0:
318,279,70491,2,0,P|357:285|395:299,1,80,2|0,0:0|0:0,0:0:0:0:
461,199,70835,6,0,P|474:236|481:275,1,80,2|0,3:2|0:0,0:0:0:0:
477,117,71180,2,0,P|439:103|399:96,1,80,2|8,0:0|0:0,0:0:0:0:
394,298,71525,2,0,P|377:333|354:365,1,80,2|0,0:0|0:0,0:0:0:0:
306,55,71870,2,0,P|270:72|237:95,1,80,2|0,3:2|0:0,0:0:0:0:
238,313,72215,2,0,P|201:326|162:333,1,80,2|8,0:0|0:0,0:0:0:0:
157,88,72560,2,0,P|146:116|141:146,1,40,2|0,0:0|0:0,0:0:0:0:
120,268,72732,2,0,P|88:253|60:233,1,40,2|0,0:0|0:0,0:0:0:0:
19,181,72904,5,2,3:2:0:0:
110,152,73077,1,0,0:0:0:0:
203,173,73249,1,0,0:0:0:0:
277,234,73422,1,10,0:0:0:0:
369,258,73594,1,0,0:0:0:0:
393,246,73766,5,0,0:0:0:0:
284,314,73939,1,2,3:2:0:0:
164,269,74111,1,0,0:0:0:0:
110,152,74284,1,0,0:0:0:0:
66,342,74456,1,10,0:0:0:0:
212,206,74628,1,0,0:0:0:0:
58,76,74801,1,0,0:0:0:0:
99,169,74973,5,2,3:2:0:0:
127,31,75146,1,0,0:0:0:0:
127,31,75232,1,0,0:0:0:0:
127,31,75318,1,0,0:0:0:0:
171,104,75491,1,0,0:0:0:0:
229,38,75663,1,0,0:0:0:0:
229,38,75749,1,0,0:0:0:0:
229,38,75835,1,0,0:0:0:0:
297,164,76008,6,0,P|291:145|288:126,1,40,4|0,3:0|0:0,0:0:0:0:
325,36,76180,1,0,0:0:0:0:
425,109,76353,2,0,P|419:128|416:147,1,40,4|0,3:0|0:0,0:0:0:0:
454,210,76525,1,8,0:0:0:0:
365,292,76697,2,0,P|361:272|355:253,1,40,0|0,3:0|0:0,0:0:0:0:
282,315,76870,2,0,P|275:295|272:276,1,40,0|0,3:0|0:0,0:0:0:0:
194,287,77042,6,0,P|158:276|122:270,2,64,0|0|2,3:0|0:0|0:0,0:0:0:0:
103,201,77560,2,0,P|71:206|41:217,2,64,8|2|0,0:0|0:0|0:0,0:0:0:0:
146,129,78077,2,0,P|213:138|276:159,1,128,2|0,3:2|0:0,0:0:0:0:
328,217,78594,2,0,P|396:220|449:181,1,128,10|0,0:0|0:0,0:0:0:0:
386,127,79111,2,0,P|318:124|265:163,1,128,2|0,3:2|0:0,0:0:0:0:
239,233,79628,2,0,P|176:237|123:203,1,128,10|0,0:0|0:0,0:0:0:0:
91,104,80146,2,0,B|151:99|194:127|163:137|210:160|270:156,1,191.999994140625,2|8,3:2|0:0,0:0:0:0:
342,115,80835,1,2,0:0:0:0:
342,115,81180,6,0,P|348:83|357:53,2,64,2|0|0,3:2|0:0|0:0,0:0:0:0:
425,120,81697,2,0,P|418:151|409:181,2,64,10|0|0,0:0|0:0|0:0,0:0:0:0:
506,98,82215,2,0,P|497:161|478:222,1,128,2|0,3:2|0:0,0:0:0:0:
437,305,82732,2,0,P|428:241|409:180,1,128,10|0,0:0|0:0,0:0:0:0:
354,243,83249,2,0,P|280:231|213:209,1,128,2|0,3:2|0:0,0:0:0:0:
98,320,83766,2,0,P|161:310|222:292,1,128,10|0,0:0|0:0,0:0:0:0:
258,142,84284,2,0,B|198:137|155:165|186:175|139:198|79:194,1,191.999994140625,2|8,3:2|0:0,0:0:0:0:
16,139,84973,1,2,0:0:0:0:
16,139,85318,5,2,3:2:0:0:
29,56,85491,1,2,0:0:0:0:
107,81,85663,1,2,0:0:0:0:
196,9,85835,2,0,P|206:45|206:83,1,64,10|0,0:0|0:0,0:0:0:0:
119,3,86180,1,2,0:0:0:0:
294,62,86353,2,0,P|267:137|251:215,1,160,2|0,3:2|0:0,0:0:0:0:
224,334,86870,2,0,P|212:280|194:228,1,64,10|0,0:0|0:0,0:0:0:0:
294,277,87215,1,0,0:0:0:0:
294,277,87387,2,0,P|355:296|431:311,1,128,2|0,3:2|0:0,0:0:0:0:
498,349,87904,2,0,P|483:286|458:213,1,128,10|0,0:0|0:0,0:0:0:0:
462,126,88422,2,0,P|434:148|405:184,1,64,2|0,3:2|0:0,0:0:0:0:
361,115,88766,1,2,0:0:0:0:
308,179,88939,2,0,P|239:165|186:143,1,128,10|0,0:0|0:0,0:0:0:0:
145,69,89456,5,2,3:2:0:0:
90,131,89628,1,0,0:0:0:0:
58,53,89801,1,0,0:0:0:0:
145,69,89973,2,0,P|193:60|216:51,1,64,10|0,0:0|0:0,0:0:0:0:
294,32,90318,1,0,0:0:0:0:
370,87,90491,1,2,3:2:0:0:
437,106,90663,1,0,0:0:0:0:
453,37,90835,1,0,0:0:0:0:
294,32,91008,2,0,P|285:62|280:94,1,64,10|0,0:0|0:0,0:0:0:0:
247,161,91353,1,0,0:0:0:0:
359,239,91525,2,0,P|328:247|296:252,1,64,0|0,3:0|0:0,0:0:0:0:
178,144,91870,1,2,0:0:0:0:
122,251,92042,2,0,P|153:255|184:264,1,64,10|0,0:0|0:0,0:0:0:0:
211,81,92387,1,2,0:0:0:0:
66,187,92560,2,0,P|57:156|52:124,1,64,2|0,3:2|0:0,0:0:0:0:
134,38,92904,1,2,0:0:0:0:
0,217,93077,2,0,P|93:231|194:270,1,192,10|4,0:0|0:0,0:0:0:0:
184,266,94111,6,0,P|210:263|262:242,1,71.9999978027344,2|2,0:0|0:0,0:0:0:0:
252,247,95663,1,2,0:0:0:0:
304,126,96008,2,0,P|300:152|294:177,1,47.9999985351563,2|0,0:0|0:0,0:0:0:0:
363,210,96525,1,2,0:0:0:0:
363,210,96697,2,0,P|370:168|382:136,1,71.9999978027344,2|0,0:0|0:0,0:0:0:0:
130,67,97732,6,0,P|105:73|81:75,1,47.9999985351563,2|0,0:0|0:0,0:0:0:0:
171,160,98249,2,0,P|178:135|188:113,1,47.9999985351563,2|0,0:0|0:0,0:0:0:0:
63,146,98766,2,0,P|80:164|94:184,1,47.9999985351563,2|0,0:0|0:0,0:0:0:0:
145,235,99284,1,0,0:0:0:0:
145,235,99801,6,0,P|140:254|137:284,1,47.9999985351563,2|0,0:0|0:0,0:0:0:0:
132,356,100318,1,0,0:0:0:0:
230,278,100663,1,2,0:0:0:0:
230,278,100835,2,0,P|225:298|222:329,1,47.9999985351563,2|0,0:0|0:0,0:0:0:0:
285,376,101353,1,0,0:0:0:0:
285,376,101525,1,2,0:0:0:0:
347,329,101697,1,2,0:0:0:0:
414,368,101870,6,0,P|440:353|465:346,1,47.9999985351563,2|0,0:0|0:0,0:0:0:0:
410,279,102387,2,0,P|417:256|430:235,1,47.9999985351563,2|0,0:0|0:0,0:0:0:0:
431,158,102904,2,0,P|465:169|496:188,1,71.9999978027344,2|0,0:0|0:0,0:0:0:0:
431,158,103939,5,2,0:0:0:0:
512,108,104284,1,2,0:0:0:0:
374,73,104628,1,2,0:0:0:0:
360,198,104801,1,2,0:0:0:0:
325,131,104973,2,0,P|275:136|206:155,1,119.999996337891,2|0,0:0|0:0,0:0:0:0:
131,176,106008,6,0,P|108:173|76:162,1,47.9999985351563,2|0,0:0|0:0,0:0:0:0:
108,91,106525,2,0,P|131:94|163:105,1,47.9999985351563,2|0,0:0|0:0,0:0:0:0:
207,154,107042,2,0,P|202:104|175:13,1,143.999995605469,2|0,0:0|0:0,0:0:0:0:
175,14,109111,6,0,P|216:27|262:32,1,64,2|0,3:0|0:0,0:0:0:0:
335,90,109456,2,0,P|303:96|273:106,1,64,4|8,3:0|0:0,0:0:0:0:
146,176,109801,1,4,3:0:0:0:
146,176,110146,6,0,P|162:239|177:373,1,191.999994140625,6|0,3:2|0:0,0:0:0:0:
176,364,110577,1,0,0:0:0:0:
176,364,110663,1,10,0:0:0:0:
300,259,110835,1,0,0:0:0:0:
365,331,111008,2,0,P|387:338|411:342,1,47.9999985351563
484,318,111180,1,2,3:2:0:0:
305,175,111353,1,0,0:0:0:0:
274,371,111525,1,0,0:0:0:0:
405,263,111697,2,0,P|411:215|426:170,1,95.9999970703126,10|0,0:0|0:0,0:0:0:0:
220,213,112042,1,0,0:0:0:0:
346,61,112215,6,0,P|357:95|362:130,1,64,2|0,3:2|0:0,0:0:0:0:
437,90,112560,1,0,0:0:0:0:
220,213,112732,2,0,P|231:178|236:143,1,64,10|0,0:0|0:0,0:0:0:0:
89,13,113077,1,2,0:0:0:0:
89,13,113163,1,0,0:0:0:0:
89,13,113249,1,2,3:2:0:0:
186,53,113422,1,2,0:0:0:0:
15,163,113594,1,2,0:0:0:0:
138,283,113766,2,0,P|183:298|230:304,1,95.9999970703126,10|0,0:0|0:0,0:0:0:0:
307,191,114111,1,0,0:0:0:0:
512,310,114284,6,0,B|452:306|405:329|436:339|393:367|333:362,1,191.999994140625,2|0,3:2|0:0,0:0:0:0:
333,362,114715,1,0,0:0:0:0:
333,362,114801,1,10,0:0:0:0:
387,251,114973,1,0,0:0:0:0:
307,191,115146,2,0,P|303:167|295:144,1,47.9999985351563
369,112,115318,1,2,3:2:0:0:
229,55,115491,1,0,0:0:0:0:
181,185,115663,1,0,0:0:0:0:
50,116,115835,2,0,P|65:70|71:22,1,95.9999970703126,10|0,0:0|0:0,0:0:0:0:
150,95,116180,1,0,0:0:0:0:
32,205,116353,6,0,P|36:242|48:278,1,64,2|0,3:2|0:0,0:0:0:0:
0,330,116697,1,0,0:0:0:0:
131,290,116870,2,0,P|162:294|193:302,1,64,10|0,0:0|0:0,0:0:0:0:
325,383,117215,1,2,0:0:0:0:
325,383,117301,1,0,0:0:0:0:
325,383,117387,1,2,3:2:0:0:
463,346,117560,1,2,0:0:0:0:
496,161,117732,1,2,0:0:0:0:
298,89,117904,2,0,P|219:108|133:166,1,160,10|0,0:0|0:0,0:0:0:0:
37,53,118422,6,0,P|74:66|114:73,1,80,2|0,3:2|0:0,0:0:0:0:
172,164,118766,2,0,P|132:170|94:184,1,80,2|8,0:0|0:0,0:0:0:0:
0,296,119111,2,0,P|19:300|39:303,1,40,2|0,0:0|0:0,0:0:0:0:
120,346,119284,2,0,P|115:326|112:306,1,40,2|0,0:0|0:0,0:0:0:0:
217,241,119456,2,0,P|211:280|197:318,1,80,2|0,3:2|0:0,0:0:0:0:
318,380,119801,2,0,P|312:340|298:302,1,80,2|8,0:0|0:0,0:0:0:0:
324,202,120146,2,0,P|351:230|385:252,1,80,2|0,0:0|0:0,0:0:0:0:
456,373,120491,6,0,P|466:334|469:294,1,80,2|0,3:2|0:0,0:0:0:0:
380,122,120835,2,0,P|402:89|431:61,1,80,2|8,0:0|0:0,0:0:0:0:
512,230,121180,2,0,P|489:196|461:168,1,80,2|0,0:0|0:0,0:0:0:0:
245,216,121525,2,0,P|284:212|323:201,1,80,2|0,3:2|0:0,0:0:0:0:
273,42,121870,2,0,P|234:31|194:29,1,80,2|8,0:0|0:0,0:0:0:0:
151,250,122215,2,0,P|167:227|179:202,1,40,2|0,0:0|0:0,0:0:0:0:
86,188,122387,2,0,P|68:178|52:166,1,40,2|0,0:0|0:0,0:0:0:0:
53,0,122560,5,2,3:2:0:0:
16,79,122732,1,0,0:0:0:0:
53,167,122904,1,0,0:0:0:0:
91,264,123077,1,10,0:0:0:0:
22,352,123249,1,0,0:0:0:0:
33,344,123422,5,0,0:0:0:0:
143,357,123594,1,2,3:2:0:0:
237,297,123766,1,0,0:0:0:0:
239,184,123939,1,0,0:0:0:0:
385,317,124111,1,10,0:0:0:0:
472,307,124284,1,0,0:0:0:0:
378,300,124456,1,0,0:0:0:0:
463,161,124628,5,2,3:2:0:0:
474,33,124801,1,0,0:0:0:0:
402,112,124973,1,0,0:0:0:0:
323,93,125146,1,0,0:0:0:0:
246,156,125318,1,0,0:0:0:0:
246,156,125404,1,0,0:0:0:0:
246,156,125491,1,0,0:0:0:0:
183,19,125663,6,0,P|189:38|192:57,1,40,4|0,3:0|0:0,0:0:0:0:
149,151,125835,2,0,P|153:171|159:190,1,40,4|0,3:0|0:0,0:0:0:0:
84,258,126008,1,0,3:0:0:0:
203,329,126180,1,0,0:0:0:0:
203,329,126353,2,0,P|222:334|241:337,1,40,4|0,3:0|0:0,0:0:0:0:
388,243,126525,2,0,P|368:239|349:231,1,40,4|0,3:0|0:0,0:0:0:0:
218,260,126697,6,0,B|278:256|325:279|294:289|337:317|397:312,1,191.999994140625,6|0,3:2|0:0,0:0:0:0:
396,312,127128,1,0,0:0:0:0:
396,312,127215,1,10,0:0:0:0:
350,123,127387,1,0,0:0:0:0:
500,271,127560,2,0,P|492:249|489:225,1,47.9999985351563
512,147,127732,1,2,3:2:0:0:
382,49,127904,1,0,0:0:0:0:
434,168,128077,1,0,0:0:0:0:
318,300,128249,2,0,P|272:284|224:278,1,95.9999970703126,10|0,0:0|0:0,0:0:0:0:
133,308,128594,1,0,0:0:0:0:
201,372,128766,6,0,P|232:366|262:356,1,64,2|0,3:2|0:0,0:0:0:0:
318,300,129111,1,0,0:0:0:0:
199,179,129284,2,0,P|180:205|166:233,1,64,10|0,0:0|0:0,0:0:0:0:
308,177,129628,1,2,0:0:0:0:
308,177,129715,1,0,0:0:0:0:
308,177,129801,1,2,3:2:0:0:
220,24,129973,1,2,0:0:0:0:
15,31,130146,1,2,0:0:0:0:
0,257,130318,2,0,P|47:250|92:235,1,95.9999970703126,10|0,0:0|0:0,0:0:0:0:
187,124,130663,1,0,0:0:0:0:
89,330,130835,6,0,P|184:335|277:360,1,191.999994140625,2|0,3:2|0:0,0:0:0:0:
277,360,131266,1,0,0:0:0:0:
277,360,131353,1,10,0:0:0:0:
272,215,131525,1,0,0:0:0:0:
349,266,131697,1,0,0:0:0:0:
343,68,131870,2,0,P|358:114|365:161,1,95.9999970703126,2|0,3:2|0:0,0:0:0:0:
431,54,132215,1,0,0:0:0:0:
211,145,132387,6,0,P|203:167|198:191,1,47.9999985351563,10|0,0:0|0:0,0:0:0:0:
285,168,132560,2,0,P|280:191|272:214,1,47.9999985351563,2|0,0:0|0:0,0:0:0:0:
128,225,132732,1,0,0:0:0:0:
390,312,132904,6,0,P|388:296|384:280,1,32,2|0,3:2|0:0,0:0:0:0:
306,327,133077,2,0,P|302:311|301:296,1,32,2|0,0:0|0:0,0:0:0:0:
347,222,133249,1,0,0:0:0:0:
149,326,133422,6,0,P|145:341|143:357,1,32,10|0,0:0|0:0,0:0:0:0:
224,342,133594,2,0,P|222:358|218:374,1,32,2|0,0:0|0:0,0:0:0:0:
306,327,133766,1,2,0:0:0:0:
306,327,133853,1,0,0:0:0:0:
306,327,133939,1,2,3:2:0:0:
225,254,134111,1,2,0:0:0:0:
54,367,134284,1,2,0:0:0:0:
81,171,134456,2,0,P|69:91|46:15,1,160,10|0,0:0|0:0,0:0:0:0:
128,12,134973,6,0,P|167:18|205:32,1,80,2|0,3:2|0:0,0:0:0:0:
241,106,135318,2,0,P|280:99|318:85,1,80,2|8,0:0|0:0,0:0:0:0:
389,0,135663,2,0,P|382:19|379:38,1,40,2|0,0:0|0:0,0:0:0:0:
418,140,135835,2,0,P|415:121|409:102,1,40,2|0,0:0|0:0,0:0:0:0:
512,94,136008,2,0,P|474:107|434:114,1,80,2|0,3:2|0:0,0:0:0:0:
342,216,136353,2,0,P|381:209|419:195,1,80,2|8,0:0|0:0,0:0:0:0:
512,352,136697,2,0,P|474:338|434:331,1,80,2|0,0:0|0:0,0:0:0:0:
234,355,137042,6,0,P|264:328|289:298,1,80,2|0,3:2|0:0,0:0:0:0:
231,67,137387,2,0,P|238:106|252:143,1,80,2|8,0:0|0:0,0:0:0:0:
107,269,137732,2,0,P|144:282|183:288,1,80,2|0,0:0|0:0,0:0:0:0:
104,177,138077,2,0,P|133:151|158:120,1,80,2|0,3:2|0:0,0:0:0:0:
332,124,138422,2,0,P|324:85|310:48,1,80,2|8,0:0|0:0,0:0:0:0:
37,103,138766,2,0,P|17:97|-1:89,1,40,2|0,0:0|0:0,0:0:0:0:
79,2,138938,2,0,P|88:19|96:37,1,40,2|0,0:0|0:0,0:0:0:0:
158,119,139111,5,2,3:2:0:0:
99,185,139284,1,0,0:0:0:0:
169,237,139456,1,0,0:0:0:0:
105,338,139628,1,10,0:0:0:0:
234,296,139801,1,0,0:0:0:0:
226,308,139973,5,0,0:0:0:0:
296,361,140146,1,2,3:2:0:0:
382,348,140318,1,0,0:0:0:0:
438,280,140491,1,0,0:0:0:0:
334,167,140663,1,10,0:0:0:0:
496,109,140835,1,0,0:0:0:0:
314,30,141008,1,0,0:0:0:0:
254,228,141180,5,2,3:2:0:0:
171,198,141353,1,0,0:0:0:0:
171,198,141439,1,0,0:0:0:0:
171,198,141525,1,0,0:0:0:0:
114,337,141697,1,10,0:0:0:0:
23,375,141870,1,0,0:0:0:0:
23,375,141956,1,0,0:0:0:0:
23,375,142042,1,0,0:0:0:0:
75,272,142215,1,4,3:0:0:0:
189,325,142387,1,0,0:0:0:0:
191,207,142560,1,4,3:0:0:0:
0,286,142732,1,8,0:0:0:0:
107,202,142904,1,0,3:0:0:0:
14,98,143077,1,0,3:0:0:0:
57,17,143249,6,0,P|75:24|127:35,1,71.9999978027344,6|0,0:0|0:0,0:0:0:0:
100,114,144111,1,2,0:0:0:0:
100,114,144284,2,0,P|65:102|30:95,1,71.9999978027344,2|0,0:0|0:0,0:0:0:0:
5,187,145146,1,2,0:0:0:0:
5,187,145318,2,0,P|10:209|11:240,1,47.9999985351563,2|0,0:0|0:0,0:0:0:0:
87,217,145835,1,2,0:0:0:0:
87,217,146008,2,0,P|83:200|81:190,1,23.9999992675781
157,197,146353,2,0,P|195:204|232:214,1,71.9999978027344,2|0,0:0|0:0,0:0:0:0:
494,356,147387,6,0,P|487:330|483:303,1,47.9999985351563,2|0,0:0|0:0,0:0:0:0:
427,241,147904,2,0,P|423:264|416:287,1,47.9999985351563,2|0,0:0|0:0,0:0:0:0:
365,373,148422,2,0,P|358:347|354:320,1,47.9999985351563,2|0,0:0|0:0,0:0:0:0:
286,285,148939,2,0,P|282:308|275:331,1,47.9999985351563,2|0,0:0|0:0,0:0:0:0:
208,378,149456,2,0,P|204:355|198:332,1,47.9999985351563,2|0,0:0|0:0,0:0:0:0:
267,285,149973,2,0,P|270:308|277:331,1,47.9999985351563,2|0,0:0|0:0,0:0:0:0:
345,376,150491,2,0,P|348:352|355:329,1,47.9999985351563,2|0,0:0|0:0,0:0:0:0:
420,264,151008,2,0,P|426:287|430:310,1,47.9999985351563,2|0,0:0|0:0,0:0:0:0:
494,356,151525,5,2,0:0:0:0:
494,356,152042,1,2,0:0:0:0:
424,384,152215,1,2,0:0:0:0:
382,322,152387,1,2,0:0:0:0:
382,322,153077,2,0,P|386:300|387:280,1,35.9999989013672,2|0,0:0|0:0,0:0:0:0:
18,356,154111,5,2,0:0:0:0:
88,384,154284,1,2,0:0:0:0:
130,322,154456,1,2,0:0:0:0:
256,352,154801,1,2,0:0:0:0:
192,276,155146,2,0,P|182:246|175:220,1,47.9999985351563,2|0,0:0|0:0,0:0:0:0:
113,194,155663,6,0,P|108:210|105:227,22,23.9999992675781,2|0|0|0|0|0|0|0|0|0|0|0|0|0|0|0|0|0|2|0|0|0|2,0:0|0:0|0:0|0:0|0:0|0:0|0:0|0:0|0:0|0:0|0:0|0:0|0:0|0:0|0:0|0:0|0:0|0:0|0:0|0:0|0:0|0:0|0:0,0:0:0:0:
178,156,159801,6,0,P|173:131|161:102,1,47.9999985351563,2|0,0:0|0:0,0:0:0:0:
241,92,160318,2,0,P|246:117|258:146,1,47.9999985351563,2|0,0:0|0:0,0:0:0:0:
337,117,160835,2,0,P|362:122|391:134,1,47.9999985351563,2|0,0:0|0:0,0:0:0:0:
315,194,161353,2,0,P|337:202|361:206,1,47.9999985351563,2|0,0:0|0:0,0:0:0:0:
466,136,161870,2,0,P|461:161|449:190,1,47.9999985351563,2|0,0:0|0:0,0:0:0:0:
436,292,162387,2,0,P|427:269|423:245,1,47.9999985351563,2|0,0:0|0:0,0:0:0:0:
354,296,162904,2,0,P|326:286|277:279,1,71.9999978027344,2|0,0:0|0:0,0:0:0:0:
4,384,163939,6,0,P|27:375|51:371,1,47.9999985351563,2|0,0:0|0:0,0:0:0:0:
74,290,164456,2,0,P|51:299|27:303,1,47.9999985351563,2|0,0:0|0:0,0:0:0:0:
123,349,164973,2,0,P|146:353|168:361,1,47.9999985351563,2|0,0:0|0:0,0:0:0:0:
239,281,165491,2,0,P|216:289|193:293,1,47.9999985351563,2|0,0:0|0:0,0:0:0:0:
275,365,166008,2,0,P|298:360|320:352,1,47.9999985351563,2|0,0:0|0:0,0:0:0:0:
371,266,166525,2,0,P|348:274|325:278,1,47.9999985351563,2|0,0:0|0:0,0:0:0:0:
405,336,167042,2,0,P|428:340|450:348,1,47.9999985351563,2|0,0:0|0:0,0:0:0:0:
511,298,167560,2,0,P|502:275|498:251,1,47.9999985351563,2|0,0:0|0:0,0:0:0:0:
427,259,168077,5,0,0:0:0:0:
427,259,168594,1,2,0:0:0:0:
465,186,168766,1,2,0:0:0:0:
419,122,168939,1,2,0:0:0:0:
419,122,169628,2,0,P|421:98|430:69,1,47.9999985351563,2|0,0:0|0:0,0:0:0:0:
427,75,170663,1,2,0:0:0:0:
355,94,170836,1,2,0:0:0:0:
322,27,171008,1,2,0:0:0:0:
194,94,171353,1,2,0:0:0:0:
293,141,171697,2,0,P|300:165|301:187,1,47.9999985351563,2|0,0:0|0:0,0:0:0:0:
285,263,172215,6,0,P|245:257|208:242,1,80,0|0,1:0|0:0,0:0:0:0:
301,187,172732,2,0,P|264:171|224:166,1,80,0|0,1:0|0:0,0:0:0:0:
124,154,173249,2,0,P|155:129|180:98,1,80,0|0,1:0|0:0,0:0:0:0:
111,33,173766,2,0,P|79:57|54:88,1,80,0|0,1:0|0:0,0:0:0:0:
66,235,174284,6,0,P|60:205|49:177,1,60.0000022888184,0|0,3:0|0:0,0:0:0:0:
151,231,174628,2,0,P|139:258|134:288,1,60.0000022888184,0|0,3:0|0:0,0:0:0:0:
282,260,174973,2,0,P|263:236|240:217,1,60.0000022888184,0|0,3:0|0:0,0:0:0:0:
199,358,175318,2,0,P|210:329|215:300,1,60.0000022888184,2|0,3:0|0:0,0:0:0:0:
186,157,175663,1,4,3:0:0:0:
311,182,175835,1,8,0:0:0:0:
284,7,176008,1,4,3:0:0:0:
284,7,176353,6,0,B|224:3|177:26|208:36|165:64|105:59,1,191.999994140625,6|0,3:2|0:0,0:0:0:0:
105,59,176784,1,0,0:0:0:0:
105,59,176870,1,10,0:0:0:0:
201,205,177042,1,0,0:0:0:0:
40,250,177215,2,0,P|32:272|29:296,1,47.9999985351563
70,369,177387,1,2,3:2:0:0:
159,276,177560,1,0,0:0:0:0:
47,157,177732,1,0,0:0:0:0:
161,6,177904,2,0,P|209:12|254:27,1,95.9999970703126,10|0,0:0|0:0,0:0:0:0:
321,81,178249,1,0,0:0:0:0:
458,0,178422,6,0,P|464:48|479:92,1,95.9999970703126,2|0,3:2|0:0,0:0:0:0:
292,157,178766,1,0,0:0:0:0:
412,256,178939,2,0,P|427:210|433:162,1,95.9999970703126,10|0,0:0|0:0,0:0:0:0:
242,99,179284,1,2,0:0:0:0:
242,99,179370,1,0,0:0:0:0:
242,99,179456,1,2,3:2:0:0:
343,139,179628,1,2,0:0:0:0:
177,208,179801,1,2,0:0:0:0:
49,0,179973,2,0,P|34:46|28:94,1,95.9999970703126,10|0,0:0|0:0,0:0:0:0:
29,180,180318,1,0,0:0:0:0:
0,384,180491,6,0,P|93:362|188:352,1,191.999994140625,2|0,3:2|0:0,0:0:0:0:
188,352,180922,1,0,0:0:0:0:
188,352,181008,1,10,0:0:0:0:
392,368,181180,1,0,0:0:0:0:
322,303,181353,2,0,P|319:279|310:256,1,47.9999985351563
366,200,181525,1,2,3:2:0:0:
214,143,181697,1,0,0:0:0:0:
336,26,181870,1,0,0:0:0:0:
459,178,182042,2,0,P|413:193|365:199,1,95.9999970703126,10|0,0:0|0:0,0:0:0:0:
320,130,182387,1,0,0:0:0:0:
286,261,182560,6,0,P|317:265|348:274,1,64,2|0,3:2|0:0,0:0:0:0:
405,323,182904,1,0,0:0:0:0:
304,338,183077,2,0,P|273:347|241:351,1,64,10|0,0:0|0:0,0:0:0:0:
70,354,183422,1,2,0:0:0:0:
70,354,183508,1,0,0:0:0:0:
70,354,183594,1,2,3:2:0:0:
138,301,183766,1,2,0:0:0:0:
250,275,183939,1,2,0:0:0:0:
470,368,184111,2,0,P|480:287|517:172,1,191.999994140625,10|0,0:0|0:0,0:0:0:0:
423,164,184628,6,0,P|416:116|402:70,1,95.9999970703126,2|0,3:2|0:0,0:0:0:0:
53,140,184973,2,0,P|59:187|73:233,1,95.9999970703126,2|8,0:0|0:0,0:0:0:0:
319,236,185318,2,0,P|321:212|330:189,1,47.9999985351563,2|0,0:0|0:0,0:0:0:0:
245,97,185491,2,0,P|253:119|256:143,1,47.9999985351563,2|0,0:0|0:0,0:0:0:0:
174,365,185663,2,0,P|188:319|194:271,1,95.9999970703126,2|0,3:2|0:0,0:0:0:0:
100,63,186008,2,0,P|132:98|171:127,1,95.9999970703126,2|8,0:0|0:0,0:0:0:0:
420,160,186353,2,0,P|373:170|328:189,1,95.9999970703126,2|0,0:0|0:0,0:0:0:0:
462,313,186697,6,0,P|480:268|491:222,1,95.9999970703126,2|0,3:2|0:0,0:0:0:0:
390,69,187042,2,0,P|400:115|419:159,1,95.9999970703126,2|8,0:0|0:0,0:0:0:0:
224,83,187387,2,0,P|269:69|312:47,1,95.9999970703126,2|0,0:0|0:0,0:0:0:0:
91,140,187732,2,0,P|47:120|0:111,1,95.9999970703126,2|0,3:2|0:0,0:0:0:0:
209,254,188077,2,0,P|199:206|180:163,1,95.9999970703126,2|8,0:0|0:0,0:0:0:0:
14,262,188422,2,0,P|4:283|0:307,1,47.9999985351563,2|0,0:0|0:0,0:0:0:0:
58,370,188594,2,0,P|81:367|104:359,1,47.9999985351563,2|0,0:0|0:0,0:0:0:0:
158,310,188766,5,2,3:2:0:0:
229,260,188939,1,0,0:0:0:0:
324,249,189111,1,0,0:0:0:0:
420,292,189284,1,10,0:0:0:0:
496,381,189456,1,0,0:0:0:0:
476,371,189628,5,0,0:0:0:0:
507,227,189801,1,2,3:2:0:0:
425,206,189973,1,0,0:0:0:0:
431,60,190146,1,0,0:0:0:0:
480,145,190318,1,10,0:0:0:0:
294,27,190491,1,0,0:0:0:0:
247,228,190663,1,0,0:0:0:0:
294,140,190835,5,2,3:2:0:0:
300,284,191008,1,0,0:0:0:0:
159,220,191180,1,0,0:0:0:0:
254,212,191353,1,0,0:0:0:0:
234,84,191525,1,0,0:0:0:0:
234,84,191611,1,0,0:0:0:0:
234,84,191697,1,0,0:0:0:0:
84,18,191870,6,0,P|77:37|74:56,1,40,4|0,3:0|0:0,0:0:0:0:
136,178,192042,2,0,P|141:158|145:139,1,40,4|0,3:0|0:0,0:0:0:0:
152,57,192215,1,0,3:0:0:0:
49,241,192387,1,0,0:0:0:0:
49,241,192560,2,0,P|68:246|87:249,1,40,4|0,3:0|0:0,0:0:0:0:
85,338,192732,2,0,P|65:342|46:350,1,40,4|0,3:0|0:0,0:0:0:0:
154,294,192904,6,0,B|214:290|261:313|230:323|273:351|333:346,1,191.999994140625,6|0,3:2|0:0,0:0:0:0:
332,346,193335,1,0,0:0:0:0:
332,346,193422,1,10,0:0:0:0:
494,383,193594,1,0,0:0:0:0:
328,271,193766,2,0,P|330:247|339:224,1,47.9999985351563
400,180,193939,1,2,3:2:0:0:
503,69,194111,1,0,0:0:0:0:
327,142,194284,1,0,0:0:0:0:
187,0,194456,2,0,P|171:45|165:93,1,95.9999970703126,10|0,0:0|0:0,0:0:0:0:
45,94,194801,1,0,0:0:0:0:
127,215,194973,6,0,P|123:183|112:153,1,64,2|0,3:2|0:0,0:0:0:0:
204,165,195318,1,0,0:0:0:0:
158,296,195491,2,0,P|147:326|143:357,1,64,10|0,0:0|0:0,0:0:0:0:
63,279,195835,1,2,0:0:0:0:
63,279,195922,1,0,0:0:0:0:
63,279,196008,1,2,3:2:0:0:
231,312,196180,1,2,0:0:0:0:
121,372,196353,1,2,0:0:0:0:
340,384,196525,2,0,P|345:336|361:291,1,95.9999970703126,10|0,0:0|0:0,0:0:0:0:
283,203,196870,1,0,0:0:0:0:
473,0,197042,6,0,P|498:91|505:188,1,191.999994140625,2|0,3:2|0:0,0:0:0:0:
504,188,197473,1,0,0:0:0:0:
504,188,197560,1,10,0:0:0:0:
380,123,197732,1,0,0:0:0:0:
317,204,197904,1,0,0:0:0:0:
166,109,198077,2,0,P|181:154|186:201,1,95.9999970703126,2|0,3:2|0:0,0:0:0:0:
116,332,198422,1,0,0:0:0:0:
21,178,198594,6,0,P|43:186|67:191,1,47.9999985351563,10|0,0:0|0:0,0:0:0:0:
46,90,198766,2,0,P|69:94|92:103,1,47.9999985351563,2|0,0:0|0:0,0:0:0:0:
126,240,198939,1,0,0:0:0:0:
205,124,199111,6,0,P|228:119|251:110,1,32,2|0,3:2|0:0,0:0:0:0:
226,200,199284,2,0,P|241:195|257:192,1,32,2|0,0:0|0:0,0:0:0:0:
307,110,199456,1,0,0:0:0:0:
392,172,199628,6,0,P|415:176|438:185,1,32,10|0,0:0|0:0,0:0:0:0:
378,240,199801,2,0,P|393:244|409:247,1,32,2|0,0:0|0:0,0:0:0:0:
492,234,199973,1,2,0:0:0:0:
492,234,200060,1,0,0:0:0:0:
492,234,200146,1,2,3:2:0:0:
306,145,200318,1,2,0:0:0:0:
215,295,200491,1,2,0:0:0:0:
44,213,200663,2,0,P|30:118|1:26,1,191.999994140625,10|0,0:0|0:0,0:0:0:0:
103,76,201180,6,0,P|148:89|196:96,1,95.9999970703126,2|0,3:2|0:0,0:0:0:0:
359,86,201525,2,0,P|313:72|265:65,1,95.9999970703126,2|8,0:0|0:0,0:0:0:0:
112,183,201870,2,0,P|142:173|174:169,1,47.9999985351563,2|0,0:0|0:0,0:0:0:0:
257,138,202042,2,0,P|247:168|243:200,1,47.9999985351563,2|0,0:0|0:0,0:0:0:0:
213,332,202215,2,0,P|206:284|192:238,1,95.9999970703126,2|0,3:2|0:0,0:0:0:0:
302,283,202560,2,0,P|288:328|281:376,1,95.9999970703126,2|8,0:0|0:0,0:0:0:0:
386,303,202904,2,0,P|379:255|365:209,1,95.9999970703126,2|0,0:0|0:0,0:0:0:0:
491,182,203249,6,0,P|453:152|420:117,1,95.9999970703126,2|0,3:2|0:0,0:0:0:0:
267,224,203594,2,0,P|273:176|287:130,1,95.9999970703126,2|8,0:0|0:0,0:0:0:0:
506,0,203939,2,0,P|461:17|414:28,1,95.9999970703126,2|0,0:0|0:0,0:0:0:0:
124,61,204284,2,0,P|168:43|215:32,1,95.9999970703126,2|0,3:2|0:0,0:0:0:0:
387,305,204628,2,0,P|369:260|358:213,1,95.9999970703126,2|8,0:0|0:0,0:0:0:0:
0,120,204973,2,0,P|35:124|69:135,1,47.9999985351563,2|0,0:0|0:0,0:0:0:0:
124,61,205146,2,0,P|143:74|160:91,1,47.9999985351563,2|0,0:0|0:0,0:0:0:0:
214,168,205318,5,2,3:2:0:0:
117,205,205491,1,0,0:0:0:0:
147,124,205663,1,0,0:0:0:0:
246,89,205835,1,10,0:0:0:0:
366,122,206008,1,0,0:0:0:0:
359,105,206180,5,0,0:0:0:0:
497,150,206353,1,2,3:2:0:0:
329,209,206525,1,0,0:0:0:0:
407,278,206697,1,0,0:0:0:0:
369,350,206870,1,10,0:0:0:0:
204,192,207042,1,0,0:0:0:0:
115,381,207215,1,0,0:0:0:0:
59,304,207387,5,2,3:2:0:0:
145,263,207560,1,0,0:0:0:0:
103,161,207732,1,0,0:0:0:0:
41,36,207904,1,10,0:0:0:0:
176,115,208077,1,0,0:0:0:0:
176,115,208163,1,0,0:0:0:0:
176,115,208249,1,0,0:0:0:0:
276,77,208422,6,0,P|268:99|264:123,1,47.9999985351563,8|0,3:0|0:0,0:0:0:0:
297,196,208594,1,0,0:0:0:0:
451,187,208767,2,0,P|458:163|462:140,1,47.9999985351563,4|0,3:0|0:0,0:0:0:0:
436,61,208939,1,8,0:0:0:0:
469,278,209111,2,0,P|476:301|481:325,1,47.9999985351563,0|0,3:0|0:0,0:0:0:0:
375,354,209284,2,0,P|366:331|362:307,1,47.9999985351563,0|0,3:0|0:0,0:0:0:0:
293,337,209456,6,0,P|288:353|285:370,11,23.9999992675781,2|0|0|2|0|0|2|0|0|2|0|0,0:0|0:0|0:0|0:0|0:0|0:0|0:0|0:0|0:0|0:0|0:0|0:0,0:0:0:0:
25,273,212387,1,2,0:0:0:0:
90,296,212560,1,2,0:0:0:0:
157,280,212732,1,2,0:0:0:0:
202,227,212904,1,2,0:0:0:0:
207,157,213077,2,0,P|204:145|200:133,2,23.9999992675781,2|2|2,0:0|0:0|0:0,0:0:0:0:
275,113,213594,6,0,P|277:124|281:136,11,23.9999992675781,2|0|0|2|0|0|2|0|0|2|2|2,0:0|0:0|0:0|0:0|0:0|0:0|0:0|0:0|0:0|0:0|0:0|0:0,0:0:0:0:
462,125,216525,1,2,0:0:0:0:
392,119,216697,1,2,0:0:0:0:
349,174,216870,1,2,0:0:0:0:
287,205,217042,1,2,0:0:0:0:
220,182,217215,2,0,P|216:193|213:205,2,23.9999992675781,2|2|2,0:0|0:0|0:0,0:0:0:0:
270,133,217732,5,2,0:0:0:0:
158,50,218077,1,0,0:0:0:0:
107,179,218422,1,0,0:0:0:0:
220,258,218766,5,2,0:0:0:0:
186,137,219111,1,0,0:0:0:0:
87,213,219456,1,0,0:0:0:0:
186,288,219801,5,2,0:0:0:0:
216,181,220146,1,0,0:0:0:0:
105,189,220491,1,0,0:0:0:0:
81,296,220835,5,2,0:0:0:0:
174,318,221180,1,0,0:0:0:0:
237,246,221525,1,0,0:0:0:0:
143,224,221870,5,2,0:0:0:0:
143,224,222646,2,0,P|139:212|136:200,22,23.9999992675781
