osu file format v14

[General]
AudioFilename: audio.mp3
AudioLeadIn: 0
PreviewTime: 43906
Countdown: 0
SampleSet: Soft
StackLeniency: 0.7
Mode: 0
LetterboxInBreaks: 0
WidescreenStoryboard: 1

[Editor]
DistanceSpacing: 1.2
BeatDivisor: 6
GridSize: 32
TimelineZoom: 1.8

[Metadata]
Title:On My Own (feat. Nevve)
TitleUnicode:On My Own (feat. Nevve)
Artist:3LAU
ArtistUnicode:3LAU
Creator:Asphyxia
Version:Normal
Source:
Tags:zer0- electronic english ultraviolet dance music edm
BeatmapID:2895779
BeatmapSetID:1358727

[Difficulty]
HPDrainRate:3
CircleSize:3.5
OverallDifficulty:4
ApproachRate:5
SliderMultiplier:1.2
SliderTickRate:1

[Events]
//Background and Video events
0,0,"on my own.jpg",0,0
//Break Periods
2,2760,4463
2,6552,8601
2,10690,12739
2,31725,33946
2,93794,100670
2,143449,150325
2,155863,158601
//Storyboard Layer 0 (Background)
Sprite,Background,Centre,"sb\pixel.png",320,240 S,0,4628,,1000 C,0,4628,,255,192,203 S,0,21180,,1000 C,0,21180,,255,255,255 S,0,43939,,0 S,0,103292,,1000 C,0,103292,,255,192,203 S,0,110146,,0 S,0,155015,,1000 C,0,155015,,255,192,203 S,0,158249,,1000 C,0,158249,,255,255,255 S,0,161611,,1000 C,0,161611,,255,192,203 S,0,165878,,1000 C,0,165878,,255,255,255 S,0,175663,,1000 C,0,175663,,255,255,255 S,0,176353,,0
Sprite,Background,Centre,"sb\circle.png",0,0 M,0,2559,,320,248 C,0,2559,,255,192,203 S,1,2559,4628,0,2.8
Sprite,Background,Centre,"sb\circle.png",0,0 M,0,19111,,75,277 C,0,19111,,255,255,255 S,1,19111,21180,0,2.8
Sprite,Background,Centre,"sb\circle.png",0,0 M,0,39801,,485,417 C,0,39801,,255,192,203 S,26,39801,40301,0,0.18 F,0,43939,,1
Sprite,Background,Centre,"sb\circle.png",0,0 M,0,40835,,382,178 C,0,40835,,255,192,203 S,26,40835,41335,0,0.18 F,0,43939,,1
Sprite,Background,Centre,"sb\circle.png",0,0 M,0,41870,,221,359 C,0,41870,,255,192,203 S,26,41870,42370,0,0.18 F,0,43939,,1
Sprite,Background,Centre,"sb\circle.png",0,0 M,0,42904,,316,371 C,0,42904,,255,192,203 S,26,42904,43404,0,0.18 F,0,43939,,1
Sprite,Background,Centre,"sb\circle.png",0,0 M,0,43422,,247,275 C,0,43422,,255,192,203 S,26,43422,43922,0,0.18 F,0,43939,,1
Sprite,Background,Centre,"sb\circle.png",0,0 M,0,101870,,320,248 C,0,101870,,255,192,203 S,1,101870,103939,0,2.8
Sprite,Background,Centre,"sb\circle.png",0,0 M,0,109111,,154,162 C,0,109111,,255,255,255 S,26,109111,109611,0,0.18 F,0,110146,,1
Sprite,Background,Centre,"sb\circle.png",0,0 M,0,109629,,265,165 C,0,109629,,255,255,255 S,26,109629,110129,0,0.18 F,0,110146,,1
Sprite,Background,Centre,"sb\circle.png",0,0 M,0,151525,,320,248 C,0,151525,,255,192,203 S,1,151525,155663,0,2.8
Sprite,Background,Centre,"sb\circle.png",0,0 M,0,155663,,342,94 C,0,155663,,255,255,255 S,1,155663,159801,0,2.8
Sprite,Background,Centre,"sb\circle.png",0,0 M,0,159801,,353,109 C,0,159801,,255,192,203 S,1,159801,162559,0,2.8
Sprite,Background,Centre,"sb\circle.png",0,0 M,0,163939,,362,179 C,0,163939,,255,255,255 S,1,163939,166697,0,2.8
Sprite,Background,Centre,"sb\circle.png",0,0 M,0,172215,,305,114 C,0,172215,,255,192,203 S,1,172215,173870,0,2.8
Sprite,Background,Centre,"sb\circle.png",0,0 M,0,172732,,278,228 C,0,172732,,255,255,255 S,1,172732,174387,0,2.8
Sprite,Background,Centre,"sb\circle.png",0,0 M,0,173249,,418,262 C,0,173249,,255,192,203 S,1,173249,174904,0,2.8
Sprite,Background,Centre,"sb\circle.png",0,0 M,0,173766,,444.0291,147.2885 C,0,173766,,255,255,255 S,1,173766,175421,0,2.8
Sprite,Background,Centre,"sb\circle.png",0,0 M,0,174284,,532,261 C,0,174284,,255,192,203 S,26,174284,174784,0,0.18 F,0,176353,,1
Sprite,Background,Centre,"sb\circle.png",0,0 M,0,175318,,436,270 C,0,175318,,255,192,203 S,26,175318,175818,0,0.18 F,0,176353,,1
Sprite,Background,Centre,"sb\circle.png",0,0 M,0,175835,,485,154 C,0,175835,,255,192,203 S,26,175835,176335,0,0.18 F,0,176353,,1
//Storyboard Layer 1 (Fail)
//Storyboard Layer 2 (Pass)
//Storyboard Layer 3 (Foreground)
//Storyboard Layer 4 (Overlay)
//Storyboard Sound Samples

[TimingPoints]
2560,517.241379310345,4,2,1,50,1,0
2560,-111.111111111111,4,2,1,50,0,0
19111,-111.111111111111,4,2,1,50,0,0
39801,-100,4,2,1,50,0,0
41870,-100,4,2,1,50,0,0
43939,-90.9090909090909,4,2,1,75,0,1
46008,-90.9090909090909,4,2,1,75,0,1
47042,-90.9090909090909,4,2,1,75,0,1
50146,-90.9090909090909,4,2,1,75,0,1
51180,-90.9090909090909,4,2,1,75,0,1
51697,-90.9090909090909,4,2,1,75,0,1
59456,-90.9090909090909,4,2,1,75,0,0
60491,-90.9090909090909,4,2,1,75,0,1
62560,-90.9090909090909,4,2,1,75,0,1
63594,-90.9090909090909,4,2,1,75,0,1
66697,-90.9090909090909,4,2,1,75,0,1
68249,-90.9090909090909,4,2,1,75,0,1
77042,-100,4,2,1,65,0,0
86353,-100,4,2,1,65,0,0
86870,-100,4,2,1,65,0,0
93594,-111.111111111111,4,2,2,65,0,0
94111,-111.111111111111,4,2,1,50,0,0
109111,-100,4,2,1,50,0,0
110146,-90.9090909090909,4,2,1,75,0,1
112215,-90.9090909090909,4,2,1,75,0,1
113249,-90.9090909090909,4,2,1,75,0,1
116353,-90.9090909090909,4,2,1,75,0,1
117387,-90.9090909090909,4,2,1,75,0,1
117904,-90.9090909090909,4,2,1,75,0,1
125663,-90.9090909090909,4,2,1,75,0,0
126697,-90.9090909090909,4,2,1,75,0,1
128766,-90.9090909090909,4,2,1,75,0,1
130318,-90.9090909090909,4,2,1,75,0,1
132904,-90.9090909090909,4,2,1,75,0,1
134456,-90.9090909090909,4,2,1,75,0,1
143249,-111.111111111111,4,2,2,50,0,0
143335,-111.111111111111,4,2,1,50,0,0
172215,-100,4,2,1,50,0,0
174284,-100,4,2,1,50,0,0
176353,-90.9090909090909,4,2,1,75,0,1
182560,-90.9090909090909,4,2,1,75,0,1
183594,-90.9090909090909,4,2,1,75,0,1
191870,-90.9090909090909,4,2,1,75,0,0
192904,-90.9090909090909,4,2,1,75,0,1
194973,-90.9090909090909,4,2,1,75,0,1
196008,-90.9090909090909,4,2,1,75,0,1
199111,-90.9090909090909,4,2,1,75,0,1
200146,-90.9090909090909,4,2,1,75,0,1
209456,-111.111111111111,4,2,1,50,0,0
222646,-111.111111111111,4,2,1,40,0,0
223853,-111.111111111111,4,2,1,30,0,0
223939,-111.111111111111,4,2,1,30,0,0
225404,-111.111111111111,4,2,1,20,0,0
225491,-111.111111111111,4,2,1,20,0,0
225922,-111.111111111111,4,2,1,10,0,0
226008,-111.111111111111,4,2,1,10,0,0
226439,-111.111111111111,4,2,1,5,0,0

[Colours]
Combo1 : 128,128,255
Combo2 : 255,191,223
Combo3 : 255,128,128
Combo4 : 128,128,192

[HitObjects]
256,192,2560,5,0,0:0:0:0:
256,96,5663,6,0,P|182:98|105:126,1,143.999995605469,2|2,0:0|0:0,0:0:0:0:
256,288,9801,6,0,P|330:286|407:258,1,143.999995605469,2|2,0:0|0:0,0:0:0:0:
352,192,13939,6,0,P|349:118|322:41,1,143.999995605469,2|2,0:0|0:0,0:0:0:0:
256,192,15318,12,2,18077,0:0:0:0:
11,221,19111,6,0,P|-1:144|195:291,1,647.99998022461,2|2,0:2|0:0,0:0:0:0:
469,249,23249,6,0,P|467:171|299:350,1,647.99998022461,2|2,0:2|0:0,0:0:0:0:
473,168,27387,6,0,P|422:149|368:149,1,107.999996704102,2|2,0:2|0:2,0:0:0:0:
277,241,28422,1,2,0:2:0:0:
58,98,29456,6,0,P|111:97|162:78,1,107.999996704102,2|2,0:2|0:2,0:0:0:0:
271,8,30491,1,2,0:2:0:0:
365,96,31008,1,2,0:2:0:0:
484,46,31525,5,2,0:0:0:0:
484,46,35146,5,2,0:0:0:0:
384,128,35663,2,0,P|401:173|407:253,1,107.999996704102,2|2,0:2|0:2,0:0:0:0:
333,338,36697,1,2,0:2:0:0:
73,345,37732,2,0,P|54:306|62:254,2,71.9999978027344,2|0|2,0:2|0:0|0:0,0:0:0:0:
142,293,38766,1,2,0:2:0:0:
421,361,39801,6,0,P|395:312|389:231,1,120,2|2,1:2|1:2,0:0:0:0:
318,122,40835,2,0,P|311:181|283:234,1,120,2|0,1:2|1:0,0:0:0:0:
157,303,41870,2,0,P|119:286|66:292,2,80,0|0|0,3:0|3:0|3:0,0:0:0:0:
252,315,42904,2,0,P|243:266|213:228,1,80,2|4,3:0|3:0,0:0:0:0:
183,219,43422,2,0,P|191:195|193:171,1,40,8|4,0:0|3:0,0:0:0:0:
135,92,43939,6,0,P|194:64|259:62,1,132.00000402832,6|10,3:2|0:0,0:0:0:0:
324,152,44801,1,0,0:0:0:0:
324,152,44973,2,0,P|384:139|419:119,1,88.000002685547,2|0,3:2|0:0,0:0:0:0:
440,85,45491,1,10,0:0:0:0:
474,189,45835,1,0,0:0:0:0:
474,189,46008,2,0,P|457:235|461:298,1,88.000002685547,2|0,3:2|0:0,0:0:0:0:
483,318,46525,2,0,P|439:320|398:336,1,88.000002685547,10|2,0:0|0:0,0:0:0:0:
356,368,47042,1,2,3:2:0:0:
256,349,47387,1,2,0:0:0:0:
256,349,47560,2,0,P|273:303|269:240,1,88.000002685547,10|0,0:0|0:0,0:0:0:0:
225,243,48077,6,0,P|230:177|261:120,1,132.00000402832,2|10,3:2|0:0,0:0:0:0:
328,38,48939,1,0,0:0:0:0:
328,38,49111,2,0,P|288:19|244:12,1,88.000002685547,2|0,3:2|0:0,0:0:0:0:
198,38,49628,1,10,0:0:0:0:
99,17,49973,1,0,0:0:0:0:
99,17,50146,2,0,P|80:57|73:101,1,88.000002685547,2|0,3:2|0:0,0:0:0:0:
23,119,50663,2,0,P|41:158|48:201,1,88.000002685547,10|2,0:0|0:0,0:0:0:0:
58,253,51180,2,0,L|44:301,2,44.0000013427735,2|2|2,3:2|0:0|0:0,0:0:0:0:
100,221,51697,1,10,0:0:0:0:
189,286,52042,1,0,0:0:0:0:
189,286,52215,6,0,P|230:270|273:267,2,88.000002685547,2|2|2,3:2|0:0|0:0,0:0:0:0:
198,180,53249,2,0,P|156:164|113:161,2,88.000002685547,2|2|2,3:2|0:0|0:0,0:0:0:0:
252,167,54111,1,0,0:0:0:0:
252,167,54284,2,0,P|306:159|347:136,2,88.000002685547,2|2|2,3:2|0:0|0:0,0:0:0:0:
223,65,55318,2,0,P|262:47|306:42,1,88.000002685547,2|2,3:2|0:0,0:0:0:0:
358,53,55835,2,0,P|379:62|407:68,1,44.0000013427735,8|2,0:0|0:0,0:0:0:0:
449,45,56180,1,2,0:0:0:0:
449,45,56353,6,0,P|453:88|471:128,1,88.000002685547,2|0,3:2|0:0,0:0:0:0:
501,172,56870,1,10,0:0:0:0:
473,276,57215,1,0,0:0:0:0:
473,276,57387,2,0,P|433:257|389:253,1,88.000002685547,2|0,3:2|0:0,0:0:0:0:
352,290,57904,2,0,P|312:308|268:312,1,88.000002685547,10|0,0:0|0:0,0:0:0:0:
217,299,58422,2,0,L|207:250,1,44.0000013427735,2|0,3:2|0:0,0:0:0:0:
201,203,58766,1,0,0:0:0:0:
95,204,59111,2,0,L|105:155,1,44.0000013427735
111,109,59456,2,0,L|29:124,2,44.0000013427735,4|4|0,3:0|3:0|3:0,0:0:0:0:
167,112,59973,1,0,0:0:0:0:
167,112,60146,2,0,L|216:122,1,44.0000013427735,4|4,3:0|3:0,0:0:0:0:
260,138,60491,6,0,P|319:166|384:166,1,132.00000402832,6|10,3:2|0:0,0:0:0:0:
395,64,61353,1,0,0:0:0:0:
395,64,61525,2,0,P|336:45|296:45,1,88.000002685547,2|0,3:2|0:0,0:0:0:0:
261,63,62042,1,10,0:0:0:0:
165,31,62387,1,0,0:0:0:0:
165,31,62560,2,0,P|160:74|145:115,1,88.000002685547,2|0,3:2|0:0,0:0:0:0:
91,121,63077,2,0,P|75:162|71:205,1,88.000002685547,10|2,0:0|0:0,0:0:0:0:
96,251,63594,1,2,3:2:0:0:
68,355,63939,1,2,0:0:0:0:
68,355,64111,2,0,P|111:350|152:335,1,88.000002685547,10|0,0:0|0:0,0:0:0:0:
198,307,64628,6,0,P|264:312|321:343,1,132.00000402832,2|10,3:2|0:0,0:0:0:0:
426,376,65491,1,0,0:0:0:0:
426,376,65663,2,0,P|445:336|452:292,1,88.000002685547,2|0,3:2|0:0,0:0:0:0:
493,259,66180,2,0,P|485:215|467:176,1,88.000002685547,10|0,0:0|0:0,0:0:0:0:
431,139,66697,2,0,P|440:118|446:90,2,44.0000013427735,2|2|0,3:2|0:0|0:0,0:0:0:0:
381,159,67215,1,10,0:0:0:0:
285,125,67560,1,2,0:0:0:0:
285,125,67732,2,0,P|264:116|236:110,2,44.0000013427735,2|2|2,3:2|0:0|0:0,0:0:0:0:
325,91,68249,1,10,0:0:0:0:
250,24,68594,1,2,0:0:0:0:
250,24,68766,6,0,P|176:36|130:64,2,88.000002685547,2|2|2,3:2|0:0|0:0,0:0:0:0:
205,122,69801,2,0,P|163:136|119:139,2,88.000002685547,2|2|2,3:2|0:0|0:0,0:0:0:0:
261,128,70663,1,0,0:0:0:0:
261,128,70835,2,0,P|304:130|346:145,2,88.000002685547,2|2|2,3:2|0:0|0:0,0:0:0:0:
218,228,71870,2,0,P|236:267|241:311,1,88.000002685547,2|2,3:2|0:0,0:0:0:0:
203,348,72387,2,0,P|181:342|161:333,1,44.0000013427735,8|2,0:0|0:0,0:0:0:0:
112,343,72732,1,2,0:0:0:0:
112,343,72904,6,0,P|93:303|89:259,1,88.000002685547,2|0,3:2|0:0,0:0:0:0:
100,207,73422,1,10,0:0:0:0:
91,106,73766,1,0,0:0:0:0:
91,106,73939,2,0,P|131:125|175:129,1,88.000002685547,2|0,3:2|0:0,0:0:0:0:
199,82,74456,2,0,P|238:64|282:59,1,88.000002685547,10|0,0:0|0:0,0:0:0:0:
326,90,74973,2,0,L|317:133,2,44.0000013427735,2|0|0,3:2|0:0|0:0,0:0:0:0:
429,113,75663,2,0,L|420:156,1,44.0000013427735
407,207,76008,1,4,3:0:0:0:
377,308,76353,2,0,L|334:317,1,44.0000013427735,4|8,3:0|0:0,0:0:0:0:
294,281,76697,2,0,L|251:271,1,44.0000013427735,0|0,3:0|3:0,0:0:0:0:
215,303,77042,6,0,P|162:326|79:327,1,120,0|8,3:0|0:0,0:0:0:0:
76,242,77904,1,0,0:0:0:0:
76,242,78077,2,0,P|129:219|212:218,1,120,2|10,3:2|0:0,0:0:0:0:
286,219,78939,1,0,0:0:0:0:
286,219,79111,2,0,P|267:160|265:69,1,120,2|10,3:2|0:0,0:0:0:0:
358,79,79973,1,0,0:0:0:0:
358,79,80146,2,0,P|377:138|379:229,1,120,2|8,3:2|0:0,0:0:0:0:
367,241,80835,1,2,0:0:0:0:
354,336,81180,6,0,P|288:324|228:298,1,120,2|10,3:2|0:0,0:0:0:0:
152,339,82042,1,0,0:0:0:0:
152,339,82215,2,0,P|140:273|114:213,1,120,2|10,3:2|0:0,0:0:0:0:
32,200,83077,1,0,0:0:0:0:
32,200,83250,2,0,P|43:134|69:74,1,120,2|10,3:2|0:0,0:0:0:0:
159,117,84111,1,0,0:0:0:0:
159,117,84284,2,0,P|224:105|284:79,1,120,2|8,3:2|0:0,0:0:0:0:
311,55,84973,1,2,0:0:0:0:
378,123,85318,6,0,P|382:162|397:199,1,80,2|2,3:2|0:0,0:0:0:0:
432,232,85835,1,10,0:0:0:0:
373,308,86180,1,2,0:0:0:0:
373,308,86353,2,0,P|333:312|296:327,1,80,2|0,3:2|0:0,0:0:0:0:
257,355,86870,1,10,0:0:0:0:
173,319,87215,1,0,0:0:0:0:
173,319,87387,2,0,P|136:304|96:300,1,80,2|0,3:2|0:0,0:0:0:0:
48,300,87904,2,0,P|62:263|66:223,1,80,10|0,0:0|0:0,0:0:0:0:
42,181,88422,2,0,P|27:144|23:104,1,80,2|2,3:2|0:0,0:0:0:0:
32,57,88939,1,10,0:0:0:0:
114,7,89284,1,0,0:0:0:0:
114,7,89456,6,0,L|271:29,1,120,2|10,3:2|0:0,0:0:0:0:
332,32,90318,1,0,0:0:0:0:
332,32,90491,2,0,L|354:189,1,120,2|10,3:2|0:0,0:0:0:0:
374,248,91353,1,0,0:0:0:0:
374,248,91525,2,0,P|417:229|460:226,1,80,0|2,3:0|0:0,0:0:0:0:
496,236,92042,1,10,0:0:0:0:
473,332,92387,1,2,0:0:0:0:
473,332,92559,2,0,P|430:351|387:354,1,80,2|2,3:2|0:0,0:0:0:0:
351,340,93077,1,10,0:0:0:0:
224,365,93594,5,4,0:0:0:0:
256,192,101870,12,0,108077,0:0:0:0:
90,106,109111,6,0,P|124:86|163:80,1,80,2|4,3:0|3:0,0:0:0:0:
201,109,109629,2,0,P|193:133|191:157,1,40,8|4,0:0|3:0,0:0:0:0:
223,248,110146,6,0,P|291:247|358:217,1,132.00000402832,6|10,3:2|0:0,0:0:0:0:
455,254,111008,1,0,0:0:0:0:
455,254,111180,2,0,P|434:198|436:155,1,88.000002685547,2|0,3:2|0:0,0:0:0:0:
456,122,111697,1,10,0:0:0:0:
388,47,112042,1,0,0:0:0:0:
388,47,112215,2,0,P|332:26|289:28,1,88.000002685547,2|0,3:2|0:0,0:0:0:0:
281,73,112732,2,0,P|225:94|182:92,1,88.000002685547,10|2,0:0|0:0,0:0:0:0:
148,74,113249,1,2,3:2:0:0:
69,144,113594,1,2,0:0:0:0:
69,144,113766,2,0,P|72:187|90:227,1,88.000002685547,10|0,0:0|0:0,0:0:0:0:
63,273,114284,6,0,P|128:273|189:298,1,132.00000402832,2|10,3:2|0:0,0:0:0:0:
271,365,115146,1,0,0:0:0:0:
271,365,115318,2,0,L|359:343,1,88.000002685547,2|0,3:2|0:0,0:0:0:0:
407,330,115835,1,10,0:0:0:0:
358,242,116180,1,0,0:0:0:0:
358,242,116353,2,0,L|379:156,1,88.000002685547,2|0,3:2|0:0,0:0:0:0:
327,166,116870,2,0,L|305:80,1,88.000002685547,10|2,0:0|0:0,0:0:0:0:
256,59,117387,2,0,P|234:64|214:73,2,44.0000013427735,2|2|2,3:2|0:0|0:0,0:0:0:0:
295,23,117904,1,10,0:0:0:0:
398,42,118249,1,0,0:0:0:0:
398,42,118422,6,0,P|405:96|425:144,2,88.000002685547,2|2|2,3:2|0:0|0:0,0:0:0:0:
327,120,119456,2,0,P|322:163|308:205,2,88.000002685547,2|2|2,3:2|0:0|0:0,0:0:0:0:
291,88,120318,1,0,0:0:0:0:
291,88,120491,2,0,P|247:92|205:106,2,88.000002685547,2|2|2,3:2|0:0|0:0,0:0:0:0:
212,17,121525,2,0,P|168:12|126:-1,1,88.000002685547,2|2,3:2|0:0,0:0:0:0:
87,35,122042,2,0,P|96:56|102:84,1,44.0000013427735,8|2,0:0|0:0,0:0:0:0:
68,119,122387,1,2,0:0:0:0:
68,119,122560,6,0,P|50:162|48:221,1,88.000002685547,2|0,3:2|0:0,0:0:0:0:
54,255,123077,1,10,0:0:0:0:
25,356,123422,1,0,0:0:0:0:
25,356,123594,2,0,L|123:369,1,88.000002685547,2|0,3:2|0:0,0:0:0:0:
158,341,124111,2,0,L|245:352,1,88.000002685547,10|0,0:0|0:0,0:0:0:0:
294,332,124628,2,0,L|301:283,1,44.0000013427735,2|0,3:2|0:0,0:0:0:0:
308,236,124973,1,0,0:0:0:0:
411,215,125318,2,0,L|404:166,1,44.0000013427735
396,119,125663,2,0,L|445:112,2,44.0000013427735,4|4|0,3:0|3:0|3:0,0:0:0:0:
343,119,126180,2,0,L|299:125,1,44.0000013427735,0|4,0:0|3:0,0:0:0:0:
250,134,126525,1,4,3:0:0:0:
250,134,126697,6,0,P|182:133|115:103,1,132.00000402832,6|10,3:2|0:0,0:0:0:0:
46,44,127560,1,0,0:0:0:0:
46,44,127732,2,0,P|42:88|28:129,1,88.000002685547,2|0,3:2|0:0,0:0:0:0:
8,178,128249,1,10,0:0:0:0:
95,238,128594,1,0,0:0:0:0:
99,243,128766,2,0,P|100:288|116:328,1,88.000002685547,2|0,3:2|0:0,0:0:0:0:
167,343,129284,2,0,P|211:346|252:360,1,88.000002685547,10|2,0:0|0:0,0:0:0:0:
302,379,129801,1,2,3:2:0:0:
368,297,130146,1,2,0:0:0:0:
368,297,130318,2,0,P|411:292|452:277,1,88.000002685547,10|0,0:0|0:0,0:0:0:0:
499,251,130835,6,0,P|498:183|468:116,1,132.00000402832,2|10,3:2|0:0,0:0:0:0:
505,26,131697,1,0,0:0:0:0:
505,26,131870,2,0,P|444:17|407:0,1,88.000002685547,2|0,3:2|0:0,0:0:0:0:
391,51,132387,2,0,P|330:60|293:77,1,88.000002685547,10|0,0:0|0:0,0:0:0:0:
255,86,132904,2,0,P|246:65|240:44,2,44.0000013427735,2|2|0,3:2|0:0|0:0,0:0:0:0:
250,139,133422,1,10,0:0:0:0:
162,195,133766,1,2,0:0:0:0:
162,195,133939,2,0,P|141:186|120:180,2,44.0000013427735,2|2|2,3:2|0:0|0:0,0:0:0:0:
206,224,134456,1,10,0:0:0:0:
134,302,134801,1,0,0:0:0:0:
134,302,134973,6,0,P|60:314|14:342,2,88.000002685547,2|2|2,3:2|0:0|0:0,0:0:0:0:
233,337,136008,2,0,P|274:351|318:354,2,88.000002685547,2|2|2,3:2|0:0|0:0,0:0:0:0:
221,290,136870,1,0,0:0:0:0:
221,290,137042,2,0,P|212:246|193:207,2,88.000002685547,2|2|2,3:2|0:0|0:0,0:0:0:0:
322,258,138077,2,0,P|361:238|404:230,1,88.000002685547,2|2,3:2|0:0,0:0:0:0:
455,243,138594,2,0,P|461:221|469:201,1,44.0000013427735,8|2,0:0|0:0,0:0:0:0:
503,162,138939,1,2,0:0:0:0:
503,162,139111,6,0,P|495:118|474:79,1,88.000002685547,2|0,3:2|0:0,0:0:0:0:
431,49,139628,1,10,0:0:0:0:
330,81,139973,1,0,0:0:0:0:
330,81,140146,2,0,P|286:73|247:52,1,88.000002685547,2|0,3:2|0:0,0:0:0:0:
207,19,140663,2,0,L|189:118,1,88.000002685547,10|0,0:0|0:0,0:0:0:0:
179,157,141180,1,2,3:2:0:0:
77,164,141525,1,0,0:0:0:0:
77,164,141697,2,0,P|97:202|105:245,1,88.000002685547,10|0,0:0|0:0,0:0:0:0:
92,297,142215,2,0,L|136:303,1,44.0000013427735,4|0,3:0|0:0,0:0:0:0:
191,316,142560,1,4,3:0:0:0:
191,316,142732,2,0,L|198:251,2,44.0000013427735,8|0|0,0:0|3:0|3:0,0:0:0:0:
186,359,143249,5,6,0:0:0:0:
256,192,151525,5,2,0:0:0:0:
381,222,152042,2,0,P|365:178|363:148,1,71.9999978027344,2|2,0:0|0:0,0:0:0:0:
481,26,153077,1,2,0:0:0:0:
236,112,154111,2,0,P|231:147|217:180,1,71.9999978027344,2|2,0:0|0:0,0:0:0:0:
137,147,154801,2,0,P|141:111|155:78,1,71.9999978027344,2|2,0:0|0:0,0:0:0:0:
278,38,155663,5,2,0:0:0:0:
289,53,159801,6,0,P|338:48|395:27,1,107.999996704102,2|2,0:0|0:0,0:0:0:0:
368,155,160835,2,0,P|319:160|262:181,1,107.999996704102,2|2,0:0|0:0,0:0:0:0:
355,271,161870,2,0,P|404:266|461:245,1,107.999996704102,2|2,0:0|0:0,0:0:0:0:
490,120,162904,1,2,0:0:0:0:
392,34,163422,1,0,0:0:0:0:
298,123,163939,6,0,P|244:116|194:98,1,107.999996704102,2|2,0:0|0:0,0:0:0:0:
74,49,164973,2,0,P|67:102|49:152,1,107.999996704102,2|2,0:0|0:0,0:0:0:0:
11,277,166008,2,0,P|64:283|114:301,1,107.999996704102,2|2,0:0|0:0,0:0:0:0:
219,379,167042,1,2,0:0:0:0:
288,269,167560,1,2,0:0:0:0:
397,338,168077,5,0,0:0:0:0:
462,226,168594,2,0,P|451:186|448:171,2,35.9999989013672,2|2|2,0:0|0:0|0:0,0:0:0:0:
300,288,169628,1,2,0:0:0:0:
59,191,170663,2,0,P|55:208|50:226,2,35.9999989013672,2|2|2,0:0|0:0|0:0,0:0:0:0:
47,105,171353,2,0,P|82:106|113:124,1,71.9999978027344,2|2,0:0|0:0,0:0:0:0:
241,58,172215,6,0,P|217:112|214:172,1,120,0|0,1:0|1:0,0:0:0:0:
354,206,173249,2,0,P|377:151|380:91,1,120,0|0,1:0|1:0,0:0:0:0:
468,205,174284,2,0,P|483:244|487:291,2,80,0|0|0,3:0|3:0|3:0,0:0:0:0:
372,214,175318,2,0,P|381:165|411:127,1,80,2|4,3:0|3:0,0:0:0:0:
421,98,175835,2,0,P|401:82|379:72,1,40,8|4,0:0|3:0,0:0:0:0:
290,33,176353,6,0,P|224:34|165:62,1,132.00000402832,6|10,3:2|0:0,0:0:0:0:
66,41,177215,1,0,0:0:0:0:
66,41,177387,2,0,P|62:84|44:124,1,88.000002685547,2|0,3:2|0:0,0:0:0:0:
14,168,177904,1,10,0:0:0:0:
98,239,178249,1,0,0:0:0:0:
98,239,178422,2,0,P|102:282|120:322,1,88.000002685547,2|0,3:2|0:0,0:0:0:0:
172,330,178939,2,0,P|211:311|255:307,1,88.000002685547,10|2,0:0|0:0,0:0:0:0:
300,335,179456,1,2,3:2:0:0:
399,299,179801,1,2,0:0:0:0:
399,299,179973,2,0,L|383:194,1,88.000002685547,10|0,0:0|0:0,0:0:0:0:
419,171,180491,6,0,P|359:143|294:142,1,132.00000402832,2|10,3:2|0:0,0:0:0:0:
207,200,181353,1,0,0:0:0:0:
207,200,181525,2,0,P|202:156|184:116,1,88.000002685547,2|0,3:2|0:0,0:0:0:0:
152,74,182042,1,10,0:0:0:0:
74,145,182387,1,0,0:0:0:0:
74,145,182560,2,0,P|78:188|96:228,1,88.000002685547,2|0,3:2|0:0,0:0:0:0:
134,264,183077,2,0,P|177:259|217:241,1,88.000002685547,10|2,0:0|0:0,0:0:0:0:
257,206,183594,2,0,P|252:184|243:164,2,44.0000013427735,2|2|2,3:2|0:0|0:0,0:0:0:0:
309,214,184111,1,10,0:0:0:0:
338,315,184456,1,0,0:0:0:0:
338,315,184628,6,0,P|385:297|439:296,2,88.000002685547,2|2|2,3:2|0:0|0:0,0:0:0:0:
337,209,185663,2,0,P|290:191|236:190,2,88.000002685547,2|2|2,3:2|0:0|0:0,0:0:0:0:
388,189,186525,1,0,0:0:0:0:
388,189,186697,2,0,P|427:157|454:111,2,88.000002685547,2|2|2,3:2|0:0|0:0,0:0:0:0:
338,95,187732,2,0,P|319:55|313:11,1,88.000002685547,2|2,3:2|0:0,0:0:0:0:
260,8,188249,2,0,P|238:14|218:23,1,44.0000013427735,8|2,0:0|0:0,0:0:0:0:
184,64,188594,1,2,0:0:0:0:
184,64,188766,6,0,P|141:46|82:44,1,88.000002685547,2|0,3:2|0:0,0:0:0:0:
47,52,189284,1,10,0:0:0:0:
54,161,189628,1,0,0:0:0:0:
54,161,189801,2,0,L|67:259,1,88.000002685547,2|0,3:2|0:0,0:0:0:0:
45,297,190318,2,0,L|132:308,1,88.000002685547,10|0,0:0|0:0,0:0:0:0:
184,316,190835,2,0,L|227:322,1,44.0000013427735,2|0,3:2|0:0,0:0:0:0:
279,334,191180,1,0,0:0:0:0:
381,360,191525,2,0,L|388:311,1,44.0000013427735
393,263,191870,2,0,L|436:256,2,44.0000013427735,4|4|0,3:0|3:0|3:0,0:0:0:0:
346,237,192387,2,0,L|352:193,1,44.0000013427735,0|4,0:0|3:0,0:0:0:0:
360,144,192732,1,4,3:0:0:0:
360,144,192904,6,0,P|295:167|224:165,1,132.00000402832,6|10,3:2|0:0,0:0:0:0:
134,196,193766,1,0,0:0:0:0:
134,196,193939,2,0,P|148:154|152:110,1,88.000002685547,2|0,3:2|0:0,0:0:0:0:
135,60,194455,1,10,0:0:0:0:
34,83,194801,1,0,0:0:0:0:
34,83,194973,2,0,P|18:123|17:167,1,88.000002685547,2|0,3:2|0:0,0:0:0:0:
46,212,195491,2,0,P|43:255|28:297,1,88.000002685547,10|2,0:0|0:0,0:0:0:0:
1,343,196008,1,2,3:2:0:0:
109,360,196353,1,2,0:0:0:0:
109,360,196525,2,0,P|152:355|193:340,1,88.000002685547,10|0,0:0|0:0,0:0:0:0:
245,351,197042,6,0,P|245:285|267:223,1,132.00000402832,2|10,3:2|0:0,0:0:0:0:
367,270,197904,1,0,0:0:0:0:
367,270,198077,2,0,P|381:228|385:184,1,88.000002685547,2|0,3:2|0:0,0:0:0:0:
348,147,198594,2,0,P|352:103|366:61,1,88.000002685547,10|0,0:0|0:0,0:0:0:0:
415,40,199111,2,0,P|406:19|400:-2,2,44.0000013427735,2|2|0,3:2|0:0|0:0,0:0:0:0:
457,71,199629,1,10,0:0:0:0:
479,178,199973,1,2,0:0:0:0:
479,178,200146,2,0,P|472:199|464:219,2,44.0000013427735,2|2|2,3:2|0:0|0:0,0:0:0:0:
431,154,200663,1,10,0:0:0:0:
345,214,201008,1,0,0:0:0:0:
345,214,201180,6,0,P|303:199|259:196,2,88.000002685547,2|2|2,3:2|0:0|0:0,0:0:0:0:
275,293,202215,2,0,P|231:290|189:275,2,88.000002685547,2|2|2,3:2|0:0|0:0,0:0:0:0:
331,305,203077,1,0,0:0:0:0:
331,305,203249,2,0,P|372:319|416:322,2,88.000002685547,2|2|2,3:2|0:0|0:0,0:0:0:0:
275,214,204284,2,0,P|314:194|357:186,1,88.000002685547,2|2,3:2|0:0,0:0:0:0:
409,175,204801,2,0,P|403:153|395:133,1,44.0000013427735,8|2,0:0|0:0,0:0:0:0:
387,85,205146,1,2,0:0:0:0:
387,85,205318,6,0,P|348:64|305:56,1,88.000002685547,2|0,3:2|0:0,0:0:0:0:
253,67,205835,1,10,0:0:0:0:
152,55,206180,1,0,0:0:0:0:
152,55,206353,2,0,P|160:99|181:138,1,88.000002685547,2|0,3:2|0:0,0:0:0:0:
141,173,206870,2,0,P|102:152|59:144,1,88.000002685547,10|0,0:0|0:0,0:0:0:0:
7,157,207387,1,2,3:2:0:0:
23,265,207732,1,0,0:0:0:0:
23,265,207904,2,0,L|11:325,2,44.0000013427735,10|0|0,0:0|0:0|0:0,0:0:0:0:
67,236,208422,1,8,3:0:0:0:
157,290,208766,2,0,L|169:350,2,44.0000013427735,4|8|0,3:0|0:0|3:0,0:0:0:0:
189,248,209284,1,0,3:0:0:0:
189,248,209456,6,0,P|244:254|297:291,1,107.999996704102,2|2,0:0|0:0,0:0:0:0:
381,371,210491,2,0,P|426:343|480:337,1,107.999996704102,2|2,0:0|0:0,0:0:0:0:
184,84,212560,2,0,P|208:85|221:89,2,35.9999989013672,2|2|2,0:0|0:0|0:0,0:0:0:0:
154,115,213077,1,2,0:0:0:0:
78,85,213422,1,2,0:0:0:0:
78,85,213594,6,0,P|55:135|61:200,1,107.999996704102,2|2,0:0|0:0,0:0:0:0:
128,294,214628,2,0,P|150:243|144:178,1,107.999996704102,2|2,0:0|0:0,0:0:0:0:
491,8,216697,2,0,P|466:9|453:13,2,35.9999989013672,2|2|2,0:0|0:0|0:0,0:0:0:0:
511,46,217215,1,2,0:0:0:0:
475,126,217560,1,2,0:0:0:0:
475,126,217732,6,0,P|458:174|453:217,2,71.9999978027344,2|0|0,0:0|0:0|0:0,0:0:0:0:
393,96,218766,2,0,P|385:60|372:27,2,71.9999978027344,2|0|0,0:0|0:0|0:0,0:0:0:0:
316,136,219801,2,0,P|302:169|295:204,2,71.9999978027344,2|0|0,0:0|0:0|0:0,0:0:0:0:
240,94,220835,2,0,P|232:58|218:25,2,71.9999978027344,2|0|0,0:0|0:0|0:0,0:0:0:0:
158,126,221870,5,2,0:0:0:0:
256,192,222646,12,0,226439,0:0:0:0:
