osu file format v14

[General]
AudioFilename: audio.mp3
AudioLeadIn: 0
PreviewTime: 43906
Countdown: 0
SampleSet: Soft
StackLeniency: 0.7
Mode: 0
LetterboxInBreaks: 0
WidescreenStoryboard: 1

[Editor]
DistanceSpacing: 1.4
BeatDivisor: 6
GridSize: 32
TimelineZoom: 1.8

[Metadata]
Title:On My Own (feat. Nevve)
TitleUnicode:On My Own (feat. Nevve)
Artist:3LAU
ArtistUnicode:3LAU
Creator:Asphyxia
Version:Hard
Source:
Tags:zer0- electronic english ultraviolet dance music edm
BeatmapID:2894165
BeatmapSetID:1358727

[Difficulty]
HPDrainRate:4.5
CircleSize:4
OverallDifficulty:6.5
ApproachRate:8
SliderMultiplier:1.6
SliderTickRate:1

[Events]
//Background and Video events
0,0,"on my own.jpg",0,0
//Break Periods
2,2760,4913
2,6553,9051
2,10691,13189
2,143449,150775
//Storyboard Layer 0 (Background)
Sprite,Background,Centre,"sb\pixel.png",320,240 S,0,4628,,1000 C,0,4628,,255,192,203 S,0,21180,,1000 C,0,21180,,255,255,255 S,0,43939,,0 S,0,103292,,1000 C,0,103292,,255,192,203 S,0,110146,,0 S,0,155015,,1000 C,0,155015,,255,192,203 S,0,158249,,1000 C,0,158249,,255,255,255 S,0,161611,,1000 C,0,161611,,255,192,203 S,0,165878,,1000 C,0,165878,,255,255,255 S,0,175663,,1000 C,0,175663,,255,255,255 S,0,176353,,0
Sprite,Background,Centre,"sb\circle.png",0,0 M,0,2559,,320,248 C,0,2559,,255,192,203 S,1,2559,4628,0,2.8
Sprite,Background,Centre,"sb\circle.png",0,0 M,0,19111,,356,170 C,0,19111,,255,255,255 S,1,19111,21180,0,2.8
Sprite,Background,Centre,"sb\circle.png",0,0 M,0,39801,,260,392 C,0,39801,,255,192,203 S,26,39801,40301,0,0.18 F,0,43939,,1
Sprite,Background,Centre,"sb\circle.png",0,0 M,0,40318,,432,307 C,0,40318,,255,192,203 S,26,40318,40818,0,0.18 F,0,43939,,1
Sprite,Background,Centre,"sb\circle.png",0,0 M,0,40835,,312,218 C,0,40835,,255,192,203 S,26,40835,41335,0,0.18 F,0,43939,,1
Sprite,Background,Centre,"sb\circle.png",0,0 M,0,41353,,447,164 C,0,41353,,255,192,203 S,26,41353,41853,0,0.18 F,0,43939,,1
Sprite,Background,Centre,"sb\circle.png",0,0 M,0,41870,,432,307 C,0,41870,,255,192,203 S,26,41870,42370,0,0.18 F,0,43939,,1
Sprite,Background,Centre,"sb\circle.png",0,0 M,0,42215,,323,388 C,0,42215,,255,192,203 S,26,42215,42715,0,0.18 F,0,43939,,1
Sprite,Background,Centre,"sb\circle.png",0,0 M,0,42560,,287,305 C,0,42560,,255,192,203 S,26,42560,43060,0,0.18 F,0,43939,,1
Sprite,Background,Centre,"sb\circle.png",0,0 M,0,42904,,122,251 C,0,42904,,255,192,203 S,26,42904,43404,0,0.18 F,0,43939,,1
Sprite,Background,Centre,"sb\circle.png",0,0 M,0,43249,,156,419 C,0,43249,,255,192,203 S,26,43249,43749,0,0.18 F,0,43939,,1
Sprite,Background,Centre,"sb\circle.png",0,0 M,0,43594,,236,322 C,0,43594,,255,192,203 S,26,43594,43939,0,0.18 F,0,43939,,1
Sprite,Background,Centre,"sb\circle.png",0,0 M,0,101870,,341,433 C,0,101870,,255,192,203 S,1,101870,103939,0,2.8
Sprite,Background,Centre,"sb\circle.png",0,0 M,0,109111,,415,235 C,0,109111,,255,255,255 S,26,109111,109611,0,0.18 F,0,110146,,1
Sprite,Background,Centre,"sb\circle.png",0,0 M,0,109456,,544,197 C,0,109456,,255,255,255 S,26,109456,109956,0,0.18 F,0,110146,,1
Sprite,Background,Centre,"sb\circle.png",0,0 M,0,109801,,443,104 C,0,109801,,255,255,255 S,26,109801,110146,0,0.18 F,0,110146,,1
Sprite,Background,Centre,"sb\circle.png",0,0 M,0,151525,,321,245 C,0,151525,,255,192,203 S,1,151525,155663,0,2.8
Sprite,Background,Centre,"sb\circle.png",0,0 M,0,155663,,315,334 C,0,155663,,255,255,255 S,1,155663,159801,0,2.8
Sprite,Background,Centre,"sb\circle.png",0,0 M,0,159801,,228,396 C,0,159801,,255,192,203 S,1,159801,162559,0,2.8
Sprite,Background,Centre,"sb\circle.png",0,0 M,0,163939,,64,402 C,0,163939,,255,255,255 S,1,163939,166697,0,2.8
Sprite,Background,Centre,"sb\circle.png",0,0 M,0,172215,,503,383 C,0,172215,,255,192,203 S,1,172215,173870,0,2.8
Sprite,Background,Centre,"sb\circle.png",0,0 M,0,172732,,340,427 C,0,172732,,255,255,255 S,1,172732,174387,0,2.8
Sprite,Background,Centre,"sb\circle.png",0,0 M,0,173249,,171,407 C,0,173249,,255,192,203 S,1,173249,174904,0,2.8
Sprite,Background,Centre,"sb\circle.png",0,0 M,0,173766,,273,271 C,0,173766,,255,255,255 S,1,173766,175421,0,2.8
Sprite,Background,Centre,"sb\circle.png",0,0 M,0,174284,,192,269 C,0,174284,,255,192,203 S,26,174284,174784,0,0.18 F,0,176353,,1
Sprite,Background,Centre,"sb\circle.png",0,0 M,0,174629,,66,205 C,0,174629,,255,192,203 S,26,174629,175129,0,0.18 F,0,176353,,1
Sprite,Background,Centre,"sb\circle.png",0,0 M,0,174974,,241,147 C,0,174974,,255,192,203 S,26,174974,175474,0,0.18 F,0,176353,,1
Sprite,Background,Centre,"sb\circle.png",0,0 M,0,175318,,72,102 C,0,175318,,255,192,203 S,26,175318,175818,0,0.18 F,0,176353,,1
Sprite,Background,Centre,"sb\circle.png",0,0 M,0,175663,,182,58 C,0,175663,,255,192,203 S,26,175663,176163,0,0.18 F,0,176353,,1
Sprite,Background,Centre,"sb\circle.png",0,0 M,0,175835,,241,147 C,0,175835,,255,192,203 S,26,175835,176335,0,0.18 F,0,176353,,1
Sprite,Background,Centre,"sb\circle.png",0,0 M,0,176008,,327,84 C,0,176008,,255,192,203 S,26,176008,176353,0,0.18 F,0,176353,,1
//Storyboard Layer 1 (Fail)
//Storyboard Layer 2 (Pass)
//Storyboard Layer 3 (Foreground)
//Storyboard Layer 4 (Overlay)
//Storyboard Sound Samples

[TimingPoints]
2560,517.241379310345,4,2,1,50,1,0
2560,-100,4,2,1,50,0,0
19111,-200,4,2,1,50,0,0
39801,-125,4,2,1,50,0,0
41870,-100,4,2,1,50,0,0
43939,-83.3333333333333,4,2,1,75,0,1
46008,-100,4,2,1,75,0,1
47042,-83.3333333333333,4,2,1,75,0,1
50146,-100,4,2,1,75,0,1
51180,-83.3333333333333,4,2,1,75,0,1
51697,-100,4,2,1,75,0,1
59456,-100,4,2,1,75,0,0
60491,-83.3333333333333,4,2,1,75,0,1
62560,-100,4,2,1,75,0,1
63594,-83.3333333333333,4,2,1,75,0,1
66697,-100,4,2,1,75,0,1
68249,-100,4,2,1,75,0,1
77042,-125,4,2,1,65,0,0
86353,-100,4,2,1,65,0,0
86870,-125,4,2,1,65,0,0
93594,-125,4,2,2,65,0,0
94111,-200,4,2,1,50,0,0
109111,-100,4,2,1,50,0,0
110146,-83.3333333333333,4,2,1,75,0,1
112215,-100,4,2,1,75,0,1
113249,-83.3333333333333,4,2,1,75,0,1
116353,-100,4,2,1,75,0,1
117387,-83.3333333333333,4,2,1,75,0,1
117904,-100,4,2,1,75,0,1
125663,-100,4,2,1,75,0,0
126697,-83.3333333333333,4,2,1,75,0,1
128766,-100,4,2,1,75,0,1
130318,-83.3333333333333,4,2,1,75,0,1
132904,-100,4,2,1,75,0,1
134456,-100,4,2,1,75,0,1
143249,-200,4,2,2,50,0,0
143335,-200,4,2,1,50,0,0
172215,-125,4,2,1,50,0,0
174284,-100,4,2,1,50,0,0
176353,-83.3333333333333,4,2,1,75,0,1
182560,-100,4,2,1,75,0,1
183594,-83.3333333333333,4,2,1,75,0,1
191870,-100,4,2,1,75,0,0
192904,-83.3333333333333,4,2,1,75,0,1
194973,-100,4,2,1,75,0,1
196008,-83.3333333333333,4,2,1,75,0,1
199111,-100,4,2,1,75,0,1
200146,-83.3333333333333,4,2,1,75,0,1
209456,-200,4,2,1,50,0,0
222646,-200,4,2,1,40,0,0
223853,-200,4,2,1,30,0,0
225404,-200,4,2,1,20,0,0
225922,-200,4,2,1,10,0,0
226439,-200,4,2,1,5,0,0

[Colours]
Combo1 : 128,128,255
Combo2 : 255,191,223
Combo3 : 255,128,128
Combo4 : 128,128,192

[HitObjects]
256,192,2560,5,0,0:0:0:0:
316,134,5663,5,2,0:0:0:0:
316,134,6353,1,2,0:0:0:0:
256,192,9801,5,2,0:0:0:0:
256,192,10491,1,2,0:0:0:0:
196,250,13939,5,2,0:0:0:0:
196,250,14629,1,2,0:0:0:0:
256,192,15404,12,0,17732,0:0:0:0:
256,192,18077,5,2,0:0:0:0:
256,192,18766,1,2,0:0:0:0:
292,114,19111,6,0,P|249:73|166:300,1,480,2|2,0:2|0:0,0:0:0:0:
256,192,22904,1,2,0:0:0:0:
234,274,23249,6,0,P|277:315|360:88,1,480,2|2,0:2|0:0,0:0:0:0:
256,192,27042,1,2,0:0:0:0:
173,170,27387,6,0,P|137:165|112:160,1,53.3333333333333,2|0,0:2|0:0,0:0:0:0:
106,77,27904,2,0,P|142:82|167:87,1,53.3333333333333,2|0,0:2|0:0,0:0:0:0:
242,105,28422,2,0,P|279:98|321:86,1,80,2|0,0:2|0:0,0:0:0:0:
485,7,29456,6,0,P|489:33|493:59,1,53.3333333333333,2|0,0:2|0:0,0:0:0:0:
432,119,29973,2,0,P|427:145|423:171,1,53.3333333333333,2|0,0:2|0:0,0:0:0:0:
486,231,30491,2,0,P|490:257|494:283,1,53.3333333333333,2|0,0:2|0:0,0:0:0:0:
434,345,31008,1,2,0:2:0:0:
434,345,31525,6,0,P|437:355|439:375,18,26.6666666666667,2|0|0|0|0|0|0|0|0|0|0|0|0|0|0|0|2|0|2,0:0|0:0|0:0|0:0|0:0|0:0|0:0|0:0|0:0|0:0|0:0|0:0|0:0|0:0|0:0|0:0|0:0|0:0|0:0,0:0:0:0:
353,331,34973,1,0,0:0:0:0:
353,331,35146,1,2,0:0:0:0:
98,357,35663,6,0,P|58:351|37:344,1,53.3333333333333,2|0,0:2|0:0,0:0:0:0:
61,263,36180,2,0,P|101:269|122:276,1,53.3333333333333,2|0,0:2|0:0,0:0:0:0:
197,257,36697,1,2,0:2:0:0:
197,257,37732,6,0,P|191:217|184:196,1,53.3333333333333,2|0,0:2|0:0,0:0:0:0:
22,154,38422,2,0,P|23:140|26:127,1,26.6666666666667,2|2,0:0|0:0,0:0:0:0:
105,161,38766,2,0,P|108:227|123:292,1,133.333333333333,2|0,0:2|0:0,0:0:0:0:
196,336,39801,6,0,P|219:326|291:323,1,85.3333333333333,2|0,1:2|0:0,0:0:0:0:
368,251,40318,2,0,P|325:249|285:235,1,85.3333333333333,2|0,1:2|0:0,0:0:0:0:
248,162,40835,2,0,P|269:125|302:97,1,85.3333333333333,2|0,1:2|0:0,0:0:0:0:
383,108,41353,2,0,P|403:145|409:187,1,85.3333333333333,0|2,1:0|0:0,0:0:0:0:
368,251,41870,6,0,P|318:261|297:273,1,53.3333333333333,0|0,3:0|0:0,0:0:0:0:
259,332,42215,2,0,P|283:343|309:349,1,53.3333333333333,0|0,3:0|0:0,0:0:0:0:
223,249,42560,2,0,P|174:266|150:266,1,53.3333333333333,0|0,3:0|0:0,0:0:0:0:
58,195,42904,2,0,P|97:228|109:249,1,53.3333333333333,2|0,3:0|0:0,0:0:0:0:
92,363,43249,2,0,P|101:312|113:291,1,53.3333333333333,4|8,3:0|0:0,0:0:0:0:
172,266,43594,1,4,3:0:0:0:
172,266,43939,6,0,P|213:283|302:295,1,127.99999609375,6|0,3:2|0:0,0:0:0:0:
314,207,44456,2,0,P|254:184|190:177,1,127.99999609375,10|0,0:0|0:0,0:0:0:0:
104,202,44973,2,0,P|95:160|72:128,1,63.9999980468751,2|0,3:2|0:0,0:0:0:0:
180,38,45318,1,0,0:0:0:0:
180,38,45491,2,0,P|165:66|160:97,1,63.9999980468751,10|0,0:0|0:0,0:0:0:0:
246,98,45835,1,0,0:0:0:0:
246,98,46008,6,0,P|292:94|375:67,1,106.666666666667,2|0,3:2|0:0,0:0:0:0:
409,132,46525,2,0,P|389:173|371:259,1,106.666666666667,10|2,0:0|0:0,0:0:0:0:
373,231,46956,1,0,0:0:0:0:
373,231,47042,1,2,3:2:0:0:
434,296,47215,1,2,0:0:0:0:
346,321,47387,1,2,0:0:0:0:
288,252,47560,2,0,P|213:236|144:232,1,127.99999609375,10|0,0:0|0:0,0:0:0:0:
79,267,48077,6,0,P|64:204|59:140,1,127.99999609375,2|0,3:2|0:0,0:0:0:0:
121,27,48594,2,0,P|136:90|141:154,1,127.99999609375,10|0,0:0|0:0,0:0:0:0:
218,198,49111,2,0,P|245:182|267:159,1,63.9999980468751,2|0,3:2|0:0,0:0:0:0:
291,72,49456,1,0,0:0:0:0:
359,170,49628,2,0,P|374:142|381:111,1,63.9999980468751,10|0,0:0|0:0,0:0:0:0:
359,24,49973,1,0,0:0:0:0:
359,24,50146,6,0,P|409:43|484:54,1,106.666666666667,2|0,3:2|0:0,0:0:0:0:
504,120,50663,2,0,P|451:129|401:148,1,106.666666666667,10|2,0:0|0:0,0:0:0:0:
401,147,51094,1,0,0:0:0:0:
401,147,51180,1,2,3:2:0:0:
344,217,51353,1,2,0:0:0:0:
324,304,51525,1,2,0:0:0:0:
198,370,51697,2,0,P|184:293|175:241,1,106.666666666667,10|0,0:0|0:0,0:0:0:0:
100,245,52215,6,0,P|117:214|122:182,1,53.3333333333333,2|0,3:2|0:0,0:0:0:0:
193,163,52560,2,0,P|176:132|170:100,1,53.3333333333333,2|8,0:0|0:0,0:0:0:0:
112,61,52904,2,0,P|130:30|154:10,1,53.3333333333333,2|2,0:0|0:0,0:0:0:0:
222,24,53249,2,0,P|279:37|342:45,2,106.666666666667,2|2|2,3:2|0:0|0:0,0:0:0:0:
142,18,54111,1,0,0:0:0:0:
174,91,54284,6,0,P|163:126|152:143,1,53.3333333333333,2|0,3:2|0:0,0:0:0:0:
229,165,54628,2,0,P|251:194|267:206,1,53.3333333333333,2|8,0:0|0:0,0:0:0:0:
155,244,54973,2,0,P|127:268|109:278,1,53.3333333333333,2|0,0:0|0:0,0:0:0:0:
258,320,55318,2,0,P|293:327|314:326,1,53.3333333333333,2|0,3:2|0:0,0:0:0:0:
381,364,55663,2,0,P|396:324|409:308,1,53.3333333333333,2|8,0:0|0:0,0:0:0:0:
474,281,56008,2,0,P|460:258|452:232,1,53.3333333333333,2|2,0:0|0:0,0:0:0:0:
470,154,56353,5,2,3:2:0:0:
392,135,56525,1,0,0:0:0:0:
447,78,56697,1,0,0:0:0:0:
382,30,56870,2,0,P|335:27|262:3,1,106.666666666667,10|0,0:0|0:0,0:0:0:0:
213,58,57387,2,0,P|222:91|223:117,1,53.3333333333333,2|0,3:2|0:0,0:0:0:0:
143,99,57732,1,0,0:0:0:0:
201,190,57904,2,0,P|192:223|191:249,1,53.3333333333333,10|0,0:0|0:0,0:0:0:0:
270,233,58249,1,0,0:0:0:0:
234,304,58422,6,0,L|244:361,2,53.3333333333333,2|0|0,3:2|0:0|0:0,0:0:0:0:
270,233,58939,2,0,L|279:180,2,53.3333333333333
323,293,59456,1,4,3:0:0:0:
395,215,59628,1,4,3:0:0:0:
423,312,59801,2,0,P|448:304|474:300,1,53.3333333333333,0|0,3:0|0:0,0:0:0:0:
498,201,60146,1,4,3:0:0:0:
432,123,60318,1,4,3:0:0:0:
465,39,60491,6,0,P|401:45|343:71,1,127.99999609375,6|0,3:2|0:0,0:0:0:0:
307,153,61008,2,0,P|248:127|185:121,1,127.99999609375,10|0,0:0|0:0,0:0:0:0:
97,112,61525,2,0,P|111:140|116:171,1,63.9999980468751,2|0,3:2|0:0,0:0:0:0:
32,195,61870,1,0,0:0:0:0:
32,195,62042,2,0,P|17:166|12:135,1,63.9999980468751,10|0,0:0|0:0,0:0:0:0:
44,51,62387,1,0,0:0:0:0:
44,51,62560,6,0,P|76:24|144:17,1,106.666666666667,2|0,3:2|0:0,0:0:0:0:
304,102,63077,2,0,P|251:98|209:66,1,106.666666666667,10|2,0:0|0:0,0:0:0:0:
209,66,63508,1,0,0:0:0:0:
209,66,63594,1,2,3:2:0:0:
283,16,63766,1,2,0:0:0:0:
370,33,63939,1,2,0:0:0:0:
430,100,64111,2,0,P|408:160|404:238,1,127.99999609375,10|0,0:0|0:0,0:0:0:0:
464,288,64628,6,0,P|405:314|342:320,1,127.99999609375,2|0,3:2|0:0,0:0:0:0:
251,322,65146,2,0,P|192:296|129:289,1,127.99999609375,10|0,0:0|0:0,0:0:0:0:
39,295,65663,2,0,P|43:263|58:234,1,63.9999980468751,2|0,3:2|0:0,0:0:0:0:
22,152,66008,1,0,0:0:0:0:
111,154,66180,2,0,P|106:122|91:93,2,63.9999980468751,10|2|0,0:0|0:0|0:0,0:0:0:0:
194,118,66697,6,0,P|181:92|177:65,2,53.3333333333333,2|2|0,3:2|0:0|0:0,0:0:0:0:
256,44,67215,2,0,P|268:69|272:96,2,53.3333333333333,10|2|2,0:0|0:0|0:0,0:0:0:0:
256,44,67646,1,0,0:0:0:0:
256,44,67732,1,2,3:2:0:0:
180,17,67904,1,2,0:0:0:0:
107,51,68077,1,2,0:0:0:0:
76,186,68249,2,0,P|95:237|98:310,1,106.666666666667,10|2,0:0|0:0,0:0:0:0:
171,324,68766,6,0,P|174:293|188:266,1,53.3333333333333,2|0,3:2|0:0,0:0:0:0:
246,348,69111,2,0,P|256:323|259:297,1,53.3333333333333,2|8,0:0|0:0,0:0:0:0:
350,295,69456,2,0,P|339:270|336:244,1,53.3333333333333,2|2,0:0|0:0,0:0:0:0:
403,199,69801,2,0,P|428:241|430:316,2,106.666666666667,2|2|2,3:2|0:0|0:0,0:0:0:0:
330,164,70663,1,0,0:0:0:0:
395,117,70835,6,0,P|405:92|409:66,1,53.3333333333333,2|0,3:2|0:0,0:0:0:0:
317,16,71180,2,0,P|320:42|331:66,1,53.3333333333333,2|8,0:0|0:0,0:0:0:0:
229,146,71525,2,0,P|239:121|243:95,1,53.3333333333333,2|0,0:0|0:0,0:0:0:0:
168,25,71870,2,0,P|194:22|218:11,1,53.3333333333333,2|0,3:2|0:0,0:0:0:0:
138,103,72215,2,0,P|111:99|87:88,1,53.3333333333333,2|8,0:0|0:0,0:0:0:0:
4,19,72560,2,0,P|28:7|54:4,1,53.3333333333333,2|2,0:0|0:0,0:0:0:0:
87,88,72904,5,2,3:2:0:0:
43,155,73077,1,0,0:0:0:0:
102,207,73249,1,0,0:0:0:0:
42,261,73422,2,0,L|62:376,1,106.666666666667,10|0,0:0|0:0,0:0:0:0:
137,343,73939,2,0,P|161:354|187:357,1,53.3333333333333,2|0,3:2|0:0,0:0:0:0:
258,319,74284,1,0,0:0:0:0:
333,346,74456,2,0,P|357:334|383:331,1,53.3333333333333,10|0,0:0|0:0,0:0:0:0:
458,358,74801,1,0,0:0:0:0:
502,291,74973,6,0,L|511:238,2,53.3333333333333,2|0|0,3:2|0:0|0:0,0:0:0:0:
438,191,75490,2,0,L|429:138,2,53.3333333333333
370,235,76008,2,0,P|319:224|272:195,1,106.666666666667,4|4,3:0|3:0,0:0:0:0:
230,127,76525,1,8,0:0:0:0:
144,190,76697,1,0,3:0:0:0:
118,86,76870,1,0,3:0:0:0:
66,148,77042,6,0,P|62:186|48:243,1,85.3333333333333,0|2,3:0|0:0,0:0:0:0:
122,271,77560,2,0,P|112:312|107:354,1,85.3333333333333,8|0,0:0|0:0,0:0:0:0:
188,349,78077,2,0,P|225:336|280:334,1,85.3333333333333,2|0,3:2|0:0,0:0:0:0:
395,286,78594,2,0,P|352:283|312:269,1,85.3333333333333,10|0,0:0|0:0,0:0:0:0:
238,234,79111,2,0,P|233:191|223:150,1,85.3333333333333,2|0,3:2|0:0,0:0:0:0:
327,108,79628,2,0,P|317:149|312:191,1,85.3333333333333,10|0,0:0|0:0,0:0:0:0:
391,212,80146,2,0,P|403:168|410:75,1,128,2|8,3:2|0:0,0:0:0:0:
356,26,80835,1,2,0:0:0:0:
356,26,81180,6,0,P|316:38|262:41,1,85.3333333333333,2|0,3:2|0:0,0:0:0:0:
235,113,81697,2,0,P|194:100|151:97,1,85.3333333333333,10|0,0:0|0:0,0:0:0:0:
88,149,82215,2,0,L|37:161,2,42.6666666666667,2|0|0,3:2|0:0|0:0,0:0:0:0:
162,181,82732,2,0,L|213:193,2,42.6666666666667,10|0|0,0:0|0:0|0:0,0:0:0:0:
98,231,83249,2,0,P|87:263|80:332,1,85.3333333333333,2|0,3:2|0:0,0:0:0:0:
148,357,83766,2,0,P|180:346|249:339,1,85.3333333333333,10|0,0:0|0:0,0:0:0:0:
305,305,84284,2,0,P|273:243|231:189,1,128,2|8,3:2|0:0,0:0:0:0:
279,127,84973,1,2,0:0:0:0:
279,127,85318,5,2,3:2:0:0:
334,67,85491,1,2,0:0:0:0:
363,142,85663,1,2,0:0:0:0:
414,80,85835,2,0,P|433:70|454:66,1,42.6666666666667,10|0,0:0|0:0,0:0:0:0:
498,140,86180,1,2,0:0:0:0:
498,140,86353,2,0,P|480:199|476:250,1,106.666666666667,2|0,3:2|0:0,0:0:0:0:
481,324,86870,2,0,P|447:339|397:347,1,85.3333333333333,10|0,0:0|0:0,0:0:0:0:
302,248,87387,2,0,P|344:254|383:270,1,85.3333333333333,2|0,3:2|0:0,0:0:0:0:
360,348,87904,2,0,P|317:341|278:325,1,85.3333333333333,10|0,0:0|0:0,0:0:0:0:
139,286,88422,2,0,P|165:274|194:270,1,42.6666666666667,2|0,3:2|0:0,0:0:0:0:
253,249,88766,1,2,0:0:0:0:
192,194,88939,2,0,P|149:187|110:170,1,85.3333333333333,10|0,0:0|0:0,0:0:0:0:
41,213,89456,6,0,L|29:167,2,42.6666666666667,2|0|0,3:2|0:0|0:0,0:0:0:0:
63,96,89973,2,0,L|52:55,2,42.6666666666667,10|0|0,0:0|0:0|0:0,0:0:0:0:
145,76,90491,2,0,L|155:117,2,42.6666666666667,2|0|0,3:2|0:0|0:0,0:0:0:0:
220,27,91008,2,0,L|230:69,2,42.6666666666667,10|0|0,0:0|0:0|0:0,0:0:0:0:
301,29,91525,2,0,P|343:43|389:49,1,85.3333333333333,0|2,3:0|0:0,0:0:0:0:
436,110,92042,2,0,P|394:124|348:130,1,85.3333333333333,10|2,0:0|0:0,0:0:0:0:
271,127,92560,1,2,3:2:0:0:
388,238,92904,1,2,0:0:0:0:
388,238,93077,2,0,B|315:240|342:283|266:276,1,128,10|4,0:0|0:0,0:0:0:0:
270,275,94111,6,0,P|236:267|181:264,1,80,2|2,0:0|0:0,0:0:0:0:
191,263,95663,1,2,0:0:0:0:
25,220,96008,1,2,0:0:0:0:
185,163,96353,1,0,0:0:0:0:
198,80,96525,1,2,0:0:0:0:
198,80,96697,2,0,P|239:77|282:63,1,80,2|0,0:0|0:0,0:0:0:0:
276,65,97732,6,0,P|317:68|360:82,1,80,2|2,0:0|0:0,0:0:0:0:
256,181,98766,2,0,P|294:192|334:195,1,80,2|0,0:0|0:0,0:0:0:0:
334,194,99801,2,0,P|344:219|351:256,1,53.3333333333333,2|0,0:0|0:0,0:0:0:0:
415,292,100318,2,0,P|420:266|430:241,1,53.3333333333333,0|2,0:0|0:0,0:0:0:0:
512,343,100835,2,0,P|481:350|431:375,1,80,2|0,0:0|0:0,0:0:0:0:
356,344,101525,1,2,0:0:0:0:
277,377,101697,1,2,0:0:0:0:
277,377,101870,6,0,L|265:317,1,53.3333333333333,2|0,0:0|0:0,0:0:0:0:
201,269,102387,2,0,L|190:321,1,53.3333333333333,2|0,0:0|0:0,0:0:0:0:
118,367,102904,2,0,P|76:360|52:323,1,80,2|0,0:0|0:0,0:0:0:0:
54,331,103939,1,2,0:0:0:0:
7,166,104284,1,2,0:0:0:0:
170,213,104628,1,2,0:0:0:0:
184,42,104973,1,2,0:0:0:0:
184,42,106008,6,0,P|218:32|245:31,1,53.3333333333333,2|0,0:0|0:0,0:0:0:0:
349,92,106525,2,0,P|323:89|298:81,1,53.3333333333333,2|0,0:0|0:0,0:0:0:0:
199,146,107042,2,0,B|292:137|256:187|354:179,1,160,2|0,0:0|0:0,0:0:0:0:
351,179,109111,6,0,P|360:149|362:103,1,53.3333333333333,2|0,3:0|0:0,0:0:0:0:
480,141,109456,2,0,P|458:124|440:105,1,53.3333333333333,4|8,3:0|0:0,0:0:0:0:
379,48,109801,1,4,3:0:0:0:
379,48,110146,6,0,P|338:31|249:19,1,127.99999609375,6|0,3:2|0:0,0:0:0:0:
165,19,110663,2,0,P|187:78|194:142,1,127.99999609375,10|0,0:0|0:0,0:0:0:0:
202,231,111180,2,0,P|163:225|132:210,1,63.9999980468751,2|0,3:2|0:0,0:0:0:0:
34,164,111525,1,0,0:0:0:0:
34,164,111697,2,0,P|63:152|95:148,1,63.9999980468751,10|0,0:0|0:0,0:0:0:0:
142,230,112042,1,0,0:0:0:0:
142,230,112215,6,0,P|90:250|34:257,1,106.666666666667,2|0,3:2|0:0,0:0:0:0:
40,337,112732,2,0,P|92:344|141:364,1,106.666666666667,10|2,0:0|0:0,0:0:0:0:
141,364,113163,1,0,0:0:0:0:
141,364,113249,1,2,3:2:0:0:
219,320,113422,1,2,0:0:0:0:
296,365,113594,1,2,0:0:0:0:
371,316,113766,2,0,P|363:252|340:192,1,127.99999609375,10|0,0:0|0:0,0:0:0:0:
302,110,114284,6,0,P|353:138|445:153,1,127.99999609375,2|0,3:2|0:0,0:0:0:0:
454,69,114801,2,0,P|403:41|311:26,1,127.99999609375,10|0,0:0|0:0,0:0:0:0:
248,48,115318,2,0,P|213:66|184:73,1,63.9999980468751,2|0,3:2|0:0,0:0:0:0:
114,169,115663,1,0,0:0:0:0:
114,169,115835,2,0,P|115:129|124:101,1,63.9999980468751,10|0,0:0|0:0,0:0:0:0:
208,159,116180,1,0,0:0:0:0:
208,159,116353,6,0,P|260:192|293:227,1,106.666666666667,2|0,3:2|0:0,0:0:0:0:
359,266,116870,2,0,P|321:303|276:331,1,106.666666666667,10|2,0:0|0:0,0:0:0:0:
276,331,117301,1,0,0:0:0:0:
276,331,117387,1,2,3:2:0:0:
200,283,117560,1,2,0:0:0:0:
136,346,117732,1,2,0:0:0:0:
21,277,117904,2,0,P|39:233|54:153,1,106.666666666667,10|0,0:0|0:0,0:0:0:0:
9,106,118422,6,0,P|35:95|64:91,1,53.3333333333333,2|0,3:2|0:0,0:0:0:0:
60,12,118766,2,0,P|86:15|110:26,1,53.3333333333333,2|8,0:0|0:0,0:0:0:0:
132,144,119111,2,0,P|158:140|182:129,1,53.3333333333333,2|2,0:0|0:0,0:0:0:0:
227,63,119456,2,0,P|269:69|331:102,2,106.666666666667,2|2|2,3:2|0:0|0:0,0:0:0:0:
182,128,120318,1,0,0:0:0:0:
236,187,120491,6,0,P|232:213|221:237,1,53.3333333333333,2|0,3:2|0:0,0:0:0:0:
141,241,120835,2,0,P|145:267|156:291,1,53.3333333333333,2|8,0:0|0:0,0:0:0:0:
285,285,121180,2,0,P|268:305|247:320,1,53.3333333333333,2|0,0:0|0:0,0:0:0:0:
337,352,121525,2,0,P|363:356|387:367,1,53.3333333333333,2|0,3:2|0:0,0:0:0:0:
476,380,121870,2,0,P|464:355|460:329,1,53.3333333333333,2|8,0:0|0:0,0:0:0:0:
400,276,122215,2,0,P|411:251|415:225,1,53.3333333333333,2|2,0:0|0:0,0:0:0:0:
482,182,122560,5,2,3:2:0:0:
420,131,122732,1,0,0:0:0:0:
352,174,122904,1,0,0:0:0:0:
284,130,123077,2,0,P|233:145|179:149,1,106.666666666667,10|0,0:0|0:0,0:0:0:0:
99,148,123594,2,0,P|108:115|109:89,1,53.3333333333333,2|0,3:2|0:0,0:0:0:0:
68,27,123939,1,0,0:0:0:0:
11,83,124111,2,0,P|2:116|1:142,1,53.3333333333333,10|0,0:0|0:0,0:0:0:0:
37,206,124456,1,0,0:0:0:0:
31,285,124628,6,0,L|83:275,2,53.3333333333333,2|0|0,3:2|0:0|0:0,0:0:0:0:
52,372,125146,2,0,L|0:362,2,53.3333333333333
131,359,125663,1,4,3:0:0:0:
169,259,125835,1,4,3:0:0:0:
247,332,126008,2,0,P|272:340|298:344,1,53.3333333333333,0|0,3:0|0:0,0:0:0:0:
404,324,126353,1,4,3:0:0:0:
430,221,126525,1,4,3:0:0:0:
371,152,126697,6,0,P|352:92|354:17,1,127.99999609375,6|0,3:2|0:0,0:0:0:0:
441,14,127215,2,0,P|460:74|459:138,1,127.99999609375,10|0,0:0|0:0,0:0:0:0:
430,221,127732,2,0,P|416:249|411:280,1,63.9999980468751,2|0,3:2|0:0,0:0:0:0:
512,335,128077,1,0,0:0:0:0:
512,335,128249,2,0,P|507:303|492:274,1,63.9999980468751,10|0,0:0|0:0,0:0:0:0:
429,367,128594,1,0,0:0:0:0:
429,367,128766,6,0,P|368:356|322:332,1,106.666666666667,2|0,3:2|0:0,0:0:0:0:
255,356,129284,2,0,P|246:303|224:255,1,106.666666666667,10|2,0:0|0:0,0:0:0:0:
224,255,129715,1,0,0:0:0:0:
224,255,129801,1,2,3:2:0:0:
155,295,129973,1,2,0:0:0:0:
146,215,130146,1,2,0:0:0:0:
220,165,130318,2,0,P|245:106|256:43,1,127.99999609375,10|0,0:0|0:0,0:0:0:0:
167,57,130835,6,0,P|119:49|38:23,1,127.99999609375,2|0,3:2|0:0,0:0:0:0:
0,102,131353,2,0,P|48:110|129:136,1,127.99999609375,10|0,0:0|0:0,0:0:0:0:
194,188,131870,2,0,P|208:216|212:248,1,63.9999980468751,2|0,3:2|0:0,0:0:0:0:
134,292,132215,1,0,0:0:0:0:
44,287,132387,2,0,P|29:258|25:226,2,63.9999980468751,10|2|0,0:0|0:0|0:0,0:0:0:0:
134,292,132904,6,0,P|148:320|152:352,2,53.3333333333333,2|2|0,3:2|0:0|0:0,0:0:0:0:
212,248,133422,2,0,P|217:221|230:198,2,53.3333333333333,10|2|2,0:0|0:0|0:0,0:0:0:0:
212,248,133853,1,0,0:0:0:0:
212,248,133939,1,2,3:2:0:0:
267,312,134111,1,2,0:0:0:0:
346,322,134284,1,2,0:0:0:0:
476,256,134456,2,0,P|463:211|456:134,1,106.666666666667,10|0,0:0|0:0,0:0:0:0:
485,74,134973,6,0,P|480:42|465:13,1,53.3333333333333,2|0,3:2|0:0,0:0:0:0:
403,91,135318,2,0,P|393:66|389:39,1,53.3333333333333,2|8,0:0|0:0,0:0:0:0:
313,4,135663,2,0,P|309:30|299:55,1,53.3333333333333,2|2,0:0|0:0,0:0:0:0:
227,89,136008,2,0,P|176:97|119:119,2,106.666666666667,2|2|2,3:2|0:0|0:0,0:0:0:0:
292,135,136870,1,0,0:0:0:0:
296,214,137042,6,0,P|270:210|245:200,1,53.3333333333333,2|0,3:2|0:0,0:0:0:0:
120,196,137387,2,0,P|144:186|170:182,1,53.3333333333333,2|8,0:0|0:0,0:0:0:0:
127,278,137732,2,0,P|101:274|76:264,1,53.3333333333333,2|0,0:0|0:0,0:0:0:0:
5,227,138077,2,0,P|21:206|42:189,1,53.3333333333333,2|0,3:2|0:0,0:0:0:0:
106,144,138422,2,0,P|115:168|119:195,1,53.3333333333333,2|8,0:0|0:0,0:0:0:0:
191,227,138766,2,0,P|194:200|204:175,1,53.3333333333333,2|2,0:0|0:0,0:0:0:0:
271,219,139111,5,2,3:2:0:0:
332,167,139284,1,0,0:0:0:0:
373,235,139456,1,0,0:0:0:0:
440,192,139628,2,0,P|431:155|424:72,1,106.666666666667,10|0,0:0|0:0,0:0:0:0:
447,9,140146,2,0,P|471:20|497:23,1,53.3333333333333,2|0,3:2|0:0,0:0:0:0:
368,24,140491,1,0,0:0:0:0:
368,24,140663,2,0,P|341:27|317:38,1,53.3333333333333,10|0,0:0|0:0,0:0:0:0:
268,100,141008,1,0,0:0:0:0:
220,35,141180,6,0,P|180:27|161:19,2,53.3333333333333,2|0|0,3:2|0:0|0:0,0:0:0:0:
185,107,141697,2,0,P|198:145|200:166,2,53.3333333333333,10|0|0,0:0|0:0|0:0,0:0:0:0:
106,86,142215,2,0,P|80:117|57:193,1,106.666666666667,4|4,3:0|3:0,0:0:0:0:
85,254,142732,1,8,0:0:0:0:
13,332,142904,1,0,3:0:0:0:
112,370,143077,1,0,3:0:0:0:
168,312,143249,5,6,0:0:0:0:
257,189,151525,5,2,0:0:0:0:
257,189,152042,2,0,P|252:159|245:126,1,53.3333333333333,2|2,0:0|0:0,0:0:0:0:
416,192,153077,1,2,0:0:0:0:
416,192,154111,2,0,P|410:218|406:244,1,53.3333333333333,2|2,0:0|0:0,0:0:0:0:
490,311,154801,1,2,0:0:0:0:
392,355,155146,1,2,0:0:0:0:
251,278,155663,6,0,P|245:257|244:247,22,26.6666666666667,2|0|0|0|0|0|0|0|0|0|0|0|0|0|0|0|0|0|2|0|0|0|2,0:0|0:0|0:0|0:0|0:0|0:0|0:0|0:0|0:0|0:0|0:0|0:0|0:0|0:0|0:0|0:0|0:0|0:0|0:0|0:0|0:0|0:0|0:0,0:0:0:0:
164,340,159801,6,0,P|133:332|104:330,1,53.3333333333333,2|0,0:0|0:0,0:0:0:0:
55,265,160318,2,0,P|86:257|115:255,1,53.3333333333333,2|0,0:0|0:0,0:0:0:0:
162,189,160835,2,0,P|131:181|102:179,1,53.3333333333333,2|0,0:0|0:0,0:0:0:0:
56,111,161353,2,0,P|87:103|116:101,1,53.3333333333333,2|0,0:0|0:0,0:0:0:0:
178,52,161870,2,0,P|200:74|216:98,1,53.3333333333333,2|0,0:0|0:0,0:0:0:0:
294,117,162387,2,0,P|285:147|272:173,1,53.3333333333333,2|0,0:0|0:0,0:0:0:0:
313,243,162904,2,0,P|271:253|231:256,1,80,2|0,0:0|0:0,0:0:0:0:
0,346,163939,6,0,P|24:357|49:364,1,53.3333333333333,2|0,0:0|0:0,0:0:0:0:
136,276,164456,2,0,P|110:283|86:294,1,53.3333333333333,2|0,0:0|0:0,0:0:0:0:
164,347,164973,2,0,P|188:358|213:365,1,53.3333333333333,2|0,0:0|0:0,0:0:0:0:
281,312,165491,2,0,P|305:300|330:293,1,53.3333333333333,2|0,0:0|0:0,0:0:0:0:
399,344,166008,2,0,P|424:351|448:362,1,53.3333333333333,2|0,0:0|0:0,0:0:0:0:
485,285,166525,2,0,P|478:259|476:232,1,53.3333333333333,2|0,0:0|0:0,0:0:0:0:
414,173,167042,2,0,P|433:154|454:139,1,53.3333333333333,2|0,0:0|0:0,0:0:0:0:
437,54,167560,2,0,P|475:65|512:81,1,80,2|0,0:0|0:0,0:0:0:0:
262,137,168594,5,2,0:0:0:0:
180,160,168766,1,2,0:0:0:0:
198,76,168939,1,2,0:0:0:0:
198,76,169628,2,0,P|161:59|123:48,1,80,2|0,0:0|0:0,0:0:0:0:
0,239,170663,1,2,0:0:0:0:
82,216,170835,1,2,0:0:0:0:
64,300,171008,1,2,0:0:0:0:
228,347,171353,1,2,0:0:0:0:
356,235,171697,2,0,P|391:242|411:249,1,53.3333333333333,2|0,0:0|0:0,0:0:0:0:
439,327,172215,6,0,P|396:328|356:342,1,85.3333333333333,0|0,1:0|0:0,0:0:0:0:
276,371,172732,2,0,P|233:369|193:355,1,85.3333333333333,0|0,1:0|0:0,0:0:0:0:
107,351,173249,2,0,P|128:314|161:286,1,85.3333333333333,0|0,1:0|0:0,0:0:0:0:
209,215,173767,2,0,P|229:252|235:294,1,85.3333333333333,0|0,1:0|0:0,0:0:0:0:
128,213,174284,6,0,P|102:204|76:202,1,53.3333333333333,0|0,3:0|0:0,0:0:0:0:
2,149,174629,2,0,P|26:138|52:132,1,53.3333333333333,0|0,3:0|0:0,0:0:0:0:
177,91,174974,2,0,P|128:108|104:108,1,53.3333333333333,0|0,3:0|0:0,0:0:0:0:
8,46,175318,2,0,P|34:48|59:57,1,53.3333333333333,2|0,3:0|0:0,0:0:0:0:
118,2,175663,1,4,3:0:0:0:
177,91,175835,1,8,0:0:0:0:
263,28,176008,1,4,3:0:0:0:
263,28,176353,6,0,P|285:87|291:151,1,127.99999609375,6|0,3:2|0:0,0:0:0:0:
381,152,176870,2,0,P|358:211|352:275,1,127.99999609375,10|0,0:0|0:0,0:0:0:0:
363,364,177387,2,0,P|324:358|293:343,1,63.9999980468751,2|0,3:2|0:0,0:0:0:0:
241,288,177732,1,0,0:0:0:0:
241,288,177904,2,0,P|209:291|179:303,1,63.9999980468751,10|0,0:0|0:0,0:0:0:0:
104,350,178249,1,0,0:0:0:0:
104,350,178422,6,0,P|97:286|75:226,1,127.99999609375,2|0,3:2|0:0,0:0:0:0:
59,138,178939,2,0,P|117:163|180:174,1,127.99999609375,10|2,0:0|0:0,0:0:0:0:
180,174,179370,1,0,0:0:0:0:
180,174,179456,1,2,3:2:0:0:
253,123,179628,1,2,0:0:0:0:
317,185,179801,1,2,0:0:0:0:
391,135,179973,2,0,P|380:72|354:14,1,127.99999609375,10|0,0:0|0:0,0:0:0:0:
268,43,180491,6,0,P|205:32|147:6,1,127.99999609375,2|0,3:2|0:0,0:0:0:0:
49,67,181008,2,0,P|112:78|170:104,1,127.99999609375,10|0,0:0|0:0,0:0:0:0:
128,183,181525,2,0,P|139:212|143:244,1,63.9999980468751,2|0,3:2|0:0,0:0:0:0:
101,323,181870,1,0,0:0:0:0:
189,311,182042,2,0,P|218:323|249:328,1,63.9999980468751,10|0,0:0|0:0,0:0:0:0:
336,305,182387,1,0,0:0:0:0:
336,305,182560,6,0,P|385:310|454:334,1,106.666666666667,2|0,3:2|0:0,0:0:0:0:
487,262,183077,2,0,P|447:226|416:183,1,106.666666666667,10|2,0:0|0:0,0:0:0:0:
416,183,183508,1,0,0:0:0:0:
416,183,183594,1,2,3:2:0:0:
338,227,183766,1,2,0:0:0:0:
294,148,183939,1,2,0:0:0:0:
192,245,184111,2,0,P|131:276|66:296,1,127.99999609375,10|0,0:0|0:0,0:0:0:0:
3,234,184628,6,0,P|7:202|20:172,1,63.9999980468751,2|0,3:2|0:0,0:0:0:0:
100,132,184973,2,0,P|95:100|82:70,1,63.9999980468751,2|8,0:0|0:0,0:0:0:0:
172,49,185318,2,0,P|176:80|189:110,1,63.9999980468751,2|2,0:0|0:0,0:0:0:0:
276,129,185663,2,0,P|321:134|406:163,2,127.99999609375,2|2|2,3:2|0:0|0:0,0:0:0:0:
214,194,186525,1,0,0:0:0:0:
163,120,186697,6,0,P|133:132|101:136,1,63.9999980468751,2|0,3:2|0:0,0:0:0:0:
12,125,187042,2,0,P|15:156|28:186,1,63.9999980468751,2|8,0:0|0:0,0:0:0:0:
107,227,187387,2,0,P|94:256|90:288,1,63.9999980468751,2|0,0:0|0:0,0:0:0:0:
16,350,187732,2,0,P|41:369|70:381,1,63.9999980468751,2|0,3:2|0:0,0:0:0:0:
208,318,188077,2,0,P|178:329|153:349,1,63.9999980468751,2|8,0:0|0:0,0:0:0:0:
263,369,188422,2,0,P|292:356|317:336,1,63.9999980468751,2|2,0:0|0:0,0:0:0:0:
343,251,188766,5,2,3:2:0:0:
423,290,188939,1,0,0:0:0:0:
459,208,189111,1,0,0:0:0:0:
377,170,189284,2,0,P|303:160|226:119,1,127.99999609375,10|0,0:0|0:0,0:0:0:0:
183,83,189801,2,0,P|207:62|237:50,1,63.9999980468751,2|0,3:2|0:0,0:0:0:0:
327,55,190146,1,0,0:0:0:0:
408,18,190318,2,0,P|432:38|462:50,1,63.9999980468751,10|0,0:0|0:0,0:0:0:0:
487,136,190663,1,0,0:0:0:0:
398,120,190835,6,0,P|368:132|343:152,2,63.9999980468751,2|0|0,3:2|0:0|0:0,0:0:0:0:
438,200,191353,2,0,P|413:220|383:232,2,63.9999980468751
487,136,191870,1,4,3:0:0:0:
429,46,192042,1,4,3:0:0:0:
322,55,192215,2,0,P|297:47|271:43,1,53.3333333333333,0|0,3:0|0:0,0:0:0:0:
170,3,192560,1,4,3:0:0:0:
217,98,192732,1,4,3:0:0:0:
129,114,192904,6,0,P|107:173|101:237,1,127.99999609375,6|0,3:2|0:0,0:0:0:0:
19,275,193422,2,0,P|59:323|111:360,1,127.99999609375,10|0,0:0|0:0,0:0:0:0:
194,324,193939,2,0,P|223:312|255:308,1,63.9999980468751,2|0,3:2|0:0,0:0:0:0:
387,363,194284,1,0,0:0:0:0:
387,363,194456,2,0,P|355:359|325:347,1,63.9999980468751,10|0,0:0|0:0,0:0:0:0:
378,275,194801,1,0,0:0:0:0:
378,275,194973,6,0,P|395:229|396:156,1,106.666666666667,2|0,3:2|0:0,0:0:0:0:
330,91,195491,2,0,P|313:137|312:210,1,106.666666666667,10|2,0:0|0:0,0:0:0:0:
309,194,195922,1,0,0:0:0:0:
309,194,196008,1,2,3:2:0:0:
225,165,196180,1,2,0:0:0:0:
230,254,196353,1,2,0:0:0:0:
150,214,196525,2,0,P|109:229|23:237,1,127.99999609375,10|0,0:0|0:0,0:0:0:0:
1,150,197042,6,0,P|29:92|43:30,1,127.99999609375,2|0,3:2|0:0,0:0:0:0:
133,23,197560,2,0,P|167:77|213:120,1,127.99999609375,10|0,0:0|0:0,0:0:0:0:
291,165,198077,2,0,P|295:133|308:104,1,63.9999980468751,2|0,3:2|0:0,0:0:0:0:
380,50,198422,1,0,0:0:0:0:
399,137,198594,2,0,P|394:168|381:197,2,63.9999980468751,10|2|0,0:0|0:0|0:0,0:0:0:0:
380,50,199111,6,0,P|354:30|335:4,2,53.3333333333333,2|2|0,3:2|0:0|0:0,0:0:0:0:
461,80,199628,2,0,P|487:82|512:90,2,53.3333333333333,10|2|2,0:0|0:0|0:0,0:0:0:0:
461,80,200060,1,0,0:0:0:0:
461,80,200146,1,2,3:2:0:0:
467,169,200318,1,2,0:0:0:0:
417,244,200491,1,2,0:0:0:0:
280,286,200663,2,0,P|239:282|142:255,1,127.99999609375,10|0,0:0|0:0,0:0:0:0:
83,314,201180,6,0,P|79:282|66:253,1,63.9999980468751,2|0,3:2|0:0,0:0:0:0:
16,156,201525,2,0,P|3:185|0:216,1,63.9999980468751,2|8,0:0|0:0,0:0:0:0:
118,185,201870,2,0,P|130:155|134:124,1,63.9999980468751,2|2,0:0|0:0,0:0:0:0:
122,35,202215,2,0,P|75:13|-17:3,2,127.99999609375,2|2|2,3:2|0:0|0:0,0:0:0:0:
204,70,203077,1,0,0:0:0:0:
288,42,203249,6,0,P|320:38|349:25,1,63.9999980468751,2|0,3:2|0:0,0:0:0:0:
410,90,203594,2,0,P|439:102|470:106,1,63.9999980468751,2|8,0:0|0:0,0:0:0:0:
419,180,203939,2,0,P|387:183|358:196,1,63.9999980468751,2|0,0:0|0:0,0:0:0:0:
305,269,204284,2,0,P|334:281|365:285,1,63.9999980468751,2|0,3:2|0:0,0:0:0:0:
273,188,204628,2,0,P|269:156|257:126,1,63.9999980468751,2|8,0:0|0:0,0:0:0:0:
212,248,204973,2,0,P|186:266|167:292,1,63.9999980468751,2|2,0:0|0:0,0:0:0:0:
132,375,205318,5,2,3:2:0:0:
66,313,205491,1,0,0:0:0:0:
95,228,205663,1,0,0:0:0:0:
19,179,205835,2,0,P|25:129|56:57,1,127.99999609375,10|0,0:0|0:0,0:0:0:0:
129,6,206353,2,0,P|147:31|173:49,1,63.9999980468751,2|0,3:2|0:0,0:0:0:0:
260,71,206697,1,0,0:0:0:0:
263,76,206870,2,0,P|236:94|218:119,1,63.9999980468751,10|0,0:0|0:0,0:0:0:0:
199,207,207215,1,0,0:0:0:0:
288,198,207387,6,0,L|300:264,2,63.9999980468751,2|0|0,3:2|0:0|0:0,0:0:0:0:
373,169,207904,2,0,L|384:106,2,63.9999980468751,10|0|0,0:0|0:0|0:0,0:0:0:0:
455,205,208422,2,0,P|481:262|491:325,1,127.99999609375,8|4,3:0|3:0,0:0:0:0:
405,352,208939,1,8,0:0:0:0:
311,285,209111,1,0,3:0:0:0:
239,376,209284,1,0,3:0:0:0:
169,326,209456,6,0,P|138:334|133:336,11,26.6666666666667,2|0|0|2|0|0|2|0|0|2|0|0,0:0|0:0|0:0|0:0|0:0|0:0|0:0|0:0|0:0|0:0|0:0|0:0,0:0:0:0:
169,326,212387,1,2,0:0:0:0:
103,270,212560,2,0,P|98:251|97:235,2,26.6666666666667,2|2|2,0:0|0:0|0:0,0:0:0:0:
183,241,213077,1,2,0:0:0:0:
326,333,213422,1,2,0:0:0:0:
403,297,213594,6,0,P|411:266|413:261,11,26.6666666666667,2|0|0|2|0|0|2|0|0|2|2|2,0:0|0:0|0:0|0:0|0:0|0:0|0:0|0:0|0:0|0:0|0:0|0:0,0:0:0:0:
403,297,216525,1,2,0:0:0:0:
322,324,216697,2,0,P|317:302|311:288,2,26.6666666666667,2|2|2,0:0|0:0|0:0,0:0:0:0:
239,347,217215,2,0,P|234:334|232:321,2,26.6666666666667,2|2|2,0:0|0:0|0:0,0:0:0:0:
153,352,217732,6,0,P|122:346|92:338,2,53.3333333333333,2|0|0,0:0|0:0|0:0,0:0:0:0:
171,252,218766,2,0,P|145:245|118:240,2,53.3333333333333,2|0|0,0:0|0:0|0:0,0:0:0:0:
234,172,219801,2,0,P|265:166|295:158,2,53.3333333333333,2|0|0,0:0|0:0|0:0,0:0:0:0:
141,131,220835,2,0,P|114:126|88:119,2,53.3333333333333,2|0|0,0:0|0:0|0:0,0:0:0:0:
221,69,221870,5,2,0:0:0:0:
221,69,222646,2,0,P|213:38|211:33,22,26.6666666666667
