osu file format v14

[General]
AudioFilename: dream.mp3
AudioLeadIn: 0
PreviewTime: 76630
Countdown: 0
SampleSet: Soft
StackLeniency: 0.7
Mode: 0
LetterboxInBreaks: 0
WidescreenStoryboard: 1

[Editor]
Bookmarks: 177022
DistanceSpacing: 1.2
BeatDivisor: 4
GridSize: 4
TimelineZoom: 1.4

[Metadata]
Title:Spring of Dreams
TitleUnicode:Spring of Dreams
Artist:3L
ArtistUnicode:3L
Creator:Trust
Version:Yohanes' Hard
Source:東方星蓮船 ~ Undefined Fantastic Object.
Tags:東方Project 春の湊に At the end of spring TOHO EURO FLASH NJK Record DJ Command Nazrin Touhou Yohanes jonathanlfj english video game
BeatmapID:1810373
BeatmapSetID:739119

[Difficulty]
HPDrainRate:5
CircleSize:3.8
OverallDifficulty:6
ApproachRate:7.5
SliderMultiplier:1.4
SliderTickRate:1

[Events]
//Background and Video events
0,0,"nazrinbackground.png",0,0
//Break Periods
2,64281,66001
2,67418,68746
2,101928,111808
2,139575,141295
2,142712,144040
//Storyboard Layer 0 (Background)
//Storyboard Layer 1 (Fail)
//Storyboard Layer 2 (Pass)
//Storyboard Layer 3 (Foreground)
//Storyboard Layer 4 (Overlay)
//Storyboard Sound Samples

[TimingPoints]
26434,392.156862745098,4,1,1,80,1,0
38983,-100,4,1,1,75,0,0
62512,-100,4,1,1,70,0,0
64375,-100,4,1,1,60,0,0
70355,-100,4,1,1,70,0,0
76630,-100,4,1,1,75,0,1
101728,-100,4,1,1,80,0,0
114277,-100,4,1,1,75,0,0
136237,-100,4,1,1,70,0,0
139473,-100,4,1,1,60,0,0
145649,-100,4,1,1,70,0,0
151924,-100,4,1,1,75,0,1
177022,-100,4,1,1,75,0,0
180159,-100,4,2,0,20,0,0

[Colours]
Combo1 : 244,196,130
Combo2 : 247,253,128
Combo3 : 126,241,227
Combo4 : 243,199,242

[HitObjects]
183,149,26434,6,0,B|148:140|148:140|112:148,2,70,4|2|8,0:0|0:0|0:0,0:0:0:0:
268,102,27022,1,0,0:0:0:0:
268,102,27120,2,0,L|284:199,1,70,2|0,0:0|0:0,0:0:0:0:
378,146,27512,1,0,0:0:0:0:
378,146,27610,2,0,L|362:243,1,70,8|0,0:0|0:0,0:0:0:0:
289,270,28002,6,0,B|227:257|251:285|183:270,1,105,4|0,0:0|0:0,0:0:0:0:
118,195,28492,2,0,P|83:261|80:280,2,70,0|0|0,0:0|0:0|0:0,0:0:0:0:
211,178,29081,1,0,0:0:0:0:
211,178,29179,2,0,L|190:91,1,70,8|0,0:0|0:0,0:0:0:0:
152,21,29571,5,4,0:0:0:0:
244,32,29767,1,0,0:0:0:0:
336,43,29963,2,0,P|357:89|377:163,1,105,8|2,0:0|0:0,0:0:0:0:
467,110,30453,2,0,P|462:160|442:234,1,105,2|8,0:0|0:0,0:0:0:0:
376,268,30943,1,0,0:0:0:0:
292,304,31139,6,0,B|248:314|188:296,1,105,4|2,0:0|0:0,0:0:0:0:
112,240,31630,1,2,0:0:0:0:
188,184,31826,2,0,B|232:167|292:176,1,105,4|0,0:0|0:0,0:0:0:0:
366,112,32316,1,8,0:0:0:0:
366,112,32414,1,0,0:0:0:0:
366,112,32512,1,2,0:0:0:0:
320,24,32708,6,0,P|272:16|240:24,1,70,4|2,0:0|0:0,0:0:0:0:
157,11,33100,2,0,P|115:63|106:129,1,105,8|2,0:0|0:0,0:0:0:0:
46,173,33590,1,0,0:0:0:0:
46,173,33688,2,0,P|58:205|82:231,1,70,2|8,0:0|0:0,0:0:0:0:
166,194,34081,1,0,0:0:0:0:
248,235,34277,6,0,P|299:245|352:240,1,105,4|0,0:0|0:0,0:0:0:0:
368,224,34669,2,0,L|396:148,1,70,8|0,0:0|0:0,0:0:0:0:
356,70,35061,2,0,L|300:58,2,35,2|0|0,0:0|0:0|0:0,0:0:0:0:
435,15,35453,2,0,P|449:47|451:82,1,70,8|0,0:0|0:0,0:0:0:0:
392,158,35845,6,0,B|364:166|364:166|264:138,1,105,4|4,0:0|0:0,0:0:0:0:
140,240,36434,2,0,B|168:232|168:232|268:260,1,105,2|0,0:0|0:0,0:0:0:0:
408,312,37022,1,8,0:0:0:0:
320,336,37218,1,0,0:0:0:0:
232,360,37414,6,0,P|184:356|144:340,1,70,4|2,0:0|0:0,0:0:0:0:
80,360,37806,2,0,P|48:323|31:283,1,70,8|0,0:0|0:0,0:0:0:0:
88,200,38198,1,2,0:0:0:0:
88,200,38296,1,0,0:0:0:0:
88,200,38394,1,0,0:0:0:0:
160,256,38590,2,0,P|208:260|236:256,1,70,8|8,0:0|0:0,0:0:0:0:
320,172,38983,6,0,P|251:178|258:126,2,140,4|8|2,0:0|0:0|0:0,0:0:0:0:
484,176,40159,1,8,0:0:0:0:
512,256,40355,1,0,0:0:0:0:
456,320,40551,6,0,B|392:320|340:368,1,105,2|2,0:0|0:0,0:0:0:0:
260,212,41139,1,2,0:0:0:0:
260,212,41335,2,0,B|209:262|205:342,1,140,2|8,0:0|0:0,0:0:0:0:
120,368,41924,1,0,0:0:0:0:
48,312,42120,5,2,0:0:0:0:
100,236,42316,1,0,0:0:0:0:
100,236,42414,1,2,0:0:0:0:
12,72,42708,1,0,0:0:0:0:
80,136,42904,2,0,P|132:132|164:124,1,70,2|0,0:0|0:0,0:0:0:0:
224,72,43296,2,0,P|220:20|212:-12,2,70,8|0|2,0:0|0:0|0:0,0:0:0:0:
352,104,43884,5,0,0:0:0:0:
272,144,44081,1,8,0:0:0:0:
348,192,44277,1,0,0:0:0:0:
268,232,44473,2,0,L|176:224,1,70,2|2,0:0|0:0,0:0:0:0:
112,264,44865,1,10,0:0:0:0:
112,264,44963,1,0,0:0:0:0:
112,264,45061,1,2,0:0:0:0:
124,176,45257,6,0,P|108:116|36:56,2,140,4|8|2,0:0|0:0|0:0,0:0:0:0:
112,264,46237,1,0,0:0:0:0:
40,316,46434,1,8,0:0:0:0:
120,352,46630,1,0,0:0:0:0:
194,300,46826,6,0,P|210:260|214:172,1,105,2|0,0:0|0:0,0:0:0:0:
276,36,47414,1,0,0:0:0:0:
276,36,47610,2,0,P|282:105|306:170,1,140,2|8,0:0|0:0,0:0:0:0:
384,216,48198,1,0,0:0:0:0:
468,184,48394,5,2,0:0:0:0:
398,126,48590,1,0,0:0:0:0:
398,126,48688,1,0,0:0:0:0:
229,220,48983,1,0,0:0:0:0:
304,272,49179,2,0,L|312:352,1,70,2|0,0:0|0:0,0:0:0:0:
236,384,49571,1,8,0:0:0:0:
164,336,49767,2,0,L|84:328,1,70,0|2,0:0|0:0,0:0:0:0:
0,356,50159,6,0,P|-8:311|0:269,1,70,0|0,0:0|0:0,0:0:0:0:
19,202,50551,2,0,P|53:172|94:158,1,70,8|8,0:0|0:0,0:0:0:0:
169,188,50943,1,10,0:0:0:0:
169,188,51041,1,8,0:0:0:0:
169,188,51139,1,8,0:0:0:0:
195,94,51335,1,10,0:0:0:0:
101,68,51532,6,0,P|29:55|28:116,2,140,4|8|2,0:0|0:0|0:0,0:0:0:0:
396,72,52708,1,8,0:0:0:0:
336,136,52904,1,0,0:0:0:0:
408,192,53100,6,0,B|432:248|396:324,1,105,2|0,0:0|0:0,0:0:0:0:
256,184,53688,1,0,0:0:0:0:
256,184,53884,2,0,B|226:113|262:37,1,140,2|8,0:0|0:0,0:0:0:0:
336,4,54473,1,0,0:0:0:0:
396,72,54669,5,2,0:0:0:0:
476,24,54865,2,0,L|480:84,1,35,0|2,0:0|0:0,0:0:0:0:
488,264,55257,1,0,0:0:0:0:
400,292,55453,1,2,0:0:0:0:
316,256,55649,1,0,0:0:0:0:
292,168,55845,1,8,0:0:0:0:
328,88,56041,2,0,L|318:18,1,70,0|4,0:0|0:0,0:0:0:0:
236,96,56434,5,2,0:0:0:0:
148,80,56630,1,8,0:0:0:0:
60,64,56826,1,2,0:0:0:0:
91,148,57022,2,0,L|64:288,1,140,2|8,0:0|0:0,0:0:0:0:
48,372,57610,1,0,0:0:0:0:
132,344,57806,6,0,B|172:332|172:332|220:364|276:344,1,140,4|8,0:0|0:0,0:0:0:0:
368,272,58394,2,0,B|328:284|328:284|280:252|224:272,1,140,0|2,0:0|0:0,0:0:0:0:
156,220,58983,1,8,0:0:0:0:
220,156,59179,1,0,0:0:0:0:
156,220,59375,6,0,L|36:232,1,105,2|0,0:0|0:0,0:0:0:0:
56,40,59963,1,0,0:0:0:0:
56,40,60159,2,0,P|146:43|185:99,1,140,2|8,0:0|0:0,0:0:0:0:
220,156,60747,1,0,0:0:0:0:
304,116,60943,6,0,L|416:132,1,105,2|2,0:0|0:0,0:0:0:0:
512,296,61532,1,2,0:0:0:0:
512,296,61728,2,0,P|508:252|492:216,1,70,2|0,0:0|0:0,0:0:0:0:
420,280,62120,2,0,P|394:243|362:220,1,70,8|0,0:0|0:0,0:0:0:0:
332,312,62512,6,0,P|291:293|188:296,1,140,2|8,0:0|0:0,0:0:0:0:
120,336,63100,1,0,0:0:0:0:
40,292,63296,1,10,0:0:0:0:
40,292,63394,1,10,0:0:0:0:
40,292,63492,1,10,0:0:0:0:
118,245,63688,1,10,0:0:0:0:
4,216,63884,1,10,0:0:0:0:
116,154,64081,1,4,0:0:0:0:
116,154,66826,5,2,0:0:0:0:
116,154,67218,1,4,0:0:0:0:
116,154,69571,5,10,0:0:0:0:
328,244,69963,1,10,0:0:0:0:
240,32,70355,1,4,0:0:0:0:
251,120,70551,6,0,L|230:195,1,70,0|8,0:0|0:0,0:0:0:0:
245,272,70943,2,0,P|189:226|97:218,1,140,0|0,0:0|0:0,0:0:0:0:
51,264,71532,1,8,0:0:0:0:
125,214,71728,6,0,P|137:157|137:129,1,70,2|2,0:0|0:0,0:0:0:0:
95,62,72120,2,0,L|7:48,2,70,0|8|0,0:0|0:0|0:0,0:0:0:0:
190,71,72708,1,2,0:0:0:0:
265,14,72904,1,0,0:0:0:0:
324,88,73100,2,0,L|304:173,1,70,8|2,0:0|0:0,0:0:0:0:
229,217,73492,6,0,P|285:243|330:318,1,140,4|8,0:0|0:0,0:0:0:0:
401,353,74081,2,0,L|491:302,1,70,0|2,0:0|0:0,0:0:0:0:
507,239,74473,1,0,0:0:0:0:
507,239,74669,1,8,0:0:0:0:
444,155,74865,6,0,P|388:139|288:139,1,140,0|0,0:0|0:0,0:0:0:0:
228,179,75453,1,8,0:0:0:0:
156,127,75649,1,0,0:0:0:0:
101,202,75845,1,10,0:0:0:0:
101,202,75943,2,0,L|109:274,1,70,8|8,0:0|0:0,0:0:0:0:
91,316,76237,2,0,P|147:316|179:331,1,70,8|10,0:0|0:0,0:0:0:0:
264,361,76630,6,0,P|267:307|412:261,1,210,4|2,0:0|0:0,0:0:0:0:
484,280,77414,2,0,B|513:224|487:165,2,105,0|0|0,0:0|0:0|0:0,0:0:0:0:
416,336,78198,5,2,0:0:0:0:
332,176,78492,1,2,0:0:0:0:
200,296,78786,1,2,0:0:0:0:
128,236,78983,2,0,P|112:168|128:84,1,140,0|8,0:0|0:0,0:0:0:0:
176,28,79571,5,0,0:0:0:0:
176,28,79669,1,0,0:0:0:0:
176,28,79767,2,0,L|273:45,1,70,6|2,0:0|0:0,0:0:0:0:
276,60,80061,2,0,P|336:44|388:48,1,105,0|0,0:0|0:0,0:0:0:0:
468,120,80551,2,0,L|444:200,1,70,2|2,0:0|0:0,0:0:0:0:
428,220,80845,2,0,P|368:196|316:208,1,105,0|0,0:0|0:0,0:0:0:0:
236,152,81335,6,0,P|168:236|236:292,1,210,4|0,0:0|0:0,0:0:0:0:
320,328,82120,2,0,P|251:336|200:382,1,140,10|10,0:0|0:0,0:0:0:0:
124,324,82708,1,8,0:0:0:0:
44,380,82904,6,0,L|12:212,1,140,4|8,0:0|0:0,0:0:0:0:
4,136,83492,1,0,0:0:0:0:
88,176,83688,2,0,B|142:172|142:172|196:144,1,105,2|0,0:0|0:0,0:0:0:0:
312,40,84277,1,0,0:0:0:0:
312,40,84473,6,0,B|258:36|258:36|204:8,2,105,2|0|0,0:0|0:0|0:0,0:0:0:0:
400,16,85257,2,0,P|440:60|432:144,1,140,2|8,0:0|0:0,0:0:0:0:
364,192,85845,1,2,0:0:0:0:
364,192,85943,1,0,0:0:0:0:
364,192,86041,6,0,P|348:232|352:300,2,105,2|0|0,0:0|0:0|0:0,0:0:0:0:
296,128,86826,2,0,P|253:134|196:171,2,105,2|0|0,0:0|0:0|0:0,0:0:0:0:
388,100,87610,6,0,L|372:20,2,70,4|0|8,0:0|0:0|0:0,0:0:0:0:
453,167,88198,2,0,L|489:93,2,70,2|8|10,0:0|0:0|0:0,0:0:0:0:
364,192,88786,1,8,0:0:0:0:
296,128,88983,1,8,0:0:0:0:
296,128,89081,1,8,0:0:0:0:
296,128,89179,6,0,P|232:120|168:192,1,140,4|8,0:0|0:0,0:0:0:0:
152,244,89767,1,0,0:0:0:0:
184,321,89963,5,2,0:0:0:0:
316,237,90257,1,0,0:0:0:0:
176,164,90551,1,0,0:0:0:0:
82,177,90747,6,0,P|74:109|90:57,2,105,2|0|0,0:0|0:0|0:0,0:0:0:0:
152,244,91532,2,0,P|96:260|48:352,1,140,2|8,0:0|0:0,0:0:0:0:
152,348,92120,1,0,0:0:0:0:
152,348,92218,1,0,0:0:0:0:
152,348,92316,6,0,B|208:332|276:368,1,105,4|0,0:0|0:0,0:0:0:0:
369,211,92904,1,0,0:0:0:0:
409,294,93100,2,0,B|353:310|285:274,2,105,2|0|0,0:0|0:0|0:0,0:0:0:0:
482,230,93884,6,0,B|518:150|462:74,1,140,4|0,0:0|0:0,0:0:0:0:
379,94,94473,1,0,0:0:0:0:
300,149,94669,2,0,B|264:229|320:305,1,140,10|10,0:0|0:0,0:0:0:0:
376,348,95257,1,10,0:0:0:0:
286,376,95453,6,0,L|126:356,1,140,4|8,0:0|0:0,0:0:0:0:
60,378,96041,1,0,0:0:0:0:
77,290,96237,2,0,P|118:263|164:263,1,70,2|0,0:0|0:0,0:0:0:0:
164,262,96532,2,0,P|176:207|160:136,1,105,0|0,0:0|0:0,0:0:0:0:
74,98,97022,6,0,P|62:153|78:224,2,105,4|0|0,0:0|0:0|0:0,0:0:0:0:
142,38,97806,2,0,P|200:78|273:84,1,140,2|8,0:0|0:0,0:0:0:0:
340,27,98394,1,0,0:0:0:0:
340,27,98492,1,0,0:0:0:0:
340,27,98590,6,0,L|457:42,2,105,4|0|0,0:0|0:0|0:0,0:0:0:0:
267,84,99375,2,0,L|150:99,2,105,2|0|0,0:0|0:0|0:0,0:0:0:0:
353,119,100159,5,4,0:0:0:0:
366,211,100355,1,2,0:0:0:0:
292,268,100551,1,10,0:0:0:0:
205,232,100747,1,2,0:0:0:0:
143,303,100943,5,10,0:0:0:0:
191,383,101139,1,10,0:0:0:0:
281,362,101335,1,8,0:0:0:0:
281,362,101434,1,8,0:0:0:0:
281,362,101532,2,0,L|322:370,2,35,8|8|4,0:0|0:0|0:0,0:0:0:0:
256,192,112708,12,2,113492,0:0:0:0:
160,106,113884,5,8,0:0:0:0:
160,106,113983,1,10,0:0:0:0:
160,106,114081,1,10,0:0:0:0:
243,148,114277,2,0,P|293:153|389:119,1,140,4|8,0:0|0:0,0:0:0:0:
462,80,114865,2,0,P|432:120|414:220,1,140,0|2,0:0|0:0,0:0:0:0:
484,279,115453,2,0,P|424:307|401:326,1,70,8|0,0:0|0:0,0:0:0:0:
351,364,115845,5,2,0:0:0:0:
184,328,116139,1,0,0:0:0:0:
333,240,116434,1,0,0:0:0:0:
267,184,116630,2,0,P|206:172|119:197,1,140,2|8,0:0|0:0,0:0:0:0:
49,233,117218,1,0,0:0:0:0:
53,139,117414,6,0,L|38:59,1,70,2|0,0:0|0:0,0:0:0:0:
35,46,117708,1,0,0:0:0:0:
231,22,118002,1,0,0:0:0:0:
277,95,118198,1,2,0:0:0:0:
267,184,118394,1,0,0:0:0:0:
198,236,118590,1,8,0:0:0:0:
198,236,118786,6,0,P|256:252|325:316,1,140,0|0,0:0|0:0,0:0:0:0:
395,346,119375,2,0,P|433:323|453:284,1,70,8|0,0:0|0:0,0:0:0:0:
469,213,119767,2,0,L|445:127,1,70,2|10,0:0|0:0,0:0:0:0:
393,77,120159,1,8,0:0:0:0:
460,16,120355,1,10,0:0:0:0:
393,77,120551,6,0,P|328:58|245:66,1,140,4|8,0:0|0:0,0:0:0:0:
175,103,121139,2,0,P|110:122|27:114,1,140,0|0,0:0|0:0,0:0:0:0:
20,49,121728,2,0,L|43:133,1,70,8|0,0:0|0:0,0:0:0:0:
16,204,122120,5,2,0:0:0:0:
156,268,122414,1,0,0:0:0:0:
256,148,122708,1,0,0:0:0:0:
256,148,122904,2,0,P|284:224|268:296,1,140,2|8,0:0|0:0,0:0:0:0:
206,341,123492,6,0,P|240:352|281:378,1,70,0|2,0:0|0:0,0:0:0:0:
355,330,123884,1,0,0:0:0:0:
355,330,123983,1,0,0:0:0:0:
176,184,124277,1,0,0:0:0:0:
256,148,124473,2,0,L|248:64,1,70,2|0,0:0|0:0,0:0:0:0:
152,32,124865,2,0,L|160:116,2,70,8|0|2,0:0|0:0|0:0,0:0:0:0:
60,20,125453,6,0,P|8:48|-4:68,1,70,0|8,0:0|0:0,0:0:0:0:
69,117,125845,2,0,P|37:167|37:190,1,70,2|2,0:0|0:0,0:0:0:0:
125,196,126237,1,2,0:0:0:0:
176,268,126434,1,8,0:0:0:0:
176,268,126532,1,8,0:0:0:0:
176,268,126630,1,8,0:0:0:0:
252,216,126826,6,0,P|320:216|400:232,1,140,4|8,0:0|0:0,0:0:0:0:
464,288,127414,1,0,0:0:0:0:
388,340,127610,2,0,P|320:340|240:324,1,140,2|8,0:0|0:0,0:0:0:0:
176,268,128198,6,0,P|128:284|104:296,1,70,0|2,0:0|0:0,0:0:0:0:
96,104,128688,1,0,0:0:0:0:
252,216,128983,1,0,0:0:0:0:
252,216,129179,2,0,L|232:72,1,140,2|8,0:0|0:0,0:0:0:0:
289,10,129767,1,0,0:0:0:0:
365,59,129963,6,0,P|418:57|461:37,1,70,2|0,0:0|0:0,0:0:0:0:
463,28,130257,2,0,L|482:134,1,105,2|0,0:0|0:0,0:0:0:0:
431,235,130747,1,2,0:0:0:0:
345,207,130943,1,0,0:0:0:0:
260,180,131139,2,0,L|183:191,2,70,8|0|4,0:0|0:0|0:0,0:0:0:0:
103,229,131728,6,0,P|97:180|103:152,2,70,2|8|2,0:0|0:0|0:0,0:0:0:0:
180,283,132316,2,0,P|128:311|88:387,1,140,2|8,0:0|0:0,0:0:0:0:
184,376,132904,1,2,0:0:0:0:
264,326,133100,6,0,P|352:318|404:326,1,140,4|8,0:0|0:0,0:0:0:0:
464,236,133688,2,0,P|376:244|324:236,1,140,0|0,0:0|0:0,0:0:0:0:
252,188,134277,1,8,0:0:0:0:
248,100,134473,1,0,0:0:0:0:
168,144,134669,6,0,L|48:132,1,105,2|0,0:0|0:0,0:0:0:0:
276,8,135257,1,0,0:0:0:0:
276,8,135453,2,0,P|332:64|326:149,1,140,2|8,0:0|0:0,0:0:0:0:
276,188,136041,1,0,0:0:0:0:
348,244,136237,6,0,L|316:360,1,105,2|2,0:0|0:0,0:0:0:0:
132,364,136826,1,0,0:0:0:0:
96,288,137022,1,2,0:0:0:0:
20,244,137218,2,0,L|0:160,1,70,0|8,0:0|0:0,0:0:0:0:
87,131,137610,2,0,L|104:200,1,70,0|2,0:0|0:0,0:0:0:0:
176,256,138002,6,0,P|228:212|320:196,2,140,0|2|10,0:0|0:0|0:0,0:0:0:0:
140,336,138983,1,10,0:0:0:0:
72,216,139179,1,10,0:0:0:0:
72,216,139277,1,8,0:0:0:0:
72,216,139375,1,4,0:0:0:0:
72,216,142120,5,10,0:0:0:0:
256,64,142512,1,4,0:0:0:0:
256,64,144865,6,0,L|240:140,1,70,10|8,0:0|0:0,0:0:0:0:
344,80,145257,2,0,L|328:156,1,70,10|10,0:0|0:0,0:0:0:0:
436,60,145649,6,0,L|405:207,1,140,4|8,0:0|0:0,0:0:0:0:
392,288,146237,2,0,P|348:256|316:252,1,70,0|2,0:0|0:0,0:0:0:0:
248,268,146630,1,0,0:0:0:0:
192,332,146826,1,8,0:0:0:0:
108,216,147022,6,0,P|151:237|169:261,1,70,0|2,0:0|0:0,0:0:0:0:
90,305,147414,1,0,0:0:0:0:
18,249,147610,1,8,0:0:0:0:
34,161,147806,1,0,0:0:0:0:
116,124,148002,2,0,L|204:116,1,70,2|0,0:0|0:0,0:0:0:0:
280,108,148394,2,0,L|368:100,1,70,8|2,0:0|0:0,0:0:0:0:
420,40,148786,6,0,P|460:88|464:176,1,140,4|8,0:0|0:0,0:0:0:0:
384,184,149375,2,0,L|396:260,1,70,0|2,0:0|0:0,0:0:0:0:
312,296,149767,2,0,L|301:226,1,70,0|8,0:0|0:0,0:0:0:0:
240,160,150159,6,0,P|168:152|100:196,1,140,0|0,0:0|0:0,0:0:0:0:
68,260,150747,1,8,0:0:0:0:
100,340,150943,1,0,0:0:0:0:
184,308,151139,1,10,0:0:0:0:
184,308,151237,2,0,P|232:316|268:340,1,70,10|8,0:0|0:0,0:0:0:0:
284,344,151532,2,0,P|332:336|368:312,1,70,10|10,0:0|0:0,0:0:0:0:
464,348,151924,6,0,P|428:284|480:160,1,210,4|0,0:0|0:0,0:0:0:0:
512,88,152708,2,0,P|452:56|432:59,1,70,2|0,0:0|0:0,0:0:0:0:
420,68,153002,2,0,L|316:76,1,105,0|0,0:0|0:0,0:0:0:0:
224,96,153492,6,0,P|184:64|180:4,2,105,2|2|0,0:0|0:0|0:0,0:0:0:0:
286,162,154277,2,0,B|242:205|243:243|203:280,1,140,2|8,0:0|0:0,0:0:0:0:
152,204,154865,1,0,0:0:0:0:
152,204,154963,1,0,0:0:0:0:
152,204,155061,6,0,P|104:200|40:216,1,105,2|0,0:0|0:0,0:0:0:0:
224,96,155649,1,0,0:0:0:0:
286,162,155845,2,0,P|334:166|398:150,2,105,2|0|0,0:0|0:0|0:0,0:0:0:0:
308,68,156630,6,0,P|356:41|493:101,1,210,2|0,0:0|0:0,0:0:0:0:
504,184,157414,2,0,L|476:328,1,140,10|10,0:0|0:0,0:0:0:0:
400,368,158002,1,8,0:0:0:0:
336,304,158198,6,0,P|268:300|192:324,1,140,4|8,0:0|0:0,0:0:0:0:
128,364,158786,1,0,0:0:0:0:
48,328,158983,1,2,0:0:0:0:
208,224,159277,1,0,0:0:0:0:
16,216,159571,1,0,0:0:0:0:
16,216,159767,6,0,P|4:160|8:124,1,70,4|0,0:0|0:0,0:0:0:0:
12,108,160061,2,0,P|56:88|116:96,1,105,0|0,0:0|0:0,0:0:0:0:
208,160,160551,2,0,P|224:104|212:8,1,140,2|8,0:0|0:0,0:0:0:0:
320,40,161139,1,0,0:0:0:0:
320,40,161237,1,0,0:0:0:0:
320,40,161335,6,0,P|368:60|442:61,1,105,0|0,0:0|0:0,0:0:0:0:
512,216,161924,1,0,0:0:0:0:
424,240,162120,2,0,L|332:256,1,70,0|0,0:0|0:0,0:0:0:0:
315,159,162512,2,0,L|261:235,1,70,8|0,0:0|0:0,0:0:0:0:
179,177,162904,6,0,L|207:338,1,140,4|10,0:0|0:0,0:0:0:0:
132,372,163492,1,2,0:0:0:0:
48,336,163688,2,0,L|19:174,1,140,10|8,0:0|0:0,0:0:0:0:
95,141,164277,1,8,0:0:0:0:
95,141,164375,1,8,0:0:0:0:
95,141,164473,6,0,P|116:80|200:88,1,140,4|8,0:0|0:0,0:0:0:0:
264,108,165061,1,0,0:0:0:0:
340,68,165257,1,2,0:0:0:0:
432,216,165551,1,0,0:0:0:0:
316,344,165845,1,0,0:0:0:0:
240,296,166041,6,0,L|128:312,2,105,2|0|0,0:0|0:0|0:0,0:0:0:0:
320,256,166826,2,0,P|316:208|256:136,1,140,0|8,0:0|0:0,0:0:0:0:
176,112,167414,1,0,0:0:0:0:
176,112,167512,1,0,0:0:0:0:
176,112,167610,5,2,0:0:0:0:
38,215,167904,1,0,0:0:0:0:
17,44,168198,1,0,0:0:0:0:
73,120,168394,6,0,P|122:126|186:106,1,105,2|0,0:0|0:0,0:0:0:0:
324,16,168983,1,0,0:0:0:0:
324,16,169179,2,0,P|288:76|384:64,1,210,2|2,0:0|0:0,0:0:0:0:
468,20,169963,2,0,P|464:80|476:164,1,140,10|10,0:0|0:0,0:0:0:0:
512,246,170551,1,10,0:0:0:0:
420,224,170747,6,0,P|360:220|276:232,1,140,4|8,0:0|0:0,0:0:0:0:
196,256,171335,1,0,0:0:0:0:
108,276,171532,2,0,P|68:276|16:272,1,70,2|0,0:0|0:0,0:0:0:0:
16,252,171826,2,0,P|20:188|8:140,1,105,0|0,0:0|0:0,0:0:0:0:
100,84,172316,6,0,P|96:148|108:196,2,105,2|0|0,0:0|0:0|0:0,0:0:0:0:
172,28,173100,2,0,P|224:12|276:80,1,140,0|8,0:0|0:0,0:0:0:0:
212,164,173688,1,2,0:0:0:0:
212,164,173786,1,0,0:0:0:0:
212,164,173884,6,0,L|292:156,1,70,2|0,0:0|0:0,0:0:0:0:
316,152,174179,2,0,P|368:120|428:120,1,105,0|0,0:0|0:0,0:0:0:0:
480,236,174669,2,0,P|428:204|368:204,1,105,2|0,0:0|0:0,0:0:0:0:
248,328,175257,1,0,0:0:0:0:
248,328,175453,6,0,L|164:348,1,70,4|0,0:0|0:0,0:0:0:0:
188,252,175845,2,0,L|104:272,1,70,8|2,0:0|0:0,0:0:0:0:
280,244,176237,1,10,0:0:0:0:
232,168,176434,1,10,0:0:0:0:
264,84,176630,1,8,0:0:0:0:
264,84,176728,1,8,0:0:0:0:
264,84,176826,2,0,L|277:48,2,35,8|8|4,0:0|0:0|0:0,0:0:0:0:
256,192,177120,12,0,180159,0:0:0:0:
