osu file format v14

[General]
AudioFilename: Shibayan feat. 3L - MyonMyonMyonMyonMyonMyon!.mp3
AudioLeadIn: 0
PreviewTime: 46295
Countdown: 0
SampleSet: Soft
StackLeniency: 0.7
Mode: 0
LetterboxInBreaks: 1
EpilepsyWarning: 1
WidescreenStoryboard: 1

[Editor]
Bookmarks: 16059,23618,31177,38736,46295,52909,53854,60468,61413,68027,68972,75586,76531
DistanceSpacing: 0.8
BeatDivisor: 4
GridSize: 4
TimelineZoom: 1

[Metadata]
Title:MyonMyonMyonMyonMyonMyon!
TitleUnicode:MyonMyonMyonMyonMyonMyon!
Artist:3L
ArtistUnicode:3L
Creator:Len
Version:Railgun's Easy
Source:東方Project
Tags:ムソウマテリアライズ 11t Fast project_railgun K_i_A_i touhou Chaoslitz 東方妖々夢 ~ Ancient Temple やまざきさやか Shibayan ShibayanRecords
BeatmapID:920989
BeatmapSetID:426542

[Difficulty]
HPDrainRate:2
CircleSize:2
OverallDifficulty:2.2
ApproachRate:3.5
SliderMultiplier:1.4
SliderTickRate:2

[Events]
//Background and Video events
0,0,"pink.jpg",0,0
//Break Periods
//Storyboard Layer 0 (Background)
//Storyboard Layer 1 (Fail)
//Storyboard Layer 2 (Pass)
//Storyboard Layer 3 (Foreground)
//Storyboard Sound Samples

[TimingPoints]
964,472.44094488189,4,2,1,80,1,0
46318,-100,4,2,1,60,0,1
61318,-100,4,2,1,60,0,0
61436,-100,4,2,1,60,0,1
76554,-100,4,2,1,60,0,0

[Colours]
Combo1 : 216,114,137
Combo2 : 200,200,200
Combo3 : 30,160,70

[HitObjects]
36,120,16082,6,0,P|108:104|172:124,1,140,6|8,0:0|0:0,0:0:0:0:
256,192,17027,1,4,0:0:0:0:
342,261,17499,2,0,P|408:280|476:264,2,140,8|2|8,0:0|0:0|0:0,0:0:0:0:
256,192,18916,2,0,L|256:48,1,140,0|8,0:0|0:0,0:0:0:0:
148,83,19861,6,0,P|102:136|88:203,1,140,6|8,0:0|0:0,0:0:0:0:
160,292,20806,1,4,0:0:0:0:
256,348,21279,1,8,0:0:0:0:
352,292,21751,1,2,0:0:0:0:
423,203,22223,2,0,P|409:136|363:83,2,140,8|0|8,0:0|0:0|0:0,0:0:0:0:
352,292,23641,6,0,P|286:315|215:292,1,140,6|8,0:0|0:0,0:0:0:0:
128,232,24586,1,4,0:0:0:0:
221,168,25058,2,0,P|287:145|358:168,2,140,8|2|8,0:0|0:0|0:0,0:0:0:0:
128,232,26475,2,0,P|92:192|92:96,1,140,0|8,0:0|0:0,0:0:0:0:
179,44,27420,6,0,P|221:99|221:168,1,140,6|8,0:0|0:0,0:0:0:0:
128,232,28365,1,4,0:0:0:0:
192,324,28838,2,0,P|328:340|412:224,1,280,8|8,0:0|0:0,0:0:0:0:
480,148,30255,2,0,P|419:116|351:143,1,140,0|8,0:0|0:0,0:0:0:0:
256,192,31200,5,6,0:0:0:0:
155,244,31672,2,0,P|92:267|24:236,2,140,8|4|8,0:0|0:0|0:0,0:0:0:0:
256,192,33090,2,0,B|300:144|300:144|376:144,1,140,2|8,0:0|0:0,0:0:0:0:
468,208,34034,2,0,B|424:256|424:256|348:256,1,140,0|8,0:0|0:0,0:0:0:0:
256,192,34979,5,6,0:0:0:0:
163,128,35452,2,0,P|96:112|16:144,1,140,8|4,0:0|0:0,0:0:0:0:
24,244,36397,2,0,P|91:259|157:238,1,140,8|2,0:0|0:0,0:0:0:0:
256,192,37342,2,0,B|316:192|316:192|352:184|352:184|400:184,2,140,8|0|8,0:0|0:0|0:0,0:0:0:0:
163,128,38759,5,6,0:0:0:0:
84,207,39231,2,0,P|93:275|144:322,1,140,8|4,0:0|0:0,0:0:0:0:
256,296,40176,1,8,0:0:0:0:
367,322,40649,2,0,P|418:275|428:208,1,140,2|8,0:0|0:0,0:0:0:0:
349,128,41594,1,0,0:0:0:0:
256,192,42066,1,8,0:0:0:0:
163,127,42538,6,0,P|100:160|88:232,1,140,6|8,0:0|0:0,0:0:0:0:
144,320,43483,1,4,0:0:0:0:
256,340,43956,2,0,P|319:307|331:235,1,140,8|2,0:0|0:0,0:0:0:0:
356,136,44901,2,0,P|424:107|492:139,2,140,8|0|8,0:0|0:0|0:0,0:0:0:0:
256,192,46318,5,6,0:0:0:0:
156,248,46790,2,0,P|88:277|20:245,1,140,8|4,0:0|0:0,0:0:0:0:
32,144,47735,2,0,P|100:115|168:147,1,140,8|2,0:0|0:0,0:0:0:0:
256,192,48680,1,8,0:0:0:0:
336,268,49153,2,0,B|374:278|404:256|404:256|428:269|472:256,1,140,0|8,0:0|0:0,0:0:0:0:
497,146,50097,6,0,P|365:112|255:192,1,280,6|0,0:0|0:0,0:0:0:0:
184,280,51515,2,0,P|128:317|44:309,2,140,8|2|8,0:0|0:0|0:0,0:0:0:0:
256,192,52932,2,0,B|248:144|248:144|264:104|264:104|256:44,1,140,4|12,0:0|0:0,0:0:0:0:
148,88,53877,5,6,0:0:0:0:
59,156,54349,2,0,P|35:220|57:285,1,140,8|4,0:0|0:0,0:0:0:0:
160,328,55294,1,8,0:0:0:0:
256,272,55767,1,2,0:0:0:0:
352,328,56239,1,8,0:0:0:0:
352,216,56712,2,0,B|352:176|376:152|376:152|416:140|448:108,1,140,0|8,0:0|0:0,0:0:0:0:
352,40,57657,6,0,B|288:80|218:51|218:51|204:136|96:164,1,280,6|4,0:0|0:0,0:0:0:0:
36,216,59074,2,0,P|84:324|232:284,1,280,8|8,0:0|0:0,0:0:0:0:
256,192,60491,1,4,0:0:0:0:
256,80,60964,1,12,0:0:0:0:
356,132,61436,5,6,0:0:0:0:
452,192,61908,2,0,P|421:255|360:285,1,140,8|4,0:0|0:0,0:0:0:0:
256,240,62853,1,8,0:0:0:0:
151,284,63326,2,0,P|89:253|60:192,1,140,2|8,0:0|0:0,0:0:0:0:
68,80,64271,2,0,B|232:84,1,140,0|8,0:0|0:0,0:0:0:0:
304,144,65216,5,6,0:0:0:0:
396,76,65688,1,8,0:0:0:0:
460,168,66160,1,4,0:0:0:0:
368,236,66633,2,0,P|256:316|144:224,1,280,8|8,0:0|0:0,0:0:0:0:
256,192,68050,2,0,B|264:144|264:144|248:104|248:104|256:44,1,140,4|12,0:0|0:0,0:0:0:0:
364,88,68995,5,6,0:0:0:0:
453,155,69468,2,0,P|477:219|455:284,1,140,8|4,0:0|0:0,0:0:0:0:
360,348,70412,2,0,B|268:305|268:305|155:308|137:176,1,280,8|8,0:0|0:0,0:0:0:0:
256,192,71830,2,0,B|289:172|294:136|294:136|321:127|342:88,1,140,0|8,0:0|0:0,0:0:0:0:
448,56,72775,5,6,0:0:0:0:
456,168,73247,2,0,B|420:236|420:236|344:280,1,140,8|4,0:0|0:0,0:0:0:0:
256,304,74192,2,0,P|195:324|112:296,2,140,8|2|8,0:0|0:0|0:0,0:0:0:0:
256,192,75609,1,4,0:0:0:0:
256,80,76082,1,12,0:0:0:0:
156,132,76554,5,6,0:0:0:0:
