osu file format v14

[General]
AudioFilename: Shibayan feat. 3L - MyonMyonMyonMyonMyonMyon!.mp3
AudioLeadIn: 0
PreviewTime: 46295
Countdown: 0
SampleSet: Soft
StackLeniency: 0.7
Mode: 0
LetterboxInBreaks: 1
EpilepsyWarning: 1
WidescreenStoryboard: 1

[Editor]
Bookmarks: 16059,23618,31177,38736,46295,52909,53854,60468,61413,68027,68972,75586,76531
DistanceSpacing: 1.2
BeatDivisor: 4
GridSize: 32
TimelineZoom: 1.9

[Metadata]
Title:MyonMyonMyonMyonMyonMyon!
TitleUnicode:MyonMyonMyonMyonMyonMyon!
Artist:3L
ArtistUnicode:3L
Creator:Len
Version:Normal
Source:東方Project
Tags:ムソウマテリアライズ 11t Fast project_railgun K_i_A_i touhou Chaoslitz 東方妖々夢 ~ Ancient Temple やまざきさやか Shibayan ShibayanRecords
BeatmapID:920987
BeatmapSetID:426542

[Difficulty]
HPDrainRate:3
CircleSize:3
OverallDifficulty:3.4
ApproachRate:5
SliderMultiplier:1.6
SliderTickRate:2

[Events]
//Background and Video events
0,0,"pink.jpg",0,0
//Break Periods
//Storyboard Layer 0 (Background)
//Storyboard Layer 1 (Fail)
//Storyboard Layer 2 (Pass)
//Storyboard Layer 3 (Foreground)
//Storyboard Sound Samples

[TimingPoints]
964,472.44094488189,4,2,1,60,1,0
46318,-100,4,2,2,70,0,1
46436,-100,4,2,1,70,0,1
51751,-100,4,2,2,70,0,1
52460,-100,4,2,1,70,0,1
61318,-100,4,2,1,70,0,0
61436,-100,4,2,2,70,0,1
61554,-100,4,2,1,70,0,1
66869,-100,4,2,2,70,0,1
67578,-100,4,2,1,70,0,1
76554,-100,4,2,1,70,0,0

[Colours]
Combo1 : 216,114,137
Combo2 : 200,200,200
Combo3 : 30,160,70

[HitObjects]
51,53,16082,6,0,L|220:41,1,160,0|8,0:0|0:0,0:0:0:0:
278,221,17026,2,0,P|214:253|126:224,1,160,6|10,0:0|0:0,0:0:0:0:
56,169,17735,6,0,L|80:357,1,160,6|4,0:0|0:0,0:0:0:0:
167,362,18444,2,0,L|255:348,1,80,8|2,0:0|0:0,0:0:0:0:
307,275,18916,2,0,L|473:295,1,160,4|8,0:0|0:0,0:0:0:0:
496,104,19861,6,0,L|337:123,1,160,4|8,0:0|0:0,0:0:0:0:
144,119,20806,2,0,P|126:180|195:254,1,160,6|8,0:0|0:0,0:0:0:0:
277,262,21515,1,4,0:0:0:0:
250,354,21751,6,0,L|148:372,2,80,0|4|8,0:0|0:0|0:0,0:0:0:0:
346,347,22460,1,2,0:0:0:0:
306,259,22696,2,0,L|334:75,1,160,4|12,0:0|0:0,0:0:0:0:
143,45,23641,6,0,L|167:203,1,160,6|10,0:0|0:0,0:0:0:0:
283,356,24586,2,0,P|345:376|430:303,1,160,6|10,0:0|0:0,0:0:0:0:
417,232,25294,6,0,P|405:128|397:48,1,160,6|4,0:0|0:0,0:0:0:0:
308,105,26003,2,0,L|296:184,1,80,8|0,0:0|0:0,0:0:0:0:
226,249,26475,2,0,P|173:266|97:186,1,160,6|8,0:0|0:0,0:0:0:0:
81,109,27184,1,4,0:3:0:0:
156,49,27420,6,0,L|335:74,1,160,4|8,0:0|0:0,0:0:0:0:
442,214,28365,2,0,P|431:291|381:361,1,160,6|8,0:0|0:0,0:0:0:0:
289,371,29074,6,0,P|243:329|134:335,1,160,4|4,0:0|0:0,0:0:0:0:
56,355,29782,2,0,L|41:258,1,80,12|0,0:0|0:0,0:0:0:0:
119,216,30255,2,0,L|134:119,1,80,4|4,0:0|0:3,0:0:0:0:
217,95,30727,2,0,L|310:109,1,80,12|0,0:0|0:0,0:0:0:0:
381,63,31200,6,0,L|483:48,2,80,4|0|8,0:0|0:0|0:0,0:0:0:0:
261,213,32145,2,0,L|87:184,1,160,6|8,0:0|0:0,0:0:0:0:
43,111,32853,6,0,P|11:166|47:266,1,160,6|4,0:0|0:0,0:0:0:0:
84,337,33562,2,0,L|176:322,1,80,10|2,0:0|0:0,0:0:0:0:
214,243,34034,2,0,L|371:269,1,160,4|8,0:0|0:0,0:0:0:0:
497,123,34979,6,0,P|471:56|361:60,1,160,4|8,0:0|0:0,0:0:0:0:
329,114,35688,1,0,0:0:0:0:
247,63,35924,2,0,L|75:83,2,160,4|8|0,0:0|0:0|0:0,0:0:0:0:
329,114,37105,5,4,0:0:0:0:
244,159,37341,2,0,L|240:257,1,80,8|4,0:0|0:0,0:0:0:0:
167,301,37814,2,0,P|224:333|325:289,1,160,4|8,0:0|0:0,0:0:0:0:
470,200,38759,6,0,P|399:166|326:194,1,160,4|8,0:0|0:0,0:0:0:0:
240,238,39467,1,4,0:3:0:0:
160,185,39704,2,0,L|141:19,1,160,4|8,0:0|0:0,0:0:0:0:
46,16,40412,6,0,P|5:77|54:176,1,160,4|4,0:0|0:0,0:0:0:0:
89,228,41121,2,0,L|75:331,1,80,8|8,0:0|0:3,0:0:0:0:
140,380,41593,2,0,B|181:357|181:357|307:379,1,160,4|8,0:0|0:0,0:0:0:0:
474,319,42538,6,0,P|487:258|421:178,1,160,4|8,0:0|0:0,0:0:0:0:
346,225,43247,1,6,0:3:0:0:
346,129,43483,2,0,L|345:14,2,80,4|0|8,0:0|0:0|0:0,0:0:0:0:
263,177,44192,6,0,L|78:146,1,160,4|14,0:0|0:0,0:0:0:0:
10,170,44901,2,0,P|15:117|55:69,1,80,14|2,0:0|0:0,0:0:0:0:
116,56,45373,2,0,L|203:71,1,80,14|10,0:0|0:3,0:0:0:0:
281,27,45845,2,0,L|359:13,1,80,14|0,0:0|0:0,0:0:0:0:
430,78,46318,6,0,L|445:163,1,80,6|4,0:0|0:0,0:0:0:0:
458,251,46790,1,14,0:0:0:0:
265,251,47263,2,0,P|214:254|134:166,1,160,4|10,0:0|0:0,0:0:0:0:
90,100,47971,6,0,P|78:179|63:282,1,160,4|4,0:0|0:0,0:0:0:0:
118,339,48680,2,0,P|170:316|210:312,1,80,8|2,0:0|0:0,0:0:0:0:
272,259,49152,2,0,P|324:282|364:286,2,80,6|4|10,0:0|0:0|0:0,0:0:0:0:
228,173,49861,1,8,0:3:0:0:
292,101,50097,6,0,P|347:77|432:156,1,160,4|8,0:0|0:0,0:0:0:0:
474,312,51042,2,0,L|370:286,1,80,4|0,0:0|0:0,0:0:0:0:
359,380,51515,1,8,0:0:0:0:
286,316,51751,6,0,B|236:300|236:300|115:330,1,160,6|6,0:0|0:0,0:0:0:0:
39,299,52460,2,0,P|31:230|28:188,1,80,8|2,0:0|0:0,0:0:0:0:
18,124,52932,5,4,0:0:0:0:
182,223,53404,1,12,0:0:0:0:
341,116,53877,6,0,P|346:73|351:22,2,80,4|4|8,0:0|0:0|0:0,0:0:0:0:
407,185,54586,1,4,0:3:0:0:
352,264,54822,2,0,P|290:279|215:195,1,160,4|10,0:0|0:0,0:0:0:0:
128,250,55530,6,0,P|140:167|151:73,1,160,4|4,0:0|0:0,0:0:0:0:
55,114,56239,2,0,L|39:219,1,80,8|2,0:0|0:0,0:0:0:0:
42,289,56712,2,0,P|88:334|189:317,1,160,4|10,0:0|0:0,0:0:0:0:
345,233,57656,6,0,L|336:312,2,80,4|0|8,0:0|0:0|0:0,0:0:0:0:
379,143,58365,1,8,0:3:0:0:
463,98,58601,2,0,P|413:52|324:63,1,160,4|10,0:0|0:0,0:0:0:0:
286,148,59310,6,0,P|209:160|149:111,1,160,4|4,0:0|0:0,0:0:0:0:
92,189,60019,2,0,P|96:229|98:287,1,80,4|0,0:0|0:0,0:0:0:0:
95,363,60491,5,6,0:0:0:0:
257,259,60964,1,14,0:0:0:0:
417,363,61436,6,0,L|499:347,2,80,6|4|8,0:0|0:0|0:0,0:0:0:0:
435,171,62381,2,0,L|417:74,1,80,4|2,0:0|0:3,0:0:0:0:
330,58,62853,1,6,0:0:0:0:
263,127,63089,6,0,B|218:147|218:147|101:130,1,160,4|4,0:0|0:0,0:0:0:0:
26,80,63798,2,0,P|12:128|19:168,1,80,8|2,0:0|0:0,0:0:0:0:
85,223,64271,2,0,L|62:319,1,80,4|4,0:0|0:0,0:0:0:0:
125,376,64743,1,8,0:0:0:0:
315,354,65215,6,0,P|395:339|495:316,1,160,4|8,0:0|0:0,0:0:0:0:
504,231,65924,1,4,0:3:0:0:
431,167,66160,2,0,L|446:78,2,80,4|2|8,0:0|0:3|0:0,0:0:0:0:
346,212,66869,6,0,B|300:194|300:194|181:220,1,160,6|6,0:0|0:0,0:0:0:0:
105,174,67578,2,0,L|124:88,1,80,8|6,0:0|0:0,0:0:0:0:
195,33,68050,2,0,P|251:17|340:94,1,160,4|14,0:0|0:0,0:0:0:0:
506,148,68995,6,0,P|492:220|474:334,1,160,6|8,0:0|0:0,0:0:0:0:
390,265,69704,1,4,0:3:0:0:
399,361,69940,2,0,P|340:345|222:325,1,160,4|10,0:0|0:0,0:0:0:0:
149,351,70649,6,0,P|126:308|195:212,1,160,4|4,0:0|0:0,0:0:0:0:
246,155,71357,2,0,L|234:52,1,80,8|10,0:0|0:3,0:0:0:0:
299,2,71830,1,4,0:0:0:0:
486,41,72302,2,0,L|479:151,1,80,10|10,0:0|0:3,0:0:0:0:
485,218,72775,6,0,P|441:208|391:204,1,80,4|4,0:0|0:0,0:0:0:0:
367,292,73247,2,0,P|328:301|288:305,1,80,8|2,0:0|0:0,0:0:0:0:
212,246,73719,2,0,P|229:181|249:73,1,160,4|8,0:0|0:0,0:0:0:0:
175,24,74428,6,0,P|123:13|51:110,1,160,4|4,0:0|0:0,0:0:0:0:
90,168,75137,2,0,P|81:212|74:261,1,80,12|8,0:0|0:3,0:0:0:0:
61,341,75609,5,12,0:0:0:0:
231,251,76082,1,12,0:0:0:0:
386,362,76554,1,4,0:0:0:0:
