osu file format v14

[General]
AudioFilename: Shibayan feat. 3L - MyonMyonMyonMyonMyonMyon!.mp3
AudioLeadIn: 0
PreviewTime: 46295
Countdown: 0
SampleSet: Normal
StackLeniency: 0.7
Mode: 0
LetterboxInBreaks: 1
EpilepsyWarning: 1
WidescreenStoryboard: 1

[Editor]
Bookmarks: 16059,46295,53854,61413,68972,76531
DistanceSpacing: 0.5
BeatDivisor: 4
GridSize: 32
TimelineZoom: 1.8

[Metadata]
Title:MyonMyonMyonMyonMyonMyon!
TitleUnicode:MyonMyonMyonMyonMyonMyon!
Artist:3L
ArtistUnicode:3L
Creator:Len
Version:Myon
Source:東方Project
Tags:ムソウマテリアライズ 11t Fast project_railgun K_i_A_i touhou Chaoslitz 東方妖々夢 ~ Ancient Temple やまざきさやか Shibayan ShibayanRecords
BeatmapID:920988
BeatmapSetID:426542

[Difficulty]
HPDrainRate:5.7
CircleSize:4
OverallDifficulty:8.5
ApproachRate:9.2
SliderMultiplier:2.8
SliderTickRate:1

[Events]
//Background and Video events
0,0,"pink.jpg",0,0
//Break Periods
//Storyboard Layer 0 (Background)
//Storyboard Layer 1 (Fail)
//Storyboard Layer 2 (Pass)
//Storyboard Layer 3 (Foreground)
//Storyboard Sound Samples

[TimingPoints]
964,472.44094488189,4,1,0,100,1,0
16082,-83.3333333333333,4,2,1,60,0,0
30964,-55.5555555555556,4,2,1,60,0,0
31200,-83.3333333333333,4,2,1,60,0,0
46318,-66.6666666666667,4,2,2,70,0,1
46436,-66.6666666666667,4,2,1,70,0,1
51751,-66.6666666666667,4,2,2,70,0,1
52460,-66.6666666666667,4,2,1,70,0,1
61318,-66.6666666666667,4,2,1,70,0,0
61436,-66.6666666666667,4,2,2,70,0,1
61554,-66.6666666666667,4,2,1,70,0,1
66869,-66.6666666666667,4,2,2,70,0,1
67578,-66.6666666666667,4,2,1,70,0,1
76436,-66.6666666666667,4,2,1,70,0,0
76554,-66.6666666666667,4,2,1,70,0,1
76672,-66.6666666666667,4,2,1,70,0,0

[Colours]
Combo1 : 255,227,142
Combo2 : 128,255,128
Combo3 : 151,198,255
Combo4 : 250,156,170

[HitObjects]
47,236,16082,6,0,L|145:220,1,83.9999974365235,0|0,0:0|0:0,0:0:0:0:
232,341,16318,2,0,P|190:336|155:313,1,83.9999974365235,2|0,0:0|0:0,0:0:0:0:
236,163,16554,2,0,L|221:256,1,83.9999974365235,8|0,0:0|0:0,0:0:0:0:
166,86,16790,1,4,0:3:0:0:
478,171,17026,6,0,B|348:105|354:210|236:162,1,251.999992309571,6|0,0:0|0:0,0:0:0:0:
166,86,17499,1,10,0:0:0:0:
478,171,17735,6,0,P|491:126|385:38,1,167.999994873047,6|0,0:0|0:0,0:0:0:0:
402,26,18208,2,0,L|506:17,1,83.9999974365235,4|0,0:0|0:0,0:0:0:0:
296,152,18444,2,0,L|400:161,1,83.9999974365235,8|0,0:0|0:0,0:0:0:0:
203,69,18680,1,2,0:0:0:0:
203,69,18798,1,0,0:0:0:0:
133,138,18916,6,0,P|124:184|140:239,1,83.9999974365235,4|0,0:0|0:0,0:0:0:0:
306,274,19152,2,0,P|270:243|215:229,1,83.9999974365235,4|0,0:0|0:0,0:0:0:0:
11,343,19389,2,0,L|209:315,1,167.999994873047,8|4,0:0|0:3,0:0:0:0:
197,304,19861,6,0,L|103:290,1,83.9999974365235,4|0,0:0|0:0,0:0:0:0:
0,216,20097,2,0,L|83:203,1,83.9999974365235,4|0,0:0|0:0,0:0:0:0:
233,221,20334,2,0,P|234:179|220:139,1,83.9999974365235,8|0,0:0|0:0,0:0:0:0:
138,6,20570,2,0,P|124:45|125:87,1,83.9999974365235,0|0,0:0|0:0,0:0:0:0:
325,187,20806,6,0,L|419:173,1,83.9999974365235,6|0,0:0|0:0,0:0:0:0:
98,323,21278,1,8,0:0:0:0:
408,174,21515,6,0,P|320:142|240:202,1,167.999994873047,4|0,0:0|0:0,0:0:0:0:
241,267,21869,1,0,0:0:0:0:
346,326,21987,2,0,L|333:244,1,83.9999974365235,4|0,0:0|0:0,0:0:0:0:
222,86,22223,2,0,L|235:3,1,83.9999974365235,8|0,0:0|0:0,0:0:0:0:
91,219,22460,1,2,0:0:0:0:
83,229,22578,1,0,0:0:0:0:
29,156,22696,6,0,P|144:147|166:260,1,251.999992309571,4|2,0:0|0:0,0:0:0:0:
227,115,23168,6,0,P|112:105|91:219,1,251.999992309571,12|0,0:0|0:0,0:0:0:0:
172,351,23641,6,0,P|229:324|302:346,1,83.9999974365235,6|0,0:0|0:0,0:0:0:0:
421,296,23877,2,0,P|379:290|344:268,1,83.9999974365235,2|0,0:0|0:0,0:0:0:0:
263,137,24113,2,0,L|250:220,1,83.9999974365235,10|0,0:0|0:0,0:0:0:0:
341,377,24349,1,2,0:0:0:0:
444,172,24586,6,0,P|367:84|263:137,1,251.999992309571,6|0,0:0|0:0,0:0:0:0:
360,262,25058,2,0,P|356:221|350:179,1,83.9999974365235,10|0,0:0|0:0,0:0:0:0:
238,39,25294,6,0,B|107:18|158:159|-34:104,1,251.999992309571,6|0,0:0|0:0,0:0:0:0:
202,212,25767,2,0,P|215:172|212:130,1,83.9999974365235,4|0,0:0|0:0,0:0:0:0:
91,265,26003,2,0,P|59:242|5:223,1,83.9999974365235,8|0,0:0|0:0,0:0:0:0:
200,353,26239,1,0,0:0:0:0:
273,281,26357,1,0,0:0:0:0:
297,379,26475,6,0,L|216:360,1,83.9999974365235,6|0,0:0|0:0,0:0:0:0:
91,265,26712,2,0,L|9:246,1,83.9999974365235,4|0,0:0|0:0,0:0:0:0:
222,189,26948,2,0,L|404:147,1,167.999994873047,8|4,0:0|0:3,0:0:0:0:
409,138,27420,6,0,P|423:185|409:237,1,83.9999974365235,4|0,0:0|0:0,0:0:0:0:
320,339,27656,2,0,P|315:297|328:258,1,83.9999974365235,4|0,0:0|0:0,0:0:0:0:
277,147,27893,2,0,L|195:165,1,83.9999974365235,8|0,0:0|0:0,0:0:0:0:
333,35,28129,1,0,0:0:0:0:
34,137,28365,6,0,B|164:203|158:98|276:146,1,251.999992309571,6|0,0:0|0:0,0:0:0:0:
238,311,28838,2,0,P|235:269|219:230,1,83.9999974365235,8|0,0:0|0:0,0:0:0:0:
34,137,29074,6,0,L|16:325,1,167.999994873047,4|0,0:0|0:0,0:0:0:0:
39,322,29546,2,0,L|28:224,1,83.9999974365235,4|0,0:0|0:0,0:0:0:0:
168,94,29782,2,0,L|158:177,1,83.9999974365235,12|0,0:0|0:0,0:0:0:0:
253,323,30019,1,0,0:0:0:0:
261,339,30137,1,0,0:0:0:0:
308,248,30255,6,0,P|228:231|167:285,1,167.999994873047,4|4,0:0|0:3,0:0:0:0:
506,360,30727,1,12,0:0:0:0:
388,198,30964,6,0,P|334:223|337:282,1,125.999996154785,0|0,0:0|0:0,0:0:0:0:
409,354,31200,6,0,L|506:372,1,83.9999974365235,4|0,0:0|0:0,0:0:0:0:
354,184,31436,2,0,L|257:202,1,83.9999974365235,0|0,0:0|0:0,0:0:0:0:
448,159,31672,1,8,0:0:0:0:
88,81,31908,2,0,P|122:105|163:112,1,83.9999974365235,0|0,0:0|0:0,0:0:0:0:
264,43,32145,6,0,L|242:209,1,167.999994873047,6|0,0:0|0:0,0:0:0:0:
251,228,32617,1,8,0:0:0:0:
464,189,32853,6,0,P|396:94|287:137,1,251.999992309571,6|0,0:0|0:0,0:0:0:0:
251,228,33326,2,0,L|270:323,1,83.9999974365235,4|0,0:0|0:0,0:0:0:0:
161,159,33562,2,0,L|142:254,1,83.9999974365235,10|0,0:0|0:0,0:0:0:0:
90,68,33798,1,2,0:0:0:0:
90,68,33916,1,0,0:0:0:0:
6,112,34034,6,0,P|53:89|106:92,1,83.9999974365235,4|0,0:0|0:0,0:0:0:0:
276,58,34271,2,0,P|234:53|198:33,1,83.9999974365235,4|0,0:0|0:0,0:0:0:0:
71,189,34507,1,8,0:0:0:0:
359,245,34743,1,4,0:3:0:0:
3,353,34979,6,0,P|56:325|120:332,1,83.9999974365235,4|0,0:0|0:0,0:0:0:0:
175,260,35215,2,0,P|228:288|292:281,1,83.9999974365235,4|0,0:0|0:0,0:0:0:0:
359,245,35452,2,0,L|381:150,1,83.9999974365235,8|0,0:0|0:0,0:0:0:0:
276,58,35688,1,0,0:0:0:0:
399,329,35924,6,0,L|377:163,1,167.999994873047,4|0,0:0|0:0,0:0:0:0:
396,148,36397,2,0,L|414:66,1,83.9999974365235,8|0,0:0|0:0,0:0:0:0:
482,237,36633,2,0,L|500:319,1,83.9999974365235,4|0,0:0|0:0,0:0:0:0:
314,327,36869,6,0,P|278:311|204:309,1,83.9999974365235,0|0,0:0|0:0,0:0:0:0:
127,346,37105,1,4,0:0:0:0:
41,115,37341,2,0,P|31:161|20:224,1,83.9999974365235,8|0,0:0|0:0,0:0:0:0:
127,42,37578,2,0,P|134:83|143:124,1,83.9999974365235,4|0,0:0|0:0,0:0:0:0:
256,236,37814,6,0,P|346:244|371:103,1,251.999992309571,4|2,0:0|0:0,0:0:0:0:
427,292,38286,6,0,P|312:282|306:167,1,251.999992309571,8|0,0:0|0:0,0:0:0:0:
400,97,38759,6,0,L|506:116,1,83.9999974365235,4|0,0:0|0:0,0:0:0:0:
326,23,38995,2,0,L|244:38,1,83.9999974365235,4|0,0:0|0:0,0:0:0:0:
85,110,39231,2,0,P|125:121|161:144,1,83.9999974365235,8|0,0:0|0:0,0:0:0:0:
216,238,39467,1,4,0:3:0:0:
326,23,39704,6,0,L|364:276,1,251.999992309571,4|0,0:0|0:0,0:0:0:0:
216,238,40176,2,0,P|180:215|140:204,1,83.9999974365235,8|0,0:0|0:0,0:0:0:0:
0,103,40412,6,0,P|122:116|222:43,1,251.999992309571,4|0,0:0|0:0,0:0:0:0:
319,153,40885,2,0,L|345:263,1,83.9999974365235,4|0,0:0|0:0,0:0:0:0:
440,80,41121,2,0,L|420:161,1,83.9999974365235,8|0,0:0|0:0,0:0:0:0:
320,20,41357,1,8,0:3:0:0:
320,20,41475,1,0,0:0:0:0:
229,76,41593,6,0,P|155:83|80:23,1,167.999994873047,4|4,0:0|0:0,0:0:0:0:
326,126,42066,1,8,0:0:0:0:
19,195,42302,1,4,0:3:0:0:
447,293,42538,6,0,P|391:308|346:353,1,83.9999974365235,4|0,0:0|0:0,0:0:0:0:
226,210,42775,2,0,P|278:234|315:286,1,83.9999974365235,4|0,0:0|0:0,0:0:0:0:
444,126,43011,2,0,P|403:166|386:228,1,83.9999974365235,8|0,0:0|0:0,0:0:0:0:
311,24,43247,1,6,0:3:0:0:
226,210,43483,6,0,P|127:235|62:108,1,251.999992309571,4|0,0:0|0:0,0:0:0:0:
172,56,43956,2,0,P|166:97|154:138,1,83.9999974365235,8|0,0:0|0:0,0:0:0:0:
61,320,44192,6,0,P|152:266|305:310,1,251.999992309571,4|0,0:0|0:0,0:0:0:0:
477,244,44664,2,0,P|423:219|387:170,1,83.9999974365235,14|0,0:0|0:0,0:0:0:0:
273,76,44901,2,0,L|378:58,1,83.9999974365235,14|0,0:0|0:0,0:0:0:0:
180,189,45137,2,0,L|75:171,1,83.9999974365235,2|0,0:0|0:0,0:0:0:0:
251,361,45373,5,14,0:0:0:0:
278,305,45491,1,0,0:0:0:0:
331,273,45609,1,10,0:3:0:0:
393,275,45727,1,0,0:0:0:0:
443,311,45845,5,14,0:0:0:0:
388,250,45963,1,0,0:0:0:0:
307,236,46081,1,0,0:0:0:0:
234,275,46199,1,0,0:0:0:0:
199,350,46318,6,0,P|156:367|143:317,1,105.000004005432,6|0,0:0|0:0,0:0:0:0:
0,200,46554,2,0,P|15:155|59:172,1,105.000004005432,4|0,0:0|0:0,0:0:0:0:
47,362,46790,2,0,L|65:245,1,105.000004005432,14|0,0:0|0:0,0:0:0:0:
152,83,47026,1,8,0:3:0:0:
152,83,47145,1,4,0:3:0:0:
225,168,47263,6,0,P|306:167|346:48,1,210.000008010865,4|2,0:0|0:3,0:0:0:0:
265,86,47617,1,0,0:0:0:0:
436,112,47735,1,10,0:0:0:0:
458,116,47971,6,0,P|441:228|428:323,1,210.000008010865,4|0,0:0|0:0,0:0:0:0:
438,343,48444,6,0,P|388:315|320:322,1,105.000004005432,4|0,0:0|0:0,0:0:0:0:
304,218,48680,2,0,P|259:244|207:246,1,105.000004005432,8|0,0:0|0:0,0:0:0:0:
76,327,48916,1,2,0:0:0:0:
76,327,49034,1,2,0:0:0:0:
8,262,49152,6,0,P|12:213|72:169,1,105.000004005432,6|0,0:0|0:0,0:0:0:0:
196,80,49389,2,0,P|232:115|237:167,1,105.000004005432,4|0,0:0|0:0,0:0:0:0:
112,364,49625,2,0,P|127:286|137:208,1,157.500006008148,10|0,0:0|0:0,0:0:0:0:
164,243,49861,2,0,P|177:293|189:344,1,105.000004005432,8|0,0:3|0:0,0:0:0:0:
108,139,50097,6,0,P|54:124|0:107,1,105.000004005432,4|0,0:0|0:0,0:0:0:0:
221,73,50334,2,0,P|274:58|329:41,1,105.000004005432,4|0,0:0|0:0,0:0:0:0:
453,202,50570,2,0,P|367:184|340:147,1,105.000004005432,8|0,0:0|0:0,0:0:0:0:
234,338,50806,1,4,0:3:0:0:
327,304,50924,1,8,0:3:0:0:
388,383,51042,6,0,L|357:174,1,210.000008010865,4|0,0:0|0:0,0:0:0:0:
468,216,51397,1,0,0:0:0:0:
248,203,51515,1,8,0:0:0:0:
226,215,51751,6,0,P|152:222|107:103,1,210.000008010865,6|0,0:0|0:0,0:0:0:0:
88,92,52223,6,0,P|83:148|69:210,1,105.000004005432,6|0,0:0|0:0,0:0:0:0:
226,378,52460,1,8,0:0:0:0:
259,294,52578,1,0,1:0:0:0:
336,247,52696,1,2,0:3:0:0:
426,256,52814,1,0,1:3:0:0:
493,317,52932,6,0,P|478:267|468:216,1,105.000004005432,12|0,0:0|0:0,0:0:0:0:
303,75,53168,1,4,0:3:0:0:
284,167,53286,1,4,0:3:0:0:
192,148,53404,6,0,P|201:98|211:43,1,105.000004005432,12|0,0:0|0:0,0:0:0:0:
28,126,53641,1,8,0:0:0:0:
47,218,53759,1,4,0:3:0:0:
66,310,53877,6,0,P|113:274|191:274,1,105.000004005432,4|0,0:0|0:0,0:0:0:0:
284,167,54113,2,0,P|324:200|375:210,1,105.000004005432,4|0,0:0|0:0,0:0:0:0:
170,100,54349,1,8,0:0:0:0:
160,92,54586,6,0,L|178:196,1,105.000004005432,4|8,0:3|0:3,0:0:0:0:
272,352,54822,2,0,B|316:343|332:307|332:307|371:371|458:355,1,210.000008010865,4|2,0:0|0:3,0:0:0:0:
249,267,55176,1,0,0:0:0:0:
469,186,55294,1,10,0:0:0:0:
482,177,55530,6,0,P|487:112|351:66,1,210.000008010865,4|0,0:0|0:0,0:0:0:0:
358,72,56003,6,0,P|319:51|249:39,1,105.000004005432,4|0,0:0|0:0,0:0:0:0:
130,21,56239,2,0,P|131:65|155:131,1,105.000004005432,8|0,0:0|0:0,0:0:0:0:
249,267,56475,1,2,0:0:0:0:
249,267,56593,1,2,0:0:0:0:
325,217,56711,6,0,P|371:195|448:230,1,105.000004005432,4|0,0:0|0:0,0:0:0:0:
230,311,56948,2,0,P|194:275|109:281,1,105.000004005432,4|0,0:0|0:0,0:0:0:0:
349,372,57184,2,0,P|334:295|325:217,1,157.500006008148,10|0,0:0|0:0,0:0:0:0:
297,182,57420,2,0,P|307:118|311:59,1,105.000004005432,8|0,0:3|0:0,0:0:0:0:
107,64,57656,6,0,P|46:49|-1:39,1,105.000004005432,4|0,0:0|0:0,0:0:0:0:
110,224,57893,2,0,P|171:209|218:199,1,105.000004005432,4|0,0:0|0:0,0:0:0:0:
451,209,58129,1,8,0:0:0:0:
385,140,58247,1,0,0:0:0:0:
447,69,58365,6,0,P|440:126|435:183,1,105.000004005432,8|4,0:3|0:3,0:0:0:0:
453,348,58601,1,4,0:0:0:0:
446,360,58838,6,0,P|367:292|284:318,1,157.500006008148,2|0,0:0|0:0,0:0:0:0:
289,326,59074,2,0,P|209:313|161:308,1,105.000004005432,10|0,0:0|0:0,0:0:0:0:
14,208,59310,2,0,P|134:212|197:100,1,210.000008010865,4|0,0:0|0:0,0:0:0:0:
307,93,59664,1,0,0:0:0:0:
305,234,59782,2,0,P|365:219|444:208,1,105.000004005432,4|0,0:0|0:0,0:0:0:0:
82,114,60019,6,0,L|118:353,1,210.000008010865,12|0,0:0|0:0,0:0:0:0:
418,104,60373,1,0,0:0:0:0:
431,90,60491,6,0,L|395:329,1,210.000008010865,14|0,0:0|0:0,0:0:0:0:
82,114,60845,1,0,0:0:0:0:
62,97,60964,6,0,L|98:336,1,210.000008010865,14|0,0:0|0:0,0:0:0:0:
225,19,61318,1,0,0:0:0:0:
341,63,61436,6,0,P|409:56|443:20,1,105.000004005432,6|0,0:0|0:0,0:0:0:0:
243,123,61672,2,0,L|225:15,1,105.000004005432,4|0,0:0|0:0,0:0:0:0:
339,178,61908,2,0,L|321:281,1,105.000004005432,8|0,0:0|0:0,0:0:0:0:
121,347,62145,1,4,0:3:0:0:
129,367,62263,1,8,0:3:0:0:
189,278,62381,6,0,P|93:250|26:324,1,210.000008010865,4|2,0:0|0:3,0:0:0:0:
121,347,62735,1,0,0:0:0:0:
159,147,62853,1,6,0:0:0:0:
148,128,63089,6,0,B|195:89|186:10|186:10|202:53|262:64,1,210.000008010865,4|0,0:0|0:0,0:0:0:0:
268,72,63562,6,0,L|50:53,1,210.000008010865,4|8,0:0|0:0,0:0:0:0:
40,268,63916,1,0,0:0:0:0:
128,236,64034,2,0,P|137:183|115:133,1,105.000004005432,2|2,0:0|0:0,0:0:0:0:
293,52,64271,6,0,L|269:167,1,105.000004005432,4|0,0:0|0:0,0:0:0:0:
412,330,64507,2,0,P|426:283|366:299,1,105.000004005432,4|0,0:0|0:0,0:0:0:0:
151,351,64743,2,0,P|229:341|322:328,1,157.500006008148,8|0,0:0|0:0,0:0:0:0:
264,314,64979,2,0,L|284:194,1,105.000004005432,8|0,0:3|0:0,0:0:0:0:
169,117,65215,6,0,L|149:-3,1,105.000004005432,4|0,0:0|0:0,0:0:0:0:
389,177,65452,2,0,L|409:57,1,105.000004005432,4|0,0:0|0:0,0:0:0:0:
140,248,65688,2,0,P|88:230|38:212,1,105.000004005432,8|0,0:0|0:0,0:0:0:0:
276,357,65924,1,4,0:3:0:0:
318,272,66042,1,8,0:3:0:0:
404,309,66160,6,0,P|297:328|186:346,1,210.000008010865,4|2,0:0|0:3,0:0:0:0:
96,362,66515,1,0,0:0:0:0:
289,221,66633,1,8,0:0:0:0:
306,204,66869,6,0,P|311:146|158:149,1,210.000008010865,6|0,0:0|0:0,0:0:0:0:
162,89,67341,6,0,P|223:75|271:44,1,105.000004005432,6|0,0:0|0:0,0:0:0:0:
507,265,67578,1,8,0:0:0:0:
478,176,67696,1,0,1:0:0:0:
404,120,67814,1,14,0:0:0:0:
311,118,67932,1,0,1:3:0:0:
234,170,68050,6,0,P|245:229|256:289,1,105.000004005432,12|0,0:0|0:0,0:0:0:0:
39,146,68286,1,4,0:3:0:0:
56,51,68404,1,4,0:3:0:0:
150,70,68523,6,0,P|135:129|121:189,1,105.000004005432,14|0,0:0|0:0,0:0:0:0:
367,341,68759,1,8,0:0:0:0:
348,248,68877,1,4,0:3:0:0:
330,155,68995,6,0,P|375:138|438:156,1,105.000004005432,6|0,0:0|0:0,0:0:0:0:
248,264,69231,2,0,P|198:276|149:260,1,105.000004005432,4|0,0:0|0:0,0:0:0:0:
256,67,69467,2,0,L|233:169,1,105.000004005432,8|0,0:0|0:0,0:0:0:0:
46,316,69704,1,4,0:3:0:0:
40,296,69822,1,8,0:3:0:0:
53,202,69940,6,0,P|118:241|96:373,1,210.000008010865,4|2,0:0|0:3,0:0:0:0:
40,296,70294,1,0,0:0:0:0:
251,225,70412,1,10,0:0:0:0:
269,219,70649,6,0,L|302:6,1,210.000008010865,4|0,0:0|0:0,0:0:0:0:
319,37,71121,6,0,P|268:15|209:22,1,105.000004005432,4|0,0:0|0:0,0:0:0:0:
77,135,71357,2,0,P|128:137|176:116,1,105.000004005432,8|0,0:0|0:0,0:0:0:0:
476,177,71593,1,10,0:3:0:0:
490,186,71830,6,0,L|355:210,1,105.000004005432,4|0,0:0|0:0,0:0:0:0:
245,353,72066,2,0,P|307:340|342:292,1,105.000004005432,4|0,0:0|0:0,0:0:0:0:
279,102,72302,2,0,P|268:180|256:258,1,157.500006008148,10|0,0:0|0:0,0:0:0:0:
234,219,72538,2,0,L|123:237,1,105.000004005432,10|0,0:3|0:0,0:0:0:0:
364,159,72775,6,0,L|475:177,1,105.000004005432,4|0,0:0|0:0,0:0:0:0:
155,80,73011,2,0,L|44:98,1,105.000004005432,4|0,0:0|0:0,0:0:0:0:
381,19,73247,2,0,L|492:37,1,105.000004005432,8|0,0:0|0:0,0:0:0:0:
228,280,73483,1,2,0:0:0:0:
180,198,73601,1,2,0:0:0:0:
106,256,73719,6,0,P|185:244|310:231,1,157.500006008148,4|0,0:0|0:0,0:0:0:0:
305,255,73956,2,0,P|296:201|288:136,1,105.000004005432,8|0,0:3|0:0,0:0:0:0:
396,345,74192,2,0,L|505:369,1,105.000004005432,8|0,0:0|0:0,0:0:0:0:
384,122,74428,6,0,P|309:53|191:147,1,210.000008010865,4|0,0:0|0:0,0:0:0:0:
180,198,74782,1,0,0:0:0:0:
305,255,74901,2,0,P|296:201|288:136,1,105.000004005432,4|0,0:0|0:0,0:0:0:0:
78,33,75137,6,0,P|65:139|47:269,1,210.000008010865,12|8,0:0|0:3,0:0:0:0:
393,98,75491,1,4,0:3:0:0:
412,84,75609,6,0,P|424:190|443:320,1,210.000008010865,12|2,0:0|0:3,0:0:0:0:
116,368,75964,1,8,0:3:0:0:
100,356,76082,5,12,0:0:0:0:
123,250,76200,1,0,0:0:0:0:
209,188,76318,1,2,0:3:0:0:
316,198,76436,1,8,0:3:0:0:
389,274,76554,1,4,0:0:0:0:
