osu file format v14

[General]
AudioFilename: Shibayan feat. 3L - MyonMyonMyonMyonMyonMyon!.mp3
AudioLeadIn: 0
PreviewTime: 46295
Countdown: 0
SampleSet: None
StackLeniency: 0.7
Mode: 0
LetterboxInBreaks: 1
EpilepsyWarning: 1
WidescreenStoryboard: 1

[Editor]
Bookmarks: 16059,46295,76531
DistanceSpacing: 1
BeatDivisor: 4
GridSize: 8
TimelineZoom: 2

[Metadata]
Title:MyonMyonMyonMyonMyonMyon!
TitleUnicode:MyonMyonMyonMyonMyonMyon!
Artist:3L
ArtistUnicode:3L
Creator:Len
Version:K i A i's Extra
Source:東方Project
Tags:ムソウマテリアライズ 11t Fast project_railgun K_i_A_i touhou Chaoslitz 東方妖々夢 ~ Ancient Temple やまざきさやか Shibayan ShibayanRecords
BeatmapID:920986
BeatmapSetID:426542

[Difficulty]
HPDrainRate:5
CircleSize:4
OverallDifficulty:7
ApproachRate:9
SliderMultiplier:1.9
SliderTickRate:2

[Events]
//Background and Video events
0,0,"pink.jpg",0,0
//Break Periods
//Storyboard Layer 0 (Background)
//Storyboard Layer 1 (Fail)
//Storyboard Layer 2 (Pass)
//Storyboard Layer 3 (Foreground)
//Storyboard Sound Samples

[TimingPoints]
964,472.44094488189,4,3,10,100,1,0
19152,-100,4,2,10,100,0,0
19271,-100,4,3,10,100,0,0
26712,-100,4,2,10,100,0,0
26830,-100,4,3,10,100,0,0
45845,-66.6666666666667,4,3,10,100,0,0
46318,-50,4,3,11,100,0,1
49861,-50,4,2,11,100,0,1
49979,-50,4,3,11,100,0,1
57420,-50,4,2,11,100,0,1
57538,-50,4,3,11,100,0,1
61377,-50,4,3,11,100,0,0
61436,-50,4,3,11,100,0,1
64979,-50,4,2,11,100,0,1
65097,-50,4,3,11,100,0,1
72538,-50,4,1,11,100,0,1
72656,-50,4,3,11,100,0,1
76495,-50,4,3,11,100,0,0
76554,-50,4,3,11,100,0,1
76613,-50,4,3,11,100,0,0

[Colours]
Combo1 : 216,114,137
Combo2 : 200,200,200
Combo3 : 30,160,70

[HitObjects]
40,200,16082,6,0,L|136:208,1,95,6|2,0:0|0:0,0:0:0:0:
304,312,16554,2,0,L|208:320,2,95,8|0|2,0:0|0:0|0:0,0:0:0:0:
328,320,17499,1,8,0:0:0:0:
328,320,17735,2,0,P|320:272|328:224,1,95,2|0,0:0|0:0,0:0:0:0:
480,288,18208,2,0,P|488:336|480:384,2,95,2|8|0,0:0|0:0|0:0,0:0:0:0:
512,192,18916,2,0,P|424:192|368:112,1,190,2|8,0:0|0:0,0:0:0:0:
368,114,19861,6,0,P|368:162|344:202,1,95,2|2,0:0|0:0,0:0:0:0:
280,136,20334,2,0,P|280:88|304:48,1,95,8|0,0:0|0:0,0:0:0:0:
456,96,20806,2,0,P|456:192|408:272,1,190,2|8,0:0|0:0,0:0:0:0:
336,336,21515,2,0,L|200:320,1,95,2|0,0:0|0:0,0:0:0:0:
56,152,21987,2,0,L|192:168,1,95,2|8,0:0|0:0,0:0:0:0:
296,248,22460,1,0,0:0:0:0:
296,248,22696,2,0,B|224:240|224:240|184:248|184:248|104:240,1,190,2|10,0:0|0:0,0:0:0:0:
88,224,23641,6,0,P|96:272|88:320,1,95,2|2,0:0|0:0,0:0:0:0:
40,136,24113,2,0,P|88:128|136:136,1,95,8|0,0:0|0:0,0:0:0:0:
216,184,24586,2,0,P|304:184|352:104,1,190,2|8,0:0|0:0,0:0:0:0:
256,96,25294,2,0,L|352:272,1,190,2|2,0:0|0:0,0:0:0:0:
416,336,26003,2,0,P|440:296|440:248,1,95,8|0,0:0|0:0,0:0:0:0:
504,176,26475,2,0,B|440:104|440:104|448:8,1,190,2|8,0:0|0:0,0:0:0:0:
352,40,27184,5,0,0:0:0:0:
352,40,27420,2,0,L|344:136,1,95,2|2,0:0|0:0,0:0:0:0:
256,328,27893,2,0,L|264:232,1,95,8|0,0:0|0:0,0:0:0:0:
176,0,28365,2,0,L|160:184,1,142.5,2|0,0:0|0:0,0:0:0:0:
163,141,28838,1,8,0:0:0:0:
104,256,29074,2,0,P|160:184|256:184,1,190,2|2,0:0|0:0,0:0:0:0:
120,352,29782,2,0,P|72:352|32:328,1,95,8|0,0:0|0:0,0:0:0:0:
192,288,30255,2,0,P|216:328|216:376,1,95,2|0,0:0|0:0,0:0:0:0:
104,256,30727,2,0,L|112:160,1,95,10|0,0:0|2:0,0:0:0:0:
80,349,31200,5,6,0:0:0:0:
168,328,31436,2,0,L|264:320,1,95,2|8,0:0|0:0,0:0:0:0:
336,256,31908,1,0,0:0:0:0:
336,256,32145,2,0,P|432:256|480:328,1,190,2|8,0:0|0:0,0:0:0:0:
248,304,32853,2,0,P|248:208|320:160,1,190,2|2,0:0|0:0,0:0:0:0:
336,360,33562,1,8,0:0:0:0:
248,304,33798,1,0,0:0:0:0:
248,200,34034,2,0,L|256:104,1,95,2|2,0:0|0:0,0:0:0:0:
255,105,34507,2,0,P|191:105|127:57,1,142.5,8|0,0:0|0:0,0:0:0:0:
112,40,34979,6,0,B|120:88|120:88|112:136,1,95,2|2,0:0|0:0,0:0:0:0:
1,208,35452,2,0,B|-7:160|-7:160|1:112,1,95,8|0,0:0|0:0,0:0:0:0:
136,64,35924,2,0,B|144:112|144:112|136:160,1,95,2|0,0:0|0:0,0:0:0:0:
24,232,36397,2,0,B|16:184|16:184|24:136,2,95,8|2|0,0:0|0:0|0:0,0:0:0:0:
88,304,37105,2,0,L|184:296,1,95,2|8,0:0|0:0,0:0:0:0:
424,328,37578,1,0,0:0:0:0:
424,328,37814,2,0,L|240:344,1,142.5,2|0,0:0|0:0,0:0:0:0:
264,320,38286,1,10,0:0:0:0:
440,352,38523,1,0,0:0:0:0:
376,104,38759,6,0,P|384:152|376:200,1,95,2|2,0:0|0:0,0:0:0:0:
248,296,39231,2,0,P|240:248|248:200,1,95,8|0,0:0|0:0,0:0:0:0:
352,112,39704,2,0,P|264:112|216:32,1,190,2|8,0:0|0:0,0:0:0:0:
312,24,40412,2,0,B|360:16|360:16|408:24,1,95,2|0,0:0|0:0,0:0:0:0:
512,176,40885,2,0,B|464:184|464:184|416:176,1,95,2|8,0:0|0:0,0:0:0:0:
328,120,41357,1,0,0:0:0:0:
328,120,41593,2,0,L|336:216,1,95,2|2,0:0|0:0,0:0:0:0:
240,384,42066,2,0,L|232:288,1,95,8|0,0:0|2:0,0:0:0:0:
120,160,42538,5,6,0:0:0:0:
0,280,42775,1,2,1:2:0:0:
24,272,42893,1,2,0:2:0:0:
48,264,43011,1,8,0:0:0:0:
272,216,43247,1,2,0:2:0:0:
248,208,43365,1,2,0:2:0:0:
224,200,43483,1,8,1:2:0:0:
0,144,43719,5,8,0:2:0:0:
24,136,43838,1,8,0:2:0:0:
48,128,43956,1,8,0:0:0:0:
272,80,44192,1,8,1:2:0:0:
248,72,44310,1,8,0:2:0:0:
224,64,44428,1,4,0:2:0:0:
0,144,44664,5,2,1:2:0:0:
24,136,44782,1,2,0:2:0:0:
48,128,44901,1,8,0:0:0:0:
72,120,45019,1,8,0:0:0:0:
96,112,45137,1,8,1:2:0:0:
120,104,45255,1,4,0:2:0:0:
144,96,45373,6,0,L|136:144,1,47.5,4|4,1:2|0:2,0:0:0:0:
232,216,45609,2,0,L|240:168,1,47.5,4|4,2:2|0:2,0:0:0:0:
320,32,45845,2,0,L|312:64,11,23.7500009059906,10|8|8|8|8|8|8|8|8|8|8|8,0:0|0:0|0:0|0:0|0:0|0:0|0:0|0:0|0:0|0:0|0:0|0:0,0:0:0:0:
304,88,46318,6,0,L|400:80,1,95,12|0,0:1|0:0,0:0:0:0:
512,200,46554,2,0,B|416:192,1,95,10|2,0:0|0:0,0:0:0:0:
344,256,46790,2,0,B|336:304|336:304|344:352,1,95,4|0,0:0|0:0,0:0:0:0:
496,216,47027,2,0,B|504:168|504:168|496:120,1,95,2|2,0:0|0:0,0:0:0:0:
392,160,47263,6,0,P|304:160|248:240,1,190,8|2,0:0|0:0,0:0:0:0:
344,256,47617,1,2,0:0:0:0:
280,328,47735,2,0,L|184:320,1,95,4|0,0:0|0:0,0:0:0:0:
8,352,47971,2,0,L|104:360,1,95,10|2,0:0|0:0,0:0:0:0:
248,240,48208,6,0,B|176:232|176:232|136:240|136:240|56:232,1,190,0|10,0:0|0:0,0:0:0:0:
0,112,48562,1,2,0:0:0:0:
0,112,48680,2,0,B|72:120|72:120|112:112|112:112|192:120,1,190,4|2,0:0|0:0,0:0:0:0:
272,168,49034,1,2,0:0:0:0:
336,96,49153,6,0,P|328:48|336:0,1,95,8|0,0:0|0:0,0:0:0:0:
472,64,49389,2,0,P|480:112|472:160,1,95,10|2,0:0|0:0,0:0:0:0:
312,128,49625,2,0,B|296:80|312:36|312:36|292:112|208:144|132:92,1,285,4|2,0:0|0:0,0:0:0:0:
128,24,50097,6,0,L|136:120,1,95,8|0,0:0|0:0,0:0:0:0:
72,288,50334,2,0,L|64:192,1,95,10|2,0:0|0:0,0:0:0:0:
16,376,50570,2,0,P|80:304|168:304,1,190,4|2,0:0|0:0,0:0:0:0:
413,299,50924,5,2,0:0:0:0:
413,299,51042,2,0,P|349:371|261:371,1,190,8|2,0:0|0:0,0:0:0:0:
176,320,51397,1,2,0:0:0:0:
232,240,51515,2,0,P|240:176|232:96,1,142.5,4|0,0:0|0:0,0:0:0:0:
208,56,51751,2,0,P|256:72|304:72,1,95,10|2,0:0|0:0,0:0:0:0:
472,32,51987,6,0,P|424:16|376:16,1,95,2|0,0:0|0:0,0:0:0:0:
320,88,52223,2,0,P|368:168|456:168,1,190,10|4,0:0|0:0,0:0:0:0:
472,151,52696,5,2,0:0:0:0:
472,151,52814,1,2,0:0:0:0:
472,151,52932,2,0,L|464:247,1,95,12|2,0:1|0:2,0:0:0:0:
512,328,53168,1,8,2:0:0:0:
512,328,53286,1,4,0:2:0:0:
336,72,53405,6,0,L|344:168,1,95,12|2,0:1|0:2,0:0:0:0:
296,248,53641,1,8,0:2:0:0:
296,248,53759,1,4,0:2:0:0:
208,32,53877,6,0,P|160:24|112:32,1,95,12|0,0:1|0:0,0:0:0:0:
0,192,54113,2,0,P|48:200|96:192,1,95,10|2,0:0|0:0,0:0:0:0:
168,128,54349,6,0,P|264:128|312:200,1,190,4|2,0:0|0:0,0:0:0:0:
216,216,54704,1,2,0:0:0:0:
264,304,54822,2,0,P|168:304|120:232,1,190,8|2,0:0|0:0,0:0:0:0:
216,216,55176,1,2,0:0:0:0:
216,216,55294,2,0,L|360:288,1,142.5,4|0,0:0|0:0,0:0:0:0:
384,304,55530,6,0,P|376:256|384:208,1,95,10|2,0:0|0:0,0:0:0:0:
496,24,55767,2,0,P|508:88|496:168,1,142.5,2|0,0:0|0:0,0:0:0:0:
464,200,56003,2,0,L|368:192,1,95,10|2,0:0|0:0,0:0:0:0:
224,112,56239,2,0,B|320:120|320:120|392:56,1,190,4|2,0:0|0:0,0:0:0:0:
288,32,56593,5,2,0:0:0:0:
288,32,56712,2,0,L|192:24,1,95,8|0,0:0|0:0,0:0:0:0:
48,128,56948,2,0,L|144:136,1,95,10|2,0:0|0:0,0:0:0:0:
400,200,57184,2,0,B|308:192|308:192|344:200|384:240|400:288|376:352,1,285,4|2,0:0|0:0,0:0:0:0:
288,288,57656,6,0,P|240:288|200:312,1,95,8|0,0:0|0:0,0:0:0:0:
104,296,57893,2,0,P|104:344|128:384,1,95,10|2,0:0|0:0,0:0:0:0:
200,312,58129,2,0,P|200:264|176:224,1,95,4|0,0:0|0:0,0:0:0:0:
0,176,58365,5,2,0:0:0:0:
0,176,58483,1,2,0:0:0:0:
0,176,58601,2,0,B|8:80|8:80|80:16,1,190,8|2,0:0|0:0,0:0:0:0:
168,56,58956,1,2,0:0:0:0:
168,56,59074,2,0,L|96:120,1,95,4|0,0:0|0:0,0:0:0:0:
32,280,59310,2,0,L|104:216,1,95,10|2,0:0|0:0,0:0:0:0:
264,192,59546,6,0,B|208:240|208:240|200:272|200:272|128:336,2,190,0|10|4,0:0|0:0|0:0,0:0:0:0:
360,216,60137,2,0,P|360:168|336:128,2,95,0|2|2,0:0|0:0|0:0,0:0:0:0:
296,288,60491,5,12,0:1:0:0:
392,312,60609,2,0,L|488:304,2,95,2|8|4,0:2|0:2|0:2,0:0:0:0:
216,352,60964,5,12,0:1:0:0:
120,328,61082,2,0,L|24:336,2,95,2|8|4,0:2|2:0|0:2,0:0:0:0:
184,256,61436,6,0,P|192:208|184:160,1,95,12|0,0:1|0:0,0:0:0:0:
72,8,61672,2,0,P|64:56|72:104,1,95,10|2,0:0|0:0,0:0:0:0:
160,144,61908,2,0,L|256:136,1,95,4|0,0:0|0:0,0:0:0:0:
432,80,62145,2,0,L|336:72,1,95,2|2,0:0|0:0,0:0:0:0:
128,248,62381,6,0,L|320:232,1,190,8|2,0:0|0:0,0:0:0:0:
408,272,62735,1,2,0:0:0:0:
496,232,62853,2,0,P|456:176|384:176,1,142.5,4|0,0:0|0:0,0:0:0:0:
344,200,63090,6,0,P|368:160|368:112,1,95,10|2,0:0|0:0,0:0:0:0:
248,0,63326,2,0,P|224:40|224:88,1,95,2|0,0:0|0:0,0:0:0:0:
256,176,63562,2,0,B|128:152|192:200|64:176,2,190,10|4|2,0:0|0:0|0:0,0:0:0:0:
320,248,64153,1,2,0:0:0:0:
352,160,64271,6,0,L|448:152,1,95,8|0,0:0|0:0,0:0:0:0:
264,248,64507,2,0,L|360:256,1,95,10|2,0:0|0:0,0:0:0:0:
160,320,64743,2,0,B|252:344|252:344|184:336|136:256|176:192,1,285,4|2,0:0|0:0,0:0:0:0:
152,112,65216,6,0,P|200:112|240:136,1,95,8|0,0:0|0:0,0:0:0:0:
80,176,65452,2,0,P|56:136|56:88,1,95,10|2,0:0|0:0,0:0:0:0:
170,202,65688,2,0,L|162:298,1,95,4|0,0:0|0:0,0:0:0:0:
280,384,65924,2,0,L|272:288,1,95,2|2,0:0|0:0,0:0:0:0:
152,184,66160,6,0,B|144:280|144:280|64:328,1,190,8|2,0:0|0:0,0:0:0:0:
0,192,66515,1,2,0:0:0:0:
0,192,66633,2,0,B|8:96|8:96|88:48,1,190,4|10,0:0|0:0,0:0:0:0:
176,88,66987,1,2,0:0:0:0:
248,16,67105,6,0,P|272:56|272:104,1,95,2|0,0:0|0:0,0:0:0:0:
200,176,67342,2,0,P|176:136|176:88,1,95,10|2,0:0|0:0,0:0:0:0:
296,184,67578,2,0,P|248:264|160:264,1,190,4|10,0:0|0:0,0:0:0:0:
200,176,67932,1,2,0:0:0:0:
136,248,68050,6,0,L|144:344,1,95,12|2,0:1|0:2,0:0:0:0:
56,184,68286,1,8,0:2:0:0:
56,184,68405,1,4,0:2:0:0:
288,104,68523,6,0,L|280:200,1,95,12|2,0:1|0:2,0:0:0:0:
368,40,68759,1,8,0:2:0:0:
368,40,68877,1,4,0:2:0:0:
416,160,68995,6,0,L|512:152,1,95,12|0,0:1|0:0,0:0:0:0:
384,280,69231,2,0,L|288:288,1,95,10|2,0:0|0:0,0:0:0:0:
392,184,69467,2,0,P|464:232|464:328,1,190,4|2,0:0|0:0,0:0:0:0:
304,208,69822,5,2,0:0:0:0:
304,208,69940,2,0,P|304:160|328:120,1,95,8|0,0:0|0:0,0:0:0:0:
392,184,70176,2,0,P|440:184|480:208,1,95,2|2,0:0|0:0,0:0:0:0:
416,272,70412,2,0,B|352:264|352:264|304:288|304:288|232:280,1,190,4|10,0:0|0:0,0:0:0:0:
192,192,70767,5,2,0:0:0:0:
192,192,70885,2,0,L|200:288,1,95,2|0,0:0|0:0,0:0:0:0:
120,344,71121,2,0,L|112:248,1,95,10|2,0:0|0:0,0:0:0:0:
272,136,71357,2,0,L|288:328,1,190,4|0,0:0|2:3,0:0:0:0:
376,368,71712,1,0,0:0:0:0:
416,280,71830,6,0,P|408:232|416:184,1,95,8|0,0:0|0:0,0:0:0:0:
512,112,72066,2,0,P|520:160|512:208,1,95,10|2,0:0|0:0,0:0:0:0:
456,368,72302,2,0,B|416:392|360:384|320:360|320:288|320:288|328:336|288:384,1,285,4|0,0:0|0:0,0:0:0:0:
232,304,72775,6,0,P|232:256|264:216,1,95,8|0,0:0|0:0,0:0:0:0:
240,128,73011,2,0,P|288:128|328:160,1,95,10|2,0:0|0:0,0:0:0:0:
352,248,73247,2,0,L|448:240,2,95,4|0|2,0:0|0:0|0:0,0:0:0:0:
312,336,73601,5,2,0:0:0:0:
312,336,73719,2,0,B|128:352,1,142.5,8|0,0:0|0:0,0:0:0:0:
128,376,73956,2,0,L|136:280,1,95,2|0,2:3|0:0,0:0:0:0:
72,208,74192,2,0,L|80:112,1,95,4|0,0:0|0:0,0:0:0:0:
32,32,74428,6,0,P|96:104|184:104,2,190,10|0|10,0:0|0:0|2:3,0:0:0:0:
480,104,75137,2,0,P|416:32|328:32,2,190,4|2|12,0:0|0:0|0:1,0:0:0:0:
416,200,75727,6,0,L|512:192,2,95,2|8|4,0:2|0:2|0:2,0:0:0:0:
256,160,76082,5,12,0:1:0:0:
162,165,76200,2,0,L|66:173,2,95,2|8|4,0:2|0:2|0:2,0:0:0:0:
359,60,76554,5,12,0:1:0:0:
