osu file format v14

[General]
AudioFilename: Shibayan feat. 3L - MyonMyonMyonMyonMyonMyon!.mp3
AudioLeadIn: 0
PreviewTime: 46295
Countdown: 0
SampleSet: Soft
StackLeniency: 0.4
Mode: 0
LetterboxInBreaks: 1
EpilepsyWarning: 1
WidescreenStoryboard: 1

[Editor]
Bookmarks: 16059,23618,31177,38736,46295,52909,53854,60468,61413,68027,68972,75586,76531
DistanceSpacing: 1.1
BeatDivisor: 4
GridSize: 32
TimelineZoom: 1.9

[Metadata]
Title:MyonMyonMyonMyonMyonMyon!
TitleUnicode:MyonMyonMyonMyonMyonMyon!
Artist:3L
ArtistUnicode:3L
Creator:Len
Version:Insane
Source:東方Project
Tags:ムソウマテリアライズ 11t Fast project_railgun K_i_A_i touhou Chaoslitz 東方妖々夢 ~ Ancient Temple やまざきさやか Shibayan ShibayanRecords
BeatmapID:921911
BeatmapSetID:426542

[Difficulty]
HPDrainRate:5
CircleSize:3.8
OverallDifficulty:7
ApproachRate:8.3
SliderMultiplier:1.99
SliderTickRate:2

[Events]
//Background and Video events
0,0,"pink.jpg",0,0
//Break Periods
//Storyboard Layer 0 (Background)
//Storyboard Layer 1 (Fail)
//Storyboard Layer 2 (Pass)
//Storyboard Layer 3 (Foreground)
//Storyboard Sound Samples

[TimingPoints]
964,472.44094488189,4,2,1,60,1,0
16082,-100,4,2,1,60,0,0
19271,-100,4,2,1,25,0,0
19389,-100,4,2,1,60,0,0
38168,-100,4,2,1,25,0,0
38286,-100,4,2,1,60,0,0
44546,-100,4,2,1,25,0,0
44664,-100,4,2,1,60,0,0
46318,-100,4,2,2,70,0,1
46436,-100,4,2,1,70,0,1
51751,-100,4,2,2,70,0,1
52460,-100,4,2,1,70,0,1
61318,-100,4,2,1,70,0,0
61436,-100,4,2,2,70,0,1
61554,-100,4,2,1,70,0,1
66869,-100,4,2,2,70,0,1
67578,-100,4,2,1,70,0,1
76554,-100,4,2,1,70,0,0

[Colours]
Combo1 : 216,114,137
Combo2 : 200,200,200
Combo3 : 30,160,70

[HitObjects]
146,60,16082,6,0,L|130:158,1,99.5,0|2,0:0|0:0,0:0:0:0:
194,334,16554,1,8,0:0:0:0:
194,334,16790,1,4,0:3:0:0:
410,251,17026,2,0,P|363:210|233:258,1,199,6|10,0:0|0:0,0:0:0:0:
0,164,17735,6,0,P|47:205|177:157,1,199,6|4,0:0|0:0,0:0:0:0:
267,124,18444,2,0,L|249:23,1,99.5,8|2,0:0|0:0,0:0:0:0:
356,191,18916,2,0,L|331:373,1,149.25,4|0,0:0|0:0,0:0:0:0:
335,338,19389,2,0,P|394:325|444:318,1,99.5,8|4,0:0|0:3,0:0:0:0:
231,285,19861,6,0,L|101:262,1,99.5,4|4,0:0|0:0,0:0:0:0:
25,244,20334,1,8,0:0:0:0:
25,244,20570,1,0,0:0:0:0:
186,165,20806,2,0,L|149:370,1,199,6|8,0:0|0:0,0:0:0:0:
378,267,21515,6,0,L|281:285,1,99.5,4|0,0:0|0:0,0:0:0:0:
79,190,21987,1,4,0:0:0:0:
186,165,22223,1,8,0:0:0:0:
108,86,22460,1,2,0:0:0:0:
151,271,22696,2,0,P|218:284|333:286,1,149.25,4|2,0:0|0:0,0:0:0:0:
298,288,23168,2,0,P|279:319|278:401,1,99.5,12|0,0:0|0:0,0:0:0:0:
415,238,23641,6,0,P|412:188|388:145,1,99.5,6|2,0:0|0:0,0:0:0:0:
240,57,24113,2,0,L|364:46,1,99.5,10|2,0:0|0:0,0:0:0:0:
221,184,24586,2,0,P|168:148|23:130,1,199,6|10,0:0|0:0,0:0:0:0:
179,317,25294,6,0,P|232:281|377:263,1,199,6|4,0:0|0:0,0:0:0:0:
469,288,26003,1,8,0:0:0:0:
469,288,26239,1,0,0:0:0:0:
422,82,26475,2,0,L|445:196,1,99.5,6|4,0:0|0:0,0:0:0:0:
306,26,26948,2,0,L|282:140,1,99.5,8|4,0:0|0:3,0:0:0:0:
120,258,27420,5,4,0:0:0:0:
89,153,27656,1,4,0:0:0:0:
214,258,27893,1,8,0:0:0:0:
32,337,28129,1,0,0:0:0:0:
191,167,28365,2,0,P|178:263|171:371,1,199,6|8,0:0|0:0,0:0:0:0:
95,148,29074,6,0,P|137:81|259:96,1,199,4|4,0:0|0:0,0:0:0:0:
370,212,29782,2,0,P|320:200|270:192,1,99.5,12|0,0:0|0:0,0:0:0:0:
155,339,30255,2,0,P|205:327|255:319,1,99.5,4|4,0:0|0:3,0:0:0:0:
427,272,30727,2,0,P|421:324|416:373,1,99.5,12|0,0:0|0:0,0:0:0:0:
411,128,31199,5,4,0:0:0:0:
272,177,31436,2,0,P|283:96|291:50,1,99.5,0|8,0:0|0:0,0:0:0:0:
323,264,31908,1,0,0:0:0:0:
154,345,32145,2,0,B|209:320|209:320|348:353,1,199,6|8,0:0|0:0,0:0:0:0:
455,230,32853,6,0,P|466:165|351:102,1,199,6|4,0:0|0:0,0:0:0:0:
270,150,33562,1,10,0:0:0:0:
270,150,33798,1,2,0:0:0:0:
110,42,34034,2,0,L|233:71,1,99.5,4|4,0:0|0:0,0:0:0:0:
97,170,34507,2,0,L|-26:199,1,99.5,8|4,0:0|0:3,0:0:0:0:
216,257,34979,5,4,0:0:0:0:
92,357,35215,2,0,L|114:258,1,99.5,4|8,0:0|0:0,0:0:0:0:
209,127,35688,1,0,0:0:0:0:
246,283,35924,2,0,P|299:301|383:191,1,199,4|8,0:0|0:0,0:0:0:0:
349,104,36633,1,4,0:0:0:0:
490,203,36869,6,0,L|510:95,1,99.5,0|4,0:0|0:0,0:0:0:0:
330,6,37341,2,0,L|349:104,1,99.5,8|4,0:0|0:0,0:0:0:0:
310,294,37814,2,0,P|271:249|153:240,1,149.25,4|0,0:0|0:0,0:0:0:0:
186,229,38286,2,0,P|196:177|196:121,1,99.5,8|0,0:0|0:0,0:0:0:0:
33,213,38759,5,4,0:0:0:0:
97,319,38995,1,4,0:0:0:0:
196,131,39231,1,8,0:0:0:0:
83,31,39467,1,4,0:3:0:0:
132,204,39704,2,0,P|194:228|294:137,1,199,4|8,0:0|0:0,0:0:0:0:
364,10,40412,6,0,P|380:108|400:219,1,199,4|4,0:0|0:0,0:0:0:0:
280,337,41121,2,0,P|293:279|304:216,1,99.5,8|8,0:0|0:3,0:0:0:0:
476,130,41593,1,4,0:0:0:0:
285,84,41830,1,4,0:0:0:0:
397,206,42066,1,8,0:0:0:0:
441,37,42302,1,4,0:3:0:0:
463,284,42538,6,0,P|370:304|300:239,1,199,4|8,0:0|0:0,0:0:0:0:
285,84,43247,1,6,0:3:0:0:
397,206,43483,2,0,P|409:148|423:98,1,99.5,4|0,0:0|0:0,0:0:0:0:
285,84,43956,1,8,0:0:0:0:
134,206,44192,6,0,L|312:183,1,149.25,4|0,0:0|0:0,0:0:0:0:
282,186,44664,2,0,P|273:267|268:300,1,99.5,14|14,0:0|0:0,0:0:0:0:
213,96,45137,1,2,0:0:0:0:
381,189,45373,1,14,0:0:0:0:
174,296,45609,1,10,0:3:0:0:
333,376,45845,1,14,0:0:0:0:
333,376,45964,1,0,0:0:0:0:
333,376,46082,1,0,0:0:0:0:
333,376,46200,1,0,0:0:0:0:
333,376,46318,6,0,P|321:328|305:263,1,99.5,6|4,0:0|0:0,0:0:0:0:
336,109,46790,1,14,0:0:0:0:
202,238,47026,1,8,0:3:0:0:
205,213,47144,1,4,0:3:0:0:
208,188,47262,1,4,0:0:0:0:
316,11,47499,2,0,L|336:109,1,99.5,2|10,0:3|0:0,0:0:0:0:
441,188,47971,6,0,P|385:152|284:240,1,199,4|4,0:0|0:0,0:0:0:0:
254,322,48680,1,8,0:0:0:0:
176,153,48916,1,2,0:0:0:0:
176,153,49034,1,2,0:0:0:0:
176,153,49152,1,6,0:0:0:0:
12,248,49389,1,4,0:0:0:0:
172,354,49625,2,0,P|164:302|151:238,1,99.5,10|8,0:0|0:3,0:0:0:0:
90,83,50097,6,0,P|80:131|73:181,1,99.5,4|4,0:0|0:0,0:0:0:0:
193,46,50570,1,8,0:0:0:0:
238,201,50806,1,4,0:3:0:0:
238,201,50924,1,8,0:3:0:0:
238,201,51042,1,4,0:0:0:0:
381,134,51278,1,0,0:0:0:0:
193,46,51515,1,8,0:0:0:0:
398,9,51751,6,0,P|391:99|381:225,1,199,6|6,0:0|0:0,0:0:0:0:
443,362,52460,1,8,0:0:0:0:
278,260,52696,1,2,0:0:0:0:
476,153,52932,5,4,0:0:0:0:
36,231,53404,1,12,0:0:0:0:
476,153,53877,6,0,P|466:212|456:275,1,99.5,4|4,0:0|0:0,0:0:0:0:
443,362,54349,1,8,0:0:0:0:
343,235,54586,1,4,0:3:0:0:
343,235,54704,1,8,0:3:0:0:
343,235,54822,1,4,0:0:0:0:
476,153,55058,1,2,0:3:0:0:
344,334,55294,1,10,0:0:0:0:
206,151,55530,6,0,P|298:132|353:209,1,199,4|4,0:0|0:0,0:0:0:0:
250,311,56239,2,0,L|273:197,1,99.5,8|2,0:0|0:0,0:0:0:0:
269,213,56593,1,2,0:0:0:0:
269,213,56712,1,4,0:0:0:0:
171,63,56948,1,4,0:0:0:0:
71,206,57184,2,0,P|133:181|187:163,1,99.5,10|8,0:0|0:3,0:0:0:0:
371,141,57656,6,0,P|324:124|278:105,1,99.5,4|4,0:0|0:0,0:0:0:0:
171,63,58129,1,8,0:0:0:0:
269,213,58365,1,8,0:3:0:0:
269,213,58483,1,4,0:3:0:0:
269,213,58601,1,4,0:0:0:0:
360,38,58838,1,2,0:0:0:0:
458,172,59074,1,10,0:0:0:0:
245,121,59310,6,0,P|183:173|216:290,1,199,4|4,0:0|0:0,0:0:0:0:
368,224,60019,2,0,P|319:215|269:213,1,99.5,4|0,0:0|0:0,0:0:0:0:
36,231,60491,5,6,0:0:0:0:
476,153,60963,1,14,0:0:0:0:
36,231,61436,6,0,P|26:173|14:113,1,99.5,6|4,0:0|0:0,0:0:0:0:
84,46,61908,1,8,0:0:0:0:
143,199,62145,1,4,0:3:0:0:
143,199,62263,1,8,0:3:0:0:
143,199,62381,1,4,0:0:0:0:
292,138,62617,2,0,P|282:186|274:235,1,99.5,2|6,0:3|0:0,0:0:0:0:
214,75,63089,6,0,P|277:38|384:106,1,199,4|4,0:0|0:0,0:0:0:0:
469,235,63798,2,0,P|418:223|354:208,1,99.5,8|2,0:0|0:0,0:0:0:0:
372,212,64152,1,2,0:0:0:0:
372,212,64271,1,4,0:0:0:0:
196,266,64507,1,4,0:0:0:0:
315,353,64743,2,0,P|306:303|297:255,1,99.5,8|8,0:0|0:3,0:0:0:0:
393,81,65215,6,0,P|383:129|375:178,1,99.5,4|4,0:0|0:0,0:0:0:0:
469,235,65688,1,8,0:0:0:0:
291,129,65924,1,4,0:3:0:0:
291,129,66042,1,8,0:3:0:0:
291,129,66160,1,4,0:0:0:0:
201,279,66397,1,2,0:3:0:0:
375,178,66633,1,8,0:0:0:0:
253,34,66869,6,0,P|190:123|231:207,1,199,6|6,0:0|0:0,0:0:0:0:
358,282,67578,2,0,P|301:301|252:323,1,99.5,8|6,0:0|0:0,0:0:0:0:
476,231,68050,5,4,0:0:0:0:
36,153,68522,1,14,0:0:0:0:
476,231,68995,6,0,P|465:179|449:121,1,99.5,6|4,0:0|0:0,0:0:0:0:
474,27,69467,1,8,0:0:0:0:
321,126,69704,1,4,0:3:0:0:
321,126,69822,1,8,0:3:0:0:
321,126,69940,1,4,0:0:0:0:
476,231,70176,1,2,0:3:0:0:
381,47,70412,1,10,0:0:0:0:
241,173,70649,6,0,P|286:213|408:152,1,199,4|4,0:0|0:0,0:0:0:0:
237,85,71357,1,8,0:0:0:0:
168,248,71593,1,12,0:3:0:0:
168,248,71712,1,0,0:0:0:0:
168,248,71830,1,4,0:0:0:0:
26,186,72066,2,0,P|81:171|141:156,1,99.5,4|10,0:0|0:0,0:0:0:0:
47,80,72538,1,10,0:3:0:0:
83,278,72775,6,0,L|67:378,1,99.5,4|4,0:0|0:0,0:0:0:0:
184,217,73247,1,8,0:0:0:0:
265,338,73483,1,2,0:0:0:0:
265,338,73601,1,2,0:0:0:0:
265,338,73719,1,4,0:0:0:0:
92,188,73956,1,8,0:3:0:0:
242,116,74192,1,8,0:0:0:0:
176,312,74428,6,0,P|271:284|368:262,1,199,4|4,0:0|0:0,0:0:0:0:
238,205,75137,2,0,P|182:193|129:181,1,99.5,12|8,0:0|0:3,0:0:0:0:
16,133,75609,6,0,L|26:182|36:231,1,99.5,12|2,0:0|0:3,0:0:0:0:
240,78,76082,1,12,0:0:0:0:
222,32,76200,1,0,0:0:0:0:
181,6,76318,1,2,0:3:0:0:
132,8,76436,1,8,0:3:0:0:
94,39,76554,1,4,0:0:0:0:
