osu file format v14

[General]
AudioFilename: Shibayan feat. 3L - MyonMyonMyonMyonMyonMyon!.mp3
AudioLeadIn: 0
PreviewTime: 46295
Countdown: 0
SampleSet: Soft
StackLeniency: 0.4
Mode: 0
LetterboxInBreaks: 1
EpilepsyWarning: 1
WidescreenStoryboard: 1

[Editor]
Bookmarks: 16059,23618,31177,38736,46295,52909,53854,60468,61413,68027,68972,75586,76531
DistanceSpacing: 1.1
BeatDivisor: 4
GridSize: 32
TimelineZoom: 1.9

[Metadata]
Title:MyonMyonMyonMyonMyonMyon!
TitleUnicode:MyonMyonMyonMyonMyonMyon!
Artist:3L
ArtistUnicode:3L
Creator:Len
Version:Hard
Source:東方Project
Tags:ムソウマテリアライズ 11t Fast project_railgun K_i_A_i touhou Chaoslitz 東方妖々夢 ~ Ancient Temple やまざきさやか Shibayan ShibayanRecords
BeatmapID:920985
BeatmapSetID:426542

[Difficulty]
HPDrainRate:4.7
CircleSize:3.8
OverallDifficulty:5
ApproachRate:7.6
SliderMultiplier:1.69
SliderTickRate:2

[Events]
//Background and Video events
0,0,"pink.jpg",0,0
//Break Periods
//Storyboard Layer 0 (Background)
//Storyboard Layer 1 (Fail)
//Storyboard Layer 2 (Pass)
//Storyboard Layer 3 (Foreground)
//Storyboard Sound Samples

[TimingPoints]
964,472.44094488189,4,2,1,60,1,0
16082,-100,4,2,1,60,0,0
31082,-100,4,2,1,30,0,0
31200,-100,4,2,1,60,0,0
46200,-100,4,2,1,30,0,0
46318,-100,4,2,2,70,0,1
46436,-100,4,2,1,70,0,1
51751,-100,4,2,2,70,0,1
52460,-100,4,2,1,70,0,1
61318,-100,4,2,1,70,0,0
61436,-100,4,2,2,70,0,1
61554,-100,4,2,1,70,0,1
66869,-100,4,2,2,70,0,1
67578,-100,4,2,1,70,0,1
76554,-100,4,2,1,70,0,0

[Colours]
Combo1 : 216,114,137
Combo2 : 200,200,200
Combo3 : 30,160,70

[HitObjects]
92,245,16082,6,0,P|99:196|106:146,1,84.5,0|2,0:0|0:0,0:0:0:0:
104,68,16554,1,8,0:0:0:0:
183,115,16790,1,4,0:3:0:0:
246,47,17026,2,0,P|313:28|383:120,1,169,6|10,0:0|0:0,0:0:0:0:
443,158,17735,6,0,P|433:223|431:251,1,84.5,6|0,0:0|0:0,0:0:0:0:
440,334,18208,1,4,0:0:0:0:
354,297,18444,1,8,0:0:0:0:
304,375,18680,1,2,0:0:0:0:
217,342,18916,2,0,P|207:279|197:170,1,169,4|8,0:0|0:0,0:0:0:0:
321,35,19861,6,0,P|269:93|166:54,1,169,4|8,0:0|0:0,0:0:0:0:
109,25,20570,1,0,0:0:0:0:
28,70,20806,2,0,P|45:182|51:265,1,169,6|8,0:0|0:0,0:0:0:0:
29,328,21515,1,4,0:0:0:0:
113,367,21751,6,0,P|130:308|140:267,1,84.5,0|4,0:0|0:0,0:0:0:0:
224,260,22223,2,0,P|211:219|201:178,1,84.5,8|2,0:0|0:0,0:0:0:0:
244,95,22696,2,0,P|286:63|390:136,1,169,4|12,0:0|0:0,0:0:0:0:
453,337,23641,6,0,P|441:278|435:234,1,84.5,6|2,0:0|0:0,0:0:0:0:
354,212,24113,2,0,P|283:221|252:224,1,84.5,10|2,0:0|0:0,0:0:0:0:
206,290,24586,2,0,P|179:243|238:138,1,169,6|10,0:0|0:0,0:0:0:0:
311,124,25294,1,6,0:0:0:0:
245,58,25530,6,0,L|148:46,1,84.5,0|4,0:0|0:0,0:0:0:0:
71,29,26003,2,0,P|74:71|92:110,1,84.5,8|0,0:0|0:0,0:0:0:0:
165,166,26475,2,0,P|150:227|121:356,1,169,6|8,0:0|0:0,0:0:0:0:
209,372,27184,1,4,0:3:0:0:
286,320,27420,6,0,P|271:262|263:220,1,84.5,4|4,0:0|0:0,0:0:0:0:
288,147,27893,1,8,0:0:0:0:
353,213,28129,1,0,0:0:0:0:
440,182,28365,2,0,P|455:124|463:82,1,84.5,6|0,0:0|0:0,0:0:0:0:
409,21,28838,1,8,0:0:0:0:
334,76,29074,6,0,B|288:93|288:93|161:71,1,169,4|4,0:0|0:0,0:0:0:0:
78,56,29782,2,0,P|88:125|91:151,1,84.5,12|0,0:0|0:0,0:0:0:0:
177,171,30255,2,0,P|170:212|165:254,1,84.5,4|4,0:0|0:3,0:0:0:0:
206,337,30727,2,0,P|249:298|329:323,1,126.75,12|0,0:0|0:0,0:0:0:0:
345,341,31200,6,0,P|331:273|331:236,1,84.5,4|0,0:0|0:0,0:0:0:0:
364,171,31672,1,8,0:0:0:0:
282,126,31908,1,0,0:0:0:0:
336,51,32145,2,0,P|253:37|193:108,1,169,6|8,0:0|0:0,0:0:0:0:
208,184,32853,6,0,P|154:174|29:159,1,169,6|4,0:0|0:0,0:0:0:0:
4,245,33562,1,10,0:0:0:0:
80,298,33798,1,2,0:0:0:0:
39,381,34034,2,0,P|96:323|198:353,1,169,4|8,0:0|0:0,0:0:0:0:
237,262,34743,1,4,0:3:0:0:
303,327,34979,6,0,P|283:256|260:140,1,169,4|8,0:0|0:0,0:0:0:0:
253,70,35688,1,0,0:0:0:0:
181,129,35924,2,0,P|272:118|373:107,1,169,4|8,0:0|0:0,0:0:0:0:
416,45,36633,1,4,0:0:0:0:
491,99,36869,6,0,P|503:148|515:193,1,84.5,0|4,0:0|0:0,0:0:0:0:
428,221,37341,2,0,P|416:270|404:315,1,84.5,8|4,0:0|0:0,0:0:0:0:
331,356,37814,2,0,P|281:298|166:332,1,169,4|8,0:0|0:0,0:0:0:0:
118,356,38523,1,0,0:0:0:0:
30,324,38759,6,0,P|23:274|15:227,1,84.5,4|4,0:0|0:0,0:0:0:0:
81,172,39231,1,8,0:0:0:0:
38,89,39467,1,4,0:3:0:0:
118,42,39704,2,0,P|181:56|317:78,1,169,4|8,0:0|0:0,0:0:0:0:
361,22,40412,6,0,P|376:81|291:166,1,169,4|4,0:0|0:0,0:0:0:0:
269,242,41121,2,0,L|168:215,1,84.5,8|8,0:0|0:3,0:0:0:0:
167,129,41593,1,4,0:0:0:0:
100,194,41830,1,4,0:0:0:0:
118,285,42066,2,0,L|103:374,1,84.5,8|4,0:0|0:3,0:0:0:0:
191,337,42538,6,0,B|240:327|240:327|356:357,1,169,4|8,0:0|0:0,0:0:0:0:
438,313,43247,1,6,0:3:0:0:
393,231,43483,2,0,L|406:139,1,84.5,4|0,0:0|0:0,0:0:0:0:
365,62,43956,1,8,0:0:0:0:
285,110,44192,6,0,P|234:82|128:37,1,169,4|14,0:0|0:0,0:0:0:0:
47,77,44901,2,0,P|30:139|19:195,1,84.5,14|2,0:0|0:0,0:0:0:0:
109,199,45373,2,0,P|126:261|137:317,1,84.5,14|10,0:0|0:3,0:0:0:0:
99,368,45845,2,0,P|146:315|226:338,1,126.75,14|0,0:0|0:0,0:0:0:0:
236,343,46318,6,0,P|285:333|336:325,1,84.5,6|4,0:0|0:0,0:0:0:0:
409,350,46790,1,14,0:0:0:0:
462,273,47026,1,8,0:3:0:0:
462,273,47145,1,4,0:3:0:0:
462,273,47263,2,0,L|475:181,1,84.5,4|2,0:0|0:3,0:0:0:0:
450,99,47735,1,10,0:0:0:0:
344,200,47971,6,0,P|264:204|217:123,1,169,4|4,0:0|0:0,0:0:0:0:
233,45,48680,1,8,0:0:0:0:
146,78,48916,1,2,0:0:0:0:
146,78,49034,1,2,0:0:0:0:
146,78,49152,2,0,L|48:61,1,84.5,6|4,0:0|0:0,0:0:0:0:
127,168,49625,2,0,L|44:154,1,84.5,10|8,0:0|0:3,0:0:0:0:
193,242,50097,6,0,L|276:227,1,84.5,4|4,0:0|0:0,0:0:0:0:
367,208,50570,1,8,0:0:0:0:
303,140,50806,1,4,0:3:0:0:
303,140,50924,1,8,0:3:0:0:
303,140,51042,1,4,0:0:0:0:
330,288,51278,2,0,L|350:374,1,84.5,0|8,0:0|0:0,0:0:0:0:
441,359,51751,6,0,P|466:292|408:221,1,169,6|6,0:0|0:0,0:0:0:0:
363,141,52460,2,0,P|301:160|265:168,1,84.5,8|2,0:0|0:0,0:0:0:0:
206,110,52932,5,4,0:0:0:0:
96,300,53404,1,12,0:0:0:0:
11,68,53877,6,0,P|60:58|121:48,1,84.5,4|4,0:0|0:0,0:0:0:0:
166,109,54349,1,8,0:0:0:0:
244,58,54586,1,4,0:3:0:0:
244,58,54704,1,8,0:3:0:0:
244,58,54822,1,4,0:0:0:0:
292,136,55058,2,0,P|284:192|275:239,1,84.5,2|10,0:3|0:0,0:0:0:0:
328,297,55530,6,0,P|290:250|169:282,1,169,4|4,0:0|0:0,0:0:0:0:
108,300,56239,1,8,0:0:0:0:
108,207,56475,1,2,0:0:0:0:
108,207,56593,1,2,0:0:0:0:
108,207,56712,2,0,P|48:191|12:184,1,84.5,4|4,0:0|0:0,0:0:0:0:
107,117,57184,2,0,P|47:101|11:94,1,84.5,10|8,0:0|0:3,0:0:0:0:
183,52,57656,6,0,L|279:29,1,84.5,4|4,0:0|0:0,0:0:0:0:
330,99,58129,1,8,0:0:0:0:
413,57,58365,1,8,0:3:0:0:
413,57,58483,1,4,0:3:0:0:
413,57,58601,2,0,P|423:109|404:156,1,84.5,4|2,0:0|0:0,0:0:0:0:
341,196,59074,1,10,0:0:0:0:
406,262,59310,6,0,P|356:236|244:190,1,169,4|4,0:0|0:0,0:0:0:0:
160,209,60019,2,0,P|157:154|146:106,1,84.5,4|0,0:0|0:0,0:0:0:0:
102,46,60491,5,6,0:0:0:0:
49,258,60964,1,14,0:0:0:0:
260,198,61436,6,0,P|264:149|271:97,1,84.5,6|4,0:0|0:0,0:0:0:0:
298,25,61908,1,8,0:0:0:0:
206,45,62145,1,4,0:3:0:0:
206,45,62263,1,8,0:3:0:0:
206,45,62381,1,4,0:0:0:0:
360,95,62617,2,0,L|449:82,1,84.5,2|6,0:3|0:0,0:0:0:0:
498,157,63089,6,0,P|508:223|416:274,1,169,4|4,0:0|0:0,0:0:0:0:
342,251,63798,1,8,0:0:0:0:
297,332,64034,1,2,0:0:0:0:
297,332,64152,1,2,0:0:0:0:
297,332,64271,1,4,0:0:0:0:
210,298,64507,1,4,0:0:0:0:
131,347,64743,2,0,P|123:302|116:258,1,84.5,8|8,0:0|0:3,0:0:0:0:
54,126,65215,6,0,P|46:168|40:210,1,84.5,4|4,0:0|0:0,0:0:0:0:
148,118,65688,1,8,0:0:0:0:
191,200,65924,1,4,0:3:0:0:
191,200,66042,1,8,0:3:0:0:
191,200,66160,1,4,0:0:0:0:
273,157,66397,1,2,0:3:0:0:
230,75,66633,1,8,0:0:0:0:
148,118,66869,6,0,P|235:108|329:102,1,169,6|6,0:0|0:0,0:0:0:0:
407,120,67578,2,0,L|388:22,1,84.5,8|6,0:0|0:0,0:0:0:0:
342,189,68050,5,4,0:0:0:0:
504,341,68523,1,14,0:0:0:0:
274,376,68995,6,0,P|265:308|261:273,1,84.5,6|4,0:0|0:0,0:0:0:0:
252,199,69467,1,8,0:0:0:0:
337,235,69704,1,4,0:3:0:0:
337,235,69822,1,8,0:3:0:0:
337,235,69940,1,4,0:0:0:0:
161,171,70176,1,2,0:3:0:0:
177,263,70412,1,10,0:0:0:0:
252,199,70649,6,0,P|256:160|156:77,1,169,4|4,0:0|0:0,0:0:0:0:
86,118,71357,2,0,L|-9:103,1,84.5,8|10,0:0|0:3,0:0:0:0:
77,210,71830,1,4,0:0:0:0:
161,171,72066,1,4,0:0:0:0:
177,263,72302,2,0,P|218:253|269:243,1,84.5,10|10,0:0|0:3,0:0:0:0:
439,269,72775,5,4,0:0:0:0:
354,232,73011,1,4,0:0:0:0:
317,317,73247,1,8,0:0:0:0:
402,354,73483,1,2,0:0:0:0:
402,354,73601,1,2,0:0:0:0:
402,354,73719,1,4,0:0:0:0:
439,269,73956,2,0,P|433:214|426:164,1,84.5,8|8,0:3|0:0,0:0:0:0:
370,113,74428,6,0,P|322:84|236:143,1,169,4|4,0:0|0:0,0:0:0:0:
160,192,75137,2,0,L|145:106,1,84.5,12|8,0:0|0:3,0:0:0:0:
312,166,75609,6,0,L|297:249,1,84.5,12|2,0:0|0:3,0:0:0:0:
203,303,76082,2,0,P|243:316|278:340,1,84.5,12|2,0:0|0:3,0:0:0:0:
110,332,76554,5,4,0:0:0:0:
