osu file format v14

[General]
AudioFilename: Shibayan feat. 3L - MyonMyonMyonMyonMyonMyon!.mp3
AudioLeadIn: 0
PreviewTime: 46295
Countdown: 0
SampleSet: Soft
StackLeniency: 0.7
Mode: 0
LetterboxInBreaks: 1
EpilepsyWarning: 1
WidescreenStoryboard: 1

[Editor]
DistanceSpacing: 0.5
BeatDivisor: 4
GridSize: 4
TimelineZoom: 1.8

[Metadata]
Title:MyonMyonMyonMyonMyonMyon!
TitleUnicode:MyonMyonMyonMyonMyonMyon!
Artist:3L
ArtistUnicode:3L
Creator:Len
Version:Chaoz's Moe Extra
Source:東方Project
Tags:ムソウマテリアライズ 11t Fast project_railgun K_i_A_i touhou Chaoslitz 東方妖々夢 ~ Ancient Temple やまざきさやか Shibayan ShibayanRecords
BeatmapID:922642
BeatmapSetID:426542

[Difficulty]
HPDrainRate:5
CircleSize:4.5
OverallDifficulty:8
ApproachRate:9.1
SliderMultiplier:2.7
SliderTickRate:1

[Events]
//Background and Video events
0,0,"pink.jpg",0,0
//Break Periods
//Storyboard Layer 0 (Background)
//Storyboard Layer 1 (Fail)
//Storyboard Layer 2 (Pass)
//Storyboard Layer 3 (Foreground)
//Storyboard Sound Samples

[TimingPoints]
964,472.44094488189,4,2,1,70,1,0
17026,-100,4,2,2,70,0,0
17381,-100,4,2,1,70,0,0
19389,-83.3333333333333,4,2,1,70,0,0
19861,-100,4,2,1,70,0,0
20806,-100,4,2,2,70,0,0
21160,-100,4,2,1,70,0,0
23168,-83.3333333333333,4,2,1,70,0,0
23404,-76.9230769230769,4,2,1,70,0,0
23641,-100,4,2,1,70,0,0
24586,-100,4,2,2,70,0,0
24940,-100,4,2,1,70,0,0
27184,-76.9230769230769,4,2,1,70,0,0
27420,-100,4,2,1,70,0,0
28365,-100,4,2,2,70,0,0
28719,-100,4,2,1,70,0,0
30727,-83.3333333333333,4,2,1,70,0,0
30964,-76.9230769230769,4,2,1,70,0,0
31200,-100,4,2,1,70,0,0
32145,-100,4,2,2,70,0,0
32499,-100,4,2,1,70,0,0
34507,-83.3333333333333,4,2,1,70,0,0
34979,-100,4,2,1,70,0,0
35924,-100,4,2,2,70,0,0
36278,-100,4,2,1,70,0,0
38286,-83.3333333333333,4,2,1,70,0,0
38523,-76.9230769230769,4,2,1,70,0,0
38759,-100,4,2,1,70,0,0
39704,-100,4,2,2,70,0,0
40058,-100,4,2,1,70,0,0
43483,-100,4,2,2,70,0,0
43838,-100,4,2,1,70,0,0
45845,-83.3333333333333,4,2,1,70,0,0
46082,-76.9230769230769,4,2,1,70,0,0
46318,-76.9230769230769,4,2,2,80,0,1
46436,-76.9230769230769,4,2,1,80,0,1
48916,-76.9230769230769,4,2,1,80,0,1
49152,-76.9230769230769,4,2,1,80,0,1
49861,-66.6666666666667,4,2,1,80,0,1
49979,-66.6666666666667,4,2,1,80,0,1
50097,-76.9230769230769,4,2,1,80,0,1
52932,-66.6666666666667,4,2,2,80,0,1
53168,-66.6666666666667,4,2,1,80,0,1
53404,-66.6666666666667,4,2,2,80,0,1
53641,-66.6666666666667,4,2,1,80,0,1
53759,-66.6666666666667,4,2,1,80,0,0
53877,-76.9230769230769,4,2,1,80,0,1
57420,-66.6666666666667,4,2,1,80,0,1
57656,-76.9230769230769,4,2,1,80,0,1
60491,-66.6666666666667,4,2,2,80,0,1
60727,-66.6666666666667,4,2,1,80,0,1
60964,-66.6666666666667,4,2,2,80,0,1
61200,-66.6666666666667,4,2,1,80,0,1
61318,-66.6666666666667,4,2,1,80,0,0
61436,-76.9230769230769,4,2,2,80,0,1
61554,-76.9230769230769,4,2,1,80,0,1
64979,-66.6666666666667,4,2,1,80,0,1
65215,-76.9230769230769,4,2,1,80,0,1
68050,-66.6666666666667,4,2,2,80,0,1
68286,-66.6666666666667,4,2,1,80,0,1
68523,-66.6666666666667,4,2,2,80,0,1
68759,-66.6666666666667,4,2,1,80,0,1
68877,-66.6666666666667,4,2,1,80,0,0
68995,-76.9230769230769,4,2,1,80,0,1
71593,-133.333333333333,4,2,1,80,0,1
71830,-76.9230769230769,4,2,1,80,0,1
72538,-66.6666666666667,4,2,1,80,0,1
72775,-76.9230769230769,4,2,1,80,0,1
75609,-66.6666666666667,4,2,2,80,0,1
75845,-66.6666666666667,4,2,1,80,0,1
76082,-66.6666666666667,4,2,2,80,0,1
76318,-66.6666666666667,4,2,1,80,0,1
76554,-66.6666666666667,4,2,1,80,0,0

[Colours]
Combo1 : 254,167,88
Combo2 : 253,243,130
Combo3 : 3,201,107
Combo4 : 253,145,209

[HitObjects]
104,119,16082,6,0,P|72:109|38:105,1,67.5,4|0,0:0|0:0,0:0:0:0:
162,52,16318,2,0,P|191:37|224:27,1,67.5,4|0,0:0|0:0,0:0:0:0:
170,189,16554,2,0,L|162:277,1,67.5,8|0,0:0|0:0,0:0:0:0:
224,128,16790,1,4,0:3:0:0:
219,107,16908,1,0,0:0:0:0:
276,189,17026,6,0,P|344:124|300:40,1,202.5,6|0,0:0|0:0,0:0:0:0:
224,26,17499,1,10,0:0:0:0:
368,175,17735,2,0,L|361:316,1,135,6|0,0:0|0:3,0:3:0:0:
266,110,18208,1,4,0:0:0:0:
136,244,18444,2,0,P|138:277|139:311,1,67.5,8|0,0:0|0:0,0:0:0:0:
67,190,18680,1,2,0:0:0:0:
44,184,18798,1,0,0:0:0:0:
116,102,18916,6,0,L|196:96,1,67.5,4|0,0:0|0:0,0:0:0:0:
351,203,19152,2,0,L|283:208,1,67.5,4|0,0:0|0:0,0:0:0:0:
136,244,19389,6,0,B|154:235|154:235|174:239|174:239|191:232|191:232|214:241|234:240|260:236|283:208,1,161.999995056153,8|8,0:0|0:3,0:0:0:0:
224,163,19743,1,4,0:3:0:0:
157,313,19861,6,0,P|153:346|148:380,1,67.5,4|0,0:0|0:0,0:0:0:0:
259,301,20097,2,0,P|292:299|325:291,1,67.5,4|0,0:0|0:0,0:0:0:0:
224,163,20334,2,0,P|220:196|215:230,1,67.5,8|0,0:0|0:0,0:0:0:0:
293,321,20570,1,4,0:3:0:0:
296,345,20688,1,0,0:0:0:0:
378,241,20806,6,0,P|389:176|310:218,1,202.5,6|0,0:0|0:0,0:0:0:0:
401,240,21278,2,0,P|413:209|408:175,1,67.5,8|0,0:0|0:0,0:0:0:0:
298,206,21515,2,0,P|304:173|326:148,1,67.5,4|0,0:0|0:0,0:0:0:0:
493,98,21751,6,0,P|461:93|428:103,1,67.5,0|0,0:0|0:0,0:0:0:0:
300,40,21987,2,0,P|329:51|353:76,1,67.5,4|0,0:0|0:0,0:0:0:0:
498,212,22223,2,0,P|472:190|442:174,1,67.5,8|0,0:0|0:0,0:0:0:0:
238,122,22460,2,0,P|271:122|304:130,1,67.5,2|0,0:0|0:0,0:0:0:0:
427,257,22696,1,4,0:0:0:0:
191,285,22932,5,2,0:0:0:0:
274,274,23050,1,2,0:0:0:0:
240,348,23168,2,0,P|217:315|191:285,1,80.9999975280763,12|0,0:0|0:0,0:0:0:0:
284,186,23404,6,0,P|278:230|274:274,1,87.749995983124,8|0,0:3|0:0,0:0:0:0:
350,378,23641,6,0,L|344:310,1,67.5,6|0,0:0|0:0,0:0:0:0:
251,141,23877,2,0,P|244:174|240:207,1,67.5,4|0,0:0|0:0,0:0:0:0:
420,324,24113,2,0,L|426:256,1,67.5,10|0,0:0|0:0,0:0:0:0:
492,180,24349,1,4,0:3:0:0:
489,156,24467,1,0,0:0:0:0:
426,256,24586,6,0,P|343:208|363:116,1,202.5,6|0,0:0|0:0,0:0:0:0:
415,177,25058,1,10,0:0:0:0:
261,242,25294,2,0,P|193:235|126:230,1,135,6|0,0:0|0:0,0:0:0:0:
251,141,25767,1,4,0:0:0:0:
187,271,26003,2,0,P|182:304|178:338,1,67.5,8|0,0:0|0:0,0:0:0:0:
115,201,26239,1,2,0:0:0:0:
112,178,26357,1,0,0:0:0:0:
65,281,26475,6,0,P|32:271|0:265,1,67.5,6|0,0:0|0:0,0:0:0:0:
152,316,26712,2,0,P|156:350|158:383,1,67.5,4|0,0:0|0:0,0:0:0:0:
198,194,26948,2,0,L|206:127,1,67.5,8|0,0:0|0:0,0:0:0:0:
256,340,27184,6,0,B|260:316|260:316|252:280|252:280|256:252,1,87.749995983124,8|0,0:3|0:0,0:0:0:0:
447,281,27420,6,0,P|479:271|512:265,1,67.5,4|0,0:0|0:0,0:0:0:0:
314,194,27656,2,0,L|305:127,1,67.5,4|0,0:0|0:0,0:0:0:0:
360,316,27893,2,0,P|356:350|353:383,1,67.5,8|0,0:0|0:0,0:0:0:0:
276,268,28129,1,4,0:3:0:0:
256,272,28247,1,0,0:0:0:0:
341,203,28365,6,0,B|351:55|351:55|384:122,1,202.5,6|0,0:0|0:0,0:0:0:0:
305,127,28838,1,8,0:0:0:0:
434,220,29074,2,0,L|441:357,1,135,4|0,0:0|0:0,0:0:0:0:
341,203,29546,1,4,0:0:0:0:
429,46,29782,6,0,P|462:50|495:57,1,67.5,12|0,0:0|0:0,0:0:0:0:
434,198,30019,2,0,P|438:164|444:131,1,67.5,2|0,0:0|0:0,0:0:0:0:
512,251,30255,1,4,0:0:0:0:
341,203,30491,5,2,0:0:0:0:
352,286,30609,1,2,0:0:0:0:
277,252,30727,2,0,P|310:228|340:203,1,80.9999975280763,12|0,0:0|0:0,0:0:0:0:
282,343,30964,6,0,P|240:328|197:319,1,87.749995983124,8|0,0:3|0:0,0:0:0:0:
268,164,31200,6,0,L|276:81,1,67.5,4|0,0:0|0:0,0:0:0:0:
198,239,31436,2,0,P|193:205|187:172,1,67.5,4|0,0:0|0:0,0:0:0:0:
126,291,31672,2,0,P|119:324|115:357,1,67.5,8|0,0:0|0:0,0:0:0:0:
50,254,31908,1,4,0:3:0:0:
47,232,32026,1,0,0:0:0:0:
45,110,32145,6,0,P|137:90|187:172,1,202.5,6|0,0:0|0:0,0:0:0:0:
121,214,32617,1,8,0:0:0:0:
274,95,32853,2,0,P|339:85|399:113,1,135,6|0,0:0|0:0,0:0:0:0:
211,40,33326,1,4,0:0:0:0:
332,170,33562,2,0,P|342:203|347:236,1,67.5,10|0,0:0|0:0,0:0:0:0:
399,113,33798,1,2,0:0:0:0:
420,105,33916,1,0,0:0:0:0:
423,196,34034,6,0,P|456:192|490:189,1,67.5,4|0,0:0|0:0,0:0:0:0:
340,67,34271,2,0,P|337:33|333:0,1,67.5,4|0,0:0|0:0,0:0:0:0:
258,191,34507,6,0,B|261:233|238:258|238:258|246:272|246:272|220:302|229:349,1,161.999995056153,8|8,0:0|0:3,0:0:0:0:
298,324,34861,1,4,0:3:0:0:
185,205,34979,6,0,P|155:199|119:193,1,67.5,4|0,0:0|0:0,0:0:0:0:
223,106,35215,2,0,P|226:62|228:34,1,67.5,4|0,0:0|0:0,0:0:0:0:
333,158,35452,2,0,P|366:154|397:142,1,67.5,8|0,0:0|0:0,0:0:0:0:
278,228,35688,1,4,0:3:0:0:
283,247,35806,1,0,0:0:0:0:
333,158,35924,6,0,B|346:57|346:57|398:143,1,202.5,6|0,0:0|0:0,0:0:0:0:
383,223,36397,1,8,0:0:0:0:
223,106,36633,2,0,P|158:98|81:90,1,135,4|0,0:0|0:0,0:0:0:0:
346,59,37105,1,4,0:0:0:0:
258,191,37341,2,0,P|255:224|252:260,1,67.5,8|0,0:0|0:0,0:0:0:0:
333,158,37578,2,0,P|366:155|397:143,1,67.5,4|0,0:0|0:0,0:0:0:0:
251,29,37814,1,4,0:0:0:0:
334,241,38050,5,2,0:0:0:0:
359,320,38168,1,2,0:0:0:0:
413,260,38286,2,0,P|387:291|358:320,1,80.9999975280763,12|0,0:0|0:0,0:0:0:0:
484,194,38523,6,4,P|488:237|494:281,1,87.749995983124,4|0,0:3|0:0,0:3:0:0:
420,116,38759,6,0,L|427:43,1,67.5,4|0,0:0|0:0,0:0:0:0:
340,173,38995,2,0,L|334:241,1,67.5,4|0,0:0|0:0,0:0:0:0:
306,79,39231,2,0,P|274:65|242:56,1,67.5,8|0,0:0|0:0,0:0:0:0:
167,101,39467,1,4,0:3:0:0:
143,98,39586,1,0,0:0:0:0:
235,156,39704,6,0,B|196:184|196:184|88:170|88:170|62:133,1,202.5,6|0,0:0|0:0,0:0:0:0:
75,57,40176,1,8,0:0:0:0:
155,216,40412,2,0,L|165:351,1,135,4|0,0:0|0:0,0:0:0:0:
235,156,40885,1,4,0:0:0:0:
83,253,41121,2,0,P|49:249|16:241,1,67.5,8|0,0:0|0:0,0:0:0:0:
90,331,41357,1,2,0:0:0:0:
88,350,41475,1,0,0:0:0:0:
198,281,41593,6,0,P|226:299|247:325,1,67.5,4|0,0:0|0:0,0:0:0:0:
269,178,41830,2,0,P|283:215|291:253,1,67.5,4|0,0:0|0:0,0:0:0:0:
481,244,42066,2,0,P|456:266|440:296,1,67.5,8|0,0:0|0:0,0:0:0:0:
393,154,42302,2,0,P|385:192|384:231,1,67.5,8|0,0:3|0:0,0:0:0:0:
324,93,42538,6,0,P|291:83|258:77,1,67.5,4|0,0:0|0:0,0:0:0:0:
373,170,42775,2,0,P|369:209|367:246,1,67.5,4|0,0:0|0:0,0:0:0:0:
426,79,43011,2,0,P|421:45|416:12,1,67.5,8|0,0:0|0:0,0:0:0:0:
498,122,43247,1,4,0:3:0:0:
495,141,43365,1,0,0:0:0:0:
373,170,43483,6,0,B|315:161|315:161|265:183|265:183|222:174|222:174|178:192,1,202.5,6|0,0:0|0:0,0:0:0:0:
228,254,43956,1,8,0:0:0:0:
168,56,44192,2,0,L|180:191,1,135,4|0,0:0|0:0,0:0:0:0:
257,95,44664,1,4,0:0:0:0:
323,244,44901,2,0,P|331:276|338:309,1,67.5,12|0,0:0|0:0,0:0:0:0:
373,170,45137,2,0,P|376:136|381:103,1,67.5,2|0,0:0|0:0,0:0:0:0:
429,289,45373,1,12,0:0:0:0:
228,254,45609,5,2,0:0:0:0:
147,266,45727,1,2,0:0:0:0:
196,330,45845,2,0,P|170:299|147:266,1,80.9999975280763,8|0,0:0|0:0,0:0:0:0:
309,282,46082,6,0,L|319:369,1,87.749995983124,8|0,0:3|0:0,0:0:0:0:
373,170,46318,6,0,P|415:158|458:154,1,87.749995983124,6|0,0:0|0:0,0:0:0:0:
280,112,46554,2,0,P|291:69|305:28,1,87.749995983124,4|0,0:0|0:0,0:0:0:0:
223,220,46790,2,0,P|194:187|163:156,1,87.749995983124,8|0,0:0|0:0,0:0:0:0:
200,64,47026,1,8,0:3:0:0:
192,29,47145,1,4,0:3:0:0:
320,100,47263,6,0,P|361:85|404:76,1,87.749995983124,4|0,0:0|0:0,0:0:0:0:
304,211,47499,2,0,P|302:237|296:308,1,87.749995983124,2|0,0:3|0:0,0:0:0:0:
231,94,47735,2,0,P|223:85|193:58,1,43.874997991562,10|0,0:0|0:0,0:0:0:0:
446,266,47971,6,0,P|366:246|294:304,1,175.499991966248,4|0,0:0|0:0,0:0:0:0:
80,200,48444,2,0,P|74:156|69:112,1,87.749995983124,4|0,0:0|0:0,0:0:0:0:
8,263,48680,2,0,P|50:274|92:291,1,87.749995983124,8|0,0:0|0:0,0:0:0:0:
161,229,48916,1,2,0:0:0:0:
80,200,49034,1,2,0:0:0:0:
91,290,49152,6,0,P|85:334|80:378,1,87.749995983124,6|0,0:0|0:0,0:0:0:0:
161,229,49389,2,0,P|156:184|153:140,1,87.749995983124,4|0,0:0|0:0,0:0:0:0:
351,229,49625,2,0,P|356:184|359:140,1,87.749995983124,10|0,0:0|0:0,0:0:0:0:
268,292,49861,6,0,B|277:322|262:341|262:341|240:328|241:298,1,101.250003862381,8|0,0:3|0:0,0:0:0:0:
382,334,50097,6,0,L|469:343,1,87.749995983124,4|0,0:0|0:0,0:0:0:0:
338,206,50334,2,0,P|343:161|346:117,1,87.749995983124,4|0,0:0|0:0,0:0:0:0:
202,233,50570,2,0,P|158:236|116:222,1,87.749995983124,8|0,0:0|0:0,0:0:0:0:
254,132,50806,1,4,0:3:0:0:
248,97,50924,1,8,0:3:0:0:
308,237,51042,6,0,L|297:333,1,87.749995983124,4|0,0:0|0:0,0:0:0:0:
407,159,51278,2,0,P|419:95|383:42,1,131.624993974686,2|0,0:0|0:0,0:0:0:0:
348,29,51515,2,0,P|306:28|261:21,1,87.749995983124,8|0,0:0|0:0,0:0:0:0:
80,148,51751,6,0,L|254:133,1,175.499991966248,6|0,0:0|0:0,0:0:0:0:
391,262,52223,2,0,P|434:257|478:252,1,87.749995983124,6|0,0:0|0:0,0:0:0:0:
291,270,52460,2,0,P|297:313|304:356,1,87.749995983124,8|0,0:0|0:0,0:0:0:0:
202,233,52696,2,0,L|193:276|184:319,1,87.749995983124,2|0,0:0|0:0,0:0:0:0:
116,145,52932,6,0,B|79:100|107:39|107:39|167:42|189:96,1,202.500007724762,6|8,0:0|0:0,0:0:0:0:
255,134,53286,1,8,0:3:0:0:
396,143,53404,2,0,B|432:100|404:39|404:39|344:42|329:82,1,202.500007724762,6|8,0:0|0:0,0:0:0:0:
255,134,53759,1,4,0:3:0:0:
389,231,53877,6,0,L|396:143,1,87.749995983124,4|0,0:0|0:0,0:0:0:0:
263,46,54113,2,0,L|255:133,1,87.749995983124,4|0,0:0|0:0,0:0:0:0:
404,247,54349,2,0,L|411:159,1,87.749995983124,8|0,0:0|0:0,0:0:0:0:
333,295,54586,1,4,0:3:0:0:
339,329,54704,1,8,0:3:0:0:
266,228,54822,6,0,P|223:218|179:213,1,87.749995983124,4|0,0:0|0:0,0:0:0:0:
326,150,55058,2,0,P|313:108|295:67,1,87.749995983124,2|0,0:3|0:0,0:0:0:0:
423,173,55294,2,0,P|434:149|440:132,1,43.874997991562,10|0,0:0|0:0,0:0:0:0:
266,228,55530,6,0,P|336:177|423:173,1,175.499991966248,4|0,0:0|0:0,0:0:0:0:
211,146,56003,2,0,P|167:144|124:134,1,87.749995983124,4|0,0:0|0:0,0:0:0:0:
178,235,56239,2,0,P|173:280|168:334,1,87.749995983124,8|0,0:0|0:0,0:0:0:0:
259,311,56475,1,2,0:0:0:0:
266,228,56593,1,2,0:0:0:0:
211,146,56712,6,0,P|215:102|220:58,1,87.749995983124,4|0,0:0|0:0,0:0:0:0:
317,147,56948,2,0,P|351:141|409:131,1,87.749995983124,4|0,0:0|0:0,0:0:0:0:
178,235,57184,2,0,P|144:241|86:251,1,87.749995983124,10|0,0:0|0:0,0:0:0:0:
293,306,57420,6,0,B|285:355|285:355|259:311,1,101.250003862381,8|0,0:3|0:0,0:0:0:0:
415,259,57656,6,0,P|423:310|429:349,1,87.749995983124,4|0,0:0|0:0,0:0:0:0:
487,202,57893,2,0,P|493:158|500:115,1,87.749995983124,4|0,0:0|0:0,0:0:0:0:
400,170,58129,2,0,P|360:153|317:147,1,87.749995983124,8|0,0:0|0:0,0:0:0:0:
429,58,58365,1,8,0:3:0:0:
438,24,58483,1,4,0:3:0:0:
345,70,58601,6,0,P|297:66|258:63,1,87.749995983124,4|0,0:0|0:0,0:0:0:0:
137,127,58838,2,0,P|151:206|159:272,1,131.624993974686,2|0,0:0|0:0,0:0:0:0:
162,291,59074,2,0,P|170:247|184:206,1,87.749995983124,10|0,0:0|0:0,0:0:0:0:
61,176,59310,6,0,P|76:263|89:349,1,175.499991966248,4|0,0:0|0:0,0:0:0:0:
137,127,59782,2,0,P|133:83|123:40,1,87.749995983124,4|0,0:0|0:0,0:0:0:0:
256,104,60019,2,0,L|256:191,1,87.749995983124,12|0,0:0|0:0,0:0:0:0:
375,127,60255,2,0,P|378:83|388:40,1,87.749995983124
432,229,60491,6,0,B|398:220|375:259|375:259|386:298|375:329|375:329|359:368|319:362,1,202.500007724762,6|8,0:0|0:0,0:0:0:0:
256,308,60845,1,8,0:3:0:0:
80,229,60964,2,0,B|114:220|137:259|137:259|126:298|137:329|137:329|153:368|193:362,1,202.500007724762,6|8,0:0|0:0,0:0:0:0:
256,308,61318,1,4,0:3:0:0:
161,146,61436,6,0,P|155:190|150:233,1,87.749995983124,6|0,0:0|0:0,0:0:0:0:
93,57,61672,2,0,P|79:100|67:141,1,87.749995983124,4|0,0:0|0:0,0:0:0:0:
182,60,61908,2,0,P|226:54|267:38,1,87.749995983124,8|0,0:0|0:0,0:0:0:0:
253,129,62145,1,4,0:3:0:0:
257,163,62263,1,8,0:3:0:0:
342,92,62381,6,0,L|449:99,1,87.749995983124,4|0,0:0|0:0,0:0:0:0:
260,196,62617,2,0,L|172:201,1,87.749995983124,2|0,0:3|0:0,0:0:0:0:
360,206,62853,2,0,P|381:201|403:200,1,43.874997991562,10|0,0:0|0:0,0:0:0:0:
273,371,63089,6,0,L|260:196,1,175.499991966248,4|0,0:0|0:0,0:0:0:0:
353,316,63562,2,0,P|394:304|444:302,1,87.749995983124,4|0,0:0|0:0,0:0:0:0:
194,274,63798,2,0,P|188:343|185:369,1,87.749995983124,8|0,0:0|0:0,0:0:0:0:
106,375,64034,1,2,0:0:0:0:
54,309,64152,1,2,0:0:0:0:
96,235,64271,6,0,P|91:191|87:147,1,87.749995983124,4|0,0:0|0:0,0:0:0:0:
191,63,64507,2,0,P|187:106|182:150,1,87.749995983124,4|0,0:0|0:0,0:0:0:0:
29,49,64743,2,0,P|72:53|112:70,1,87.749995983124,8|0,0:0|0:0,0:0:0:0:
292,202,64979,6,0,P|255:220|260:179,1,101.250003862381,8|0,0:3|0:0,0:0:0:0:
396,68,65215,6,0,P|437:66|487:62,1,87.749995983124,4|0,0:0|0:0,0:0:0:0:
362,146,65452,2,0,P|366:189|370:233,1,87.749995983124,4|0,0:0|0:0,0:0:0:0:
452,257,65688,2,0,P|447:300|443:344,1,87.749995983124,8|0,0:0|0:0,0:0:0:0:
443,175,65924,1,4,0:3:0:0:
454,141,66042,1,8,0:3:0:0:
370,233,66160,6,0,P|326:228|282:225,1,87.749995983124,4|0,0:0|0:0,0:0:0:0:
80,312,66397,2,0,P|143:324|197:290,1,131.624993974686,2|0,0:3|0:0,0:0:0:0:
201,255,66633,2,0,L|205:211|209:167,1,87.749995983124,8|0,0:0|0:0,0:0:0:0:
256,357,66869,6,0,B|331:309|331:309|411:341,1,175.499991966248,6|0,0:0|0:0,0:0:0:0:
291,142,67341,2,0,P|287:95|285:48,1,87.749995983124,6|0,0:0|0:0,0:0:0:0:
186,89,67578,2,0,P|190:42|196:-4,1,87.749995983124,8|0,0:0|0:0,0:0:0:0:
105,143,67814,2,0,P|63:127|21:116,1,87.749995983124,6|0,0:0|0:0,0:0:0:0:
115,240,68050,6,0,B|79:284|107:345|107:345|167:342|181:302,1,202.500007724762,6|8,0:0|0:0,0:0:0:0:
255,250,68404,1,8,0:3:0:0:
396,241,68522,2,0,B|432:284|404:345|404:345|344:342|329:302,1,202.500007724762,6|8,0:0|0:0,0:0:0:0:
255,250,68877,1,4,0:3:0:0:
340,121,68995,6,0,P|379:103|423:105,1,87.749995983124,6|0,0:0|0:0,0:0:0:0:
285,54,69231,2,0,L|197:43,1,87.749995983124,4|0,0:0|0:0,0:0:0:0:
68,171,69467,2,0,L|155:160,1,87.749995983124,8|0,0:0|0:0,0:0:0:0:
112,64,69704,1,4,0:3:0:0:
102,30,69822,1,8,0:3:0:0:
192,140,69940,6,0,P|186:183|176:240,1,87.749995983124,4|0,0:0|0:0,0:0:0:0:
292,344,70176,2,0,P|298:301|308:244,1,87.749995983124,2|0,0:3|0:0,0:0:0:0:
440,208,70412,2,0,P|441:229|444:251,1,43.874997991562,10|0,0:0|0:0,0:0:0:0:
348,161,70649,6,0,P|429:177|495:113,1,175.499991966248,4|0,0:0|0:0,0:0:0:0:
240,50,71121,2,0,P|243:93|247:137,1,87.749995983124,4|0,0:0|0:0,0:0:0:0:
217,250,71357,2,0,P|174:241|130:238,1,87.749995983124,8|0,0:0|0:0,0:0:0:0:
91,323,71593,6,0,P|115:328|142:329,1,50.6250019311906,2|8,0:3|0:3,0:0:0:0:
153,136,71830,6,0,P|109:134|68:148,1,87.749995983124,4|0,0:0|0:0,0:0:0:0:
217,250,72066,2,0,P|260:251|301:237,1,87.749995983124,4|0,0:0|0:0,0:0:0:0:
377,122,72302,2,0,L|388:21,1,87.749995983124,10|0,0:0|0:0,0:0:0:0:
444,243,72538,6,0,B|422:228|411:205|411:205|418:230|411:256,1,101.250003862381,10|0,0:3|0:0,0:0:0:0:
308,351,72775,6,0,P|266:336|221:333,1,87.749995983124,4|0,0:0|0:0,0:0:0:0:
406,282,73011,2,0,P|410:325|414:369,1,87.749995983124,4|0,0:0|0:0,0:0:0:0:
301,237,73247,2,0,P|298:193|310:151,1,87.749995983124,8|0,0:0|0:0,0:0:0:0:
404,108,73483,1,8,0:3:0:0:
438,99,73601,1,4,0:3:0:0:
309,56,73719,6,0,L|221:46,1,87.749995983124,4|0,0:0|0:0,0:0:0:0:
168,176,73956,2,0,P|110:140|38:160,1,131.624993974686,8|0,0:3|0:0,0:0:0:0:
29,177,74192,2,0,P|37:220|46:262,1,87.749995983124,8|0,0:0|0:0,0:0:0:0:
38,72,74428,6,0,P|125:62|203:100,1,175.499991966248,4|0,0:0|0:0,0:0:0:0:
137,282,74901,2,0,P|140:325|143:369,1,87.749995983124,4|0,0:0|0:0,0:0:0:0:
169,201,75137,2,0,P|213:202|256:192,1,87.749995983124,12|0,0:0|0:0,0:0:0:0:
330,292,75373,2,0,P|378:291|427:307,1,87.749995983124,8|4,0:3|0:3,0:0:0:0:
432,155,75609,6,0,B|398:164|375:125|375:125|386:86|375:55|375:55|359:16|319:22,1,202.500007724762,6|8,0:0|0:0,0:0:0:0:
256,76,75963,1,8,0:3:0:0:
80,155,76082,2,0,B|114:164|137:125|137:125|126:86|137:55|137:55|153:16|193:22,1,202.500007724762,6|8,0:0|0:0,0:0:0:0:
256,76,76436,1,4,0:3:0:0:
256,192,76554,5,4,0:0:0:0:
