osu file format v14

[General]
AudioFilename: Shibayan feat. 3L - MyonMyonMyonMyonMyonMyon!.mp3
AudioLeadIn: 0
PreviewTime: 46295
Countdown: 0
SampleSet: Normal
StackLeniency: 0.7
Mode: 0
LetterboxInBreaks: 1
EpilepsyWarning: 1
WidescreenStoryboard: 1

[Editor]
Bookmarks: 16059,46295,76531
DistanceSpacing: 0.5
BeatDivisor: 4
GridSize: 4
TimelineZoom: 1.8

[Metadata]
Title:MyonMyonMyonMyonMyonMyon!
TitleUnicode:MyonMyonMyonMyonMyonMyon!
Artist:3L
ArtistUnicode:3L
Creator:Len
Version:11t's Extra
Source:東方Project
Tags:ムソウマテリアライズ 11t Fast project_railgun K_i_A_i touhou Chaoslitz 東方妖々夢 ~ Ancient Temple やまざきさやか Shibayan ShibayanRecords
BeatmapID:920984
BeatmapSetID:426542

[Difficulty]
HPDrainRate:5
CircleSize:4
OverallDifficulty:7
ApproachRate:9.1
SliderMultiplier:3
SliderTickRate:1

[Events]
//Background and Video events
0,0,"pink.jpg",0,0
//Break Periods
//Storyboard Layer 0 (Background)
//Storyboard Layer 1 (Fail)
//Storyboard Layer 2 (Pass)
//Storyboard Layer 3 (Foreground)
//Storyboard Sound Samples

[TimingPoints]
964,472.44094488189,4,1,0,100,1,0
16082,-100,4,2,1,80,0,0
17026,-100,4,2,2,80,0,1
17381,-100,4,2,1,80,0,0
19389,-111.111111111111,4,2,1,80,0,0
19861,-100,4,2,1,80,0,0
26475,-71.4285714285714,4,2,1,80,0,1
26948,-100,4,2,1,80,0,0
34507,-111.111111111111,4,2,1,80,0,0
34979,-100,4,2,1,80,0,0
38523,-71.4285714285714,4,2,1,80,0,0
38759,-100,4,2,1,80,0,0
41593,-71.4285714285714,4,2,1,80,0,0
41830,-100,4,2,1,80,0,0
43483,-133.333333333333,4,2,1,80,0,0
43956,-100,4,2,1,80,0,0
46318,-71.4285714285714,4,2,2,60,0,1
46436,-100,4,2,1,60,0,1
46554,-71.4285714285714,4,2,1,60,0,1
46672,-100,4,2,1,60,0,1
47263,-71.4285714285714,4,2,1,60,0,1
47381,-100,4,2,1,60,0,1
47735,-166.666666666667,4,2,1,60,0,1
47971,-71.4285714285714,4,2,1,60,0,1
48089,-100,4,2,1,60,0,1
48444,-71.4285714285714,4,2,1,60,0,1
48562,-100,4,2,1,60,0,1
48916,-100,4,2,1,65,0,1
49152,-71.4285714285714,4,2,1,60,0,1
49271,-100,4,2,1,60,0,1
49389,-71.4285714285714,4,2,1,60,0,1
49507,-100,4,2,1,60,0,1
49861,-125,4,2,1,70,0,1
49979,-125,4,2,1,60,0,1
50097,-71.4285714285714,4,2,1,60,0,1
50215,-100,4,2,1,60,0,1
50570,-125,4,2,1,60,0,1
50806,-100,4,2,1,60,0,1
51042,-71.4285714285714,4,2,1,60,0,1
51160,-100,4,2,1,60,0,1
51751,-100,4,2,2,60,0,1
52460,-100,4,2,1,60,0,1
53877,-71.4285714285714,4,2,1,60,0,1
54349,-100,4,2,1,60,0,1
54822,-71.4285714285714,4,2,1,60,0,1
55058,-100,4,2,1,60,0,1
55294,-166.666666666667,4,2,1,60,0,1
55530,-71.4285714285714,4,2,1,60,0,1
56239,-100,4,2,1,60,0,1
56712,-71.4285714285714,4,2,1,60,0,1
57184,-125,4,2,1,60,0,1
57656,-71.4285714285714,4,2,1,60,0,1
58129,-100,4,2,1,60,0,1
58601,-66.6666666666667,4,2,1,60,0,1
58838,-100,4,2,1,60,0,1
59310,-83.3333333333333,4,2,1,60,0,1
59782,-76.9230769230769,4,2,1,60,0,1
60019,-166.666666666667,4,2,1,60,0,0
61436,-71.4285714285714,4,2,2,60,0,1
61554,-71.4285714285714,4,2,1,60,0,1
61908,-100,4,2,1,60,0,1
62381,-71.4285714285714,4,2,1,60,0,1
62617,-100,4,2,1,60,0,1
62853,-50,4,2,1,60,0,1
63089,-71.4285714285714,4,2,1,60,0,1
63798,-100,4,2,1,60,0,1
64034,-100,4,2,1,60,0,1
64271,-100,4,2,1,60,0,1
64979,-125,4,2,1,60,0,1
65215,-71.4285714285714,4,2,1,60,0,1
65688,-100,4,2,1,60,0,1
66160,-71.4285714285714,4,2,1,60,0,1
66397,-100,4,2,1,60,0,1
66869,-100,4,2,2,60,0,1
67578,-100,4,2,1,60,0,1
68995,-71.4285714285714,4,2,1,60,0,1
69231,-66.6666666666667,4,2,1,60,0,1
69467,-100,4,2,1,60,0,1
69940,-71.4285714285714,4,2,1,60,0,1
70176,-100,4,2,1,60,0,1
70649,-71.4285714285714,4,2,1,60,0,1
71357,-100,4,2,1,60,0,1
71830,-71.4285714285714,4,2,1,60,0,1
72302,-100,4,2,1,60,0,1
72775,-71.4285714285714,4,2,1,60,0,1
73247,-100,4,2,1,60,0,1
73719,-71.4285714285714,4,2,1,60,0,1
73956,-100,4,2,1,60,0,1
74901,-71.4285714285714,4,2,1,60,0,1
75373,-100,4,2,1,60,0,1
75609,-90.9090909090909,4,2,1,60,0,1
76436,-100,4,2,1,60,0,0
76554,-100,4,2,1,60,0,1
76672,-100,4,2,1,60,0,0

[Colours]
Combo1 : 216,114,137
Combo2 : 200,200,200
Combo3 : 30,160,70

[HitObjects]
180,168,16082,38,0,P|220:168|268:152,1,75
416,116,16318,2,0,P|376:116|328:132,1,75,2|0,0:0|0:0,0:0:0:0:
180,168,16554,2,0,L|192:248,1,75,8|0,0:0|0:0,0:0:0:0:
354,200,16790,2,0,L|342:120,1,75,4|0,0:3|0:0,0:0:0:0:
116,292,17027,2,0,P|192:332|280:232,1,225,6|0,0:0|0:0,0:0:0:0:
260,84,17499,2,0,L|264:168,1,75,10|0,0:0|0:0,0:0:0:0:
107,299,17735,6,0,P|195:343|290:249,1,225,6|0,0:0|0:0,0:0:0:0:
427,214,18208,2,0,P|391:210|351:198,1,75,4|0,0:0|0:0,0:0:0:0:
328,60,18444,2,0,P|304:96|260:128,1,75,8|0,0:0|0:0,0:0:0:0:
128,160,18680,2,0,L|24:176,1,75,2|0,0:0|0:0,0:0:0:0:
184,16,18916,2,0,L|188:112,1,75,4|0,0:0|0:0,0:0:0:0:
224,320,19153,2,0,L|220:245,1,75,4|0,0:0|0:0,0:0:0:0:
128,160,19389,6,0,L|279:176,1,134.999995880127,8|0,0:0|0:0,0:1:0:0:
432,264,19861,54,0,L|344:268,1,75,4|0,0:0|0:0,0:0:0:0:
148,292,20097,2,0,L|222:288,1,75,4|0,0:0|0:0,0:0:0:0:
364,188,20334,2,0,L|376:80,1,75,8|0,0:0|0:0,0:0:0:0:
231,214,20570,2,0,L|219:322,1,75
380,36,20806,1,6,0:0:0:0:
380,36,21279,6,0,L|276:52,1,75,8|0,0:0|0:0,0:0:0:0:
152,128,21515,2,0,P|172:96|176:36,1,75,4|0,0:0|0:0,0:0:0:0:
306,48,21751,2,0,L|302:140,1,75
86,164,21987,2,0,L|152:128,1,75,4|0,0:0|0:0,0:0:0:0:
371,151,22223,2,0,P|339:131|302:122,1,75,8|0,0:0|0:0,0:0:0:0:
180,268,22460,2,0,B|228:252|228:252|268:216,1,75,2|0,0:0|0:0,0:0:0:0:
380,232,22696,6,0,L|392:316,1,75,4|0,0:0|0:0,0:0:0:0:
476,248,22932,2,0,L|524:224,1,37.5,2|2,0:0|0:0,0:0:0:0:
468,212,23050,2,0,L|516:188,1,37.5,2|2,0:0|0:0,0:0:0:0:
460,176,23168,2,0,P|384:140|284:244,1,225,12|0,0:0|0:0,0:0:0:0:
196,360,23641,6,0,P|216:332|220:280,1,75,6|0,0:0|0:0,0:0:0:0:
216,108,23877,2,0,L|220:200,1,75,2|0,0:0|0:0,0:0:0:0:
136,300,24113,2,0,B|96:296|96:296|52:300,1,75,10|0,0:0|0:0,0:0:0:0:
141,109,24349,2,0,B|181:105|181:105|225:109,1,75,2|0,0:0|0:0,0:0:0:0:
304,256,24586,1,6,0:0:0:0:
304,256,25058,6,0,B|364:268|364:268|388:296,1,75,10|0,0:0|0:0,0:0:0:0:
448,355,25294,2,0,P|373:239|433:167,1,225,6|0,0:0|0:0,0:0:0:0:
376,68,25767,2,0,L|288:80,1,75,4|0,0:0|0:0,0:0:0:0:
140,108,26003,2,0,P|151:143|148:180,1,75,8|0,0:0|0:0,0:0:0:0:
48,272,26239,2,0,L|124:260,1,75
236,164,26475,6,0,P|228:116|232:48,1,104.999996795654,6|0,0:0|0:0,0:0:0:0:
452,186,26712,2,0,P|413:221|363:233,1,104.999996795654,4|0,0:0|0:0,0:0:0:0:
208,352,26948,6,0,L|220:252,1,75,8|0,0:0|0:0,0:0:0:0:
376,68,27184,2,0,L|364:168,1,75
151,263,27420,6,0,L|243:227,1,75,4|0,0:0|0:0,0:0:0:0:
432,200,27656,2,0,L|348:232,1,75,4|0,0:0|0:0,0:0:0:0:
220,236,27893,2,0,P|236:192|232:136,1,75,8|0,0:0|0:0,0:0:0:0:
144,92,28129,2,0,P|112:116|48:140,1,75
376,144,28365,1,6,0:0:0:0:
376,144,28838,6,0,L|348:248,1,75,8|0,0:0|0:0,0:0:0:0:
368,364,29074,2,0,B|340:322|341:256|341:256|309:314|264:336,1,225,4|0,0:0|0:0,0:0:0:0:
120,328,29546,2,0,P|152:320|196:292,1,75,4|0,0:0|0:0,0:0:0:0:
204,88,29782,2,0,P|226:118|274:142,1,75,12|0,0:0|0:0,0:0:0:0:
376,144,30019,2,0,P|351:171|332:203,1,75,0|0,0:0|0:0,0:0:0:0:
276,300,30255,6,0,L|236:228,1,75,4|0,0:0|0:0,0:0:0:0:
128,56,30491,2,0,L|128:156,1,75,8|0,0:3|0:0,0:0:0:0:
100,248,30727,2,0,B|124:146|112:44|112:44|136:60,1,225,12|0,0:0|0:0,0:0:0:0:
204,88,31141,1,2,0:0:0:0:
204,88,31200,6,0,P|240:88|300:56,1,75,4|0,0:0|0:0,0:0:0:0:
400,16,31436,2,0,L|364:108,1,75
340,240,31672,2,0,L|376:148,1,75,8|0,0:0|0:0,0:0:0:0:
484,112,31908,2,0,L|448:204,1,75
392,344,32145,2,0,P|367:266|224:228,1,225,6|0,0:0|0:0,0:0:0:0:
193,165,32617,2,0,L|242:223,1,75,8|0,0:0|0:0,0:0:0:0:
392,344,32853,6,0,P|336:300|192:356,1,225,6|0,0:0|0:0,0:0:0:0:
152,284,33326,2,0,L|201:342,1,75,4|0,0:0|0:0,0:0:0:0:
108,160,33562,2,0,B|68:161|68:161|28:156,1,75,10|0,0:0|0:0,0:0:0:0:
256,100,33798,2,0,B|294:98|294:98|336:104,1,75,2|0,0:0|0:0,0:0:0:0:
460,32,34034,2,0,L|436:144,1,75,4|0,0:0|0:0,0:0:0:0:
368,272,34271,2,0,L|392:160,1,75,4|0,0:0|0:0,0:0:0:0:
287,199,34507,6,0,P|223:219|160:184,1,134.999995880127,8|0,0:0|0:3,0:1:0:0:
368,272,34979,6,0,L|392:160,1,75,4|0,0:0|0:0,0:0:0:0:
352,64,35216,2,0,P|320:80|260:88,1,75,4|0,0:0|0:0,0:0:0:0:
48,220,35452,2,0,P|80:232|140:300,1,75,8|0,0:0|0:0,0:0:0:0:
144,156,35688,2,0,L|172:60,1,75
88,344,35924,1,4,0:0:0:0:
88,344,36397,6,0,L|184:356,1,75,8|0,0:0|0:0,0:0:0:0:
192,172,36633,2,0,P|240:173|300:180,1,75,4|0,0:0|0:0,0:0:0:0:
240,264,36869,2,0,P|283:266|348:264,1,75
96,87,37105,2,0,P|144:92|192:93,1,75,4|0,0:0|0:0,0:0:0:0:
40,240,37342,2,0,P|100:232|132:232,1,75,8|0,0:0|0:0,0:0:0:0:
256,108,37578,2,0,P|312:104|360:92,1,75,4|0,0:0|0:0,0:0:0:0:
296,248,37814,6,0,L|312:324,1,75,4|0,0:0|0:0,0:0:0:0:
444,116,38050,2,0,L|464:147,1,37.5,2|2,0:0|0:0,0:0:0:0:
428,152,38168,2,0,L|439:187,1,37.5,2|2,0:0|0:0,0:0:0:0:
412,188,38286,2,0,L|404:262,1,75,8|0,0:0|0:0,0:0:0:0:
332,120,38523,2,0,B|346:42|346:42|312:56,1,104.999996795654,2|0,0:0|0:0,0:0:0:0:
144,88,38759,6,0,P|180:80|232:44,1,75,4|0,0:0|0:0,0:0:0:0:
128,192,38995,2,0,P|92:200|36:240,1,75,4|0,0:0|0:0,0:0:0:0:
160,356,39231,2,0,L|128:284,1,75,8|0,0:0|0:0,0:0:0:0:
236,164,39467,2,0,P|232:208|208:260,1,75,4|0,0:3|0:0,0:0:0:0:
344,344,39704,2,0,L|332:104,1,225,4|0,0:0|0:0,0:0:0:0:
472,180,40176,6,0,L|428:256,1,75,8|0,0:0|0:0,0:0:0:0:
228,60,40412,1,4,0:0:0:0:
228,60,40885,6,0,L|156:144,1,75,4|0,0:0|0:0,0:0:0:0:
48,40,41121,2,0,L|148:48,1,75,8|0,0:0|0:0,0:0:0:0:
202,222,41357,2,0,L|128:220,1,75,8|0,0:3|0:0,0:0:0:0:
312,268,41593,6,0,P|340:208|328:144,1,104.999996795654,4|0,0:0|0:0,0:0:0:0:
147,147,41830,6,0,L|123:239,1,75,4|0,0:0|0:0,0:0:0:0:
339,171,42066,2,0,L|299:95,1,75,8|0,0:0|0:0,0:0:0:0:
44,256,42302,2,0,P|104:306|196:280,2,150,6|4|4,0:0|0:0|0:0,0:0:0:0:
216,52,43011,5,8,0:0:0:0:
280,348,43247,2,0,L|260:264,1,75,6|0,0:3|0:0,0:0:0:0:
301,199,43424,1,2,0:0:0:0:
301,199,43483,6,0,B|341:171|341:171|317:143|257:147|237:207,1,168.750006437302,4|0,0:0|0:0,0:0:0:0:
128,80,43956,6,0,L|196:144,1,75,8|0,0:0|0:0,0:0:0:0:
381,96,44192,2,0,P|275:72|182:131,1,225,4|0,0:0|0:0,0:0:0:0:
152,264,44664,2,0,P|144:312|132:344,1,75,14|0,0:0|0:0,0:0:0:0:
32,176,44901,2,0,L|128:188,1,75,14|0,0:0|0:0,0:0:0:0:
376,196,45137,2,0,L|276:200,1,75,2|0,0:0|0:0,0:0:0:0:
152,264,45373,6,0,L|60:272,1,75,14|0,0:0|0:0,0:0:0:0:
388,276,45609,2,0,L|472:292,1,75,10|0,0:3|0:0,0:0:0:0:
272,332,45845,2,0,B|260:364|232:344|232:344|228:196|228:196|208:172,1,225,14|0,0:0|0:0,0:0:0:0:
144,76,46259,1,2,0:0:0:0:
144,76,46318,6,0,P|194:95|276:80,1,104.999996795654,6|0,0:0|0:0,0:0:0:0:
388,56,46554,2,0,B|396:32|396:32|284:44,1,104.999996795654,4|0,0:0|0:0,0:0:0:0:
68,20,46790,2,0,P|52:60|60:112,1,75,14|0,0:0|0:0,0:0:0:0:
56,276,47027,1,8,0:3:0:0:
56,276,47145,1,4,0:3:0:0:
56,276,47263,6,0,P|84:232|80:172,1,104.999996795654,4|0,0:0|0:0,0:0:0:0:
144,76,47499,2,0,L|172:160,1,75,2|0,0:3|0:0,0:0:0:0:
0,320,47735,2,0,L|48:312,1,44.999998626709,10|0,0:0|0:0,0:0:0:0:
208,240,47971,6,0,P|284:272|408:220,1,209.999993591309,4|0,0:0|0:0,0:0:0:0:
399,230,48444,6,0,B|432:309|432:309|412:345,1,104.999996795654,4|0,0:0|0:0,0:0:0:0:
340,128,48680,2,0,L|413:141,1,75,8|0,0:0|0:0,0:0:0:0:
184,144,48916,5,2,0:0:0:0:
196,116,49034,1,2,0:0:0:0:
224,32,49153,2,0,P|280:44|336:40,1,104.999996795654,6|0,0:0|0:0,0:0:0:0:
108,104,49389,2,0,P|56:100|4:128,1,104.999996795654,4|0,0:0|0:0,0:0:0:0:
60,316,49625,6,0,P|80:260|60:180,1,112.5,10|0,0:0|0:0,0:0:0:0:
74,208,49861,2,0,L|139:236,1,60,8|0,0:3|0:0,0:0:0:0:
336,296,50097,6,0,B|300:292|300:292|220:308,1,104.999996795654,4|0,0:0|0:0,0:0:0:0:
405,189,50334,2,0,B|432:192|432:192|480:184,1,75,4|0,0:0|0:0,0:0:0:0:
438,292,50570,2,0,L|432:352,1,60,8|0,0:0|0:0,0:0:0:0:
452,88,50806,1,4,0:3:0:0:
452,88,50924,1,8,0:3:0:0:
452,88,51042,6,0,B|360:80|360:80|344:48,1,104.999996795654,4|0,0:0|0:0,0:0:0:0:
200,124,51279,2,0,P|240:124|280:108,1,75
128,200,51515,2,0,B|92:196|92:196|52:200,1,75,8|0,0:0|0:0,0:0:0:0:
36,36,51751,1,6,0:0:0:0:
472,352,52223,5,6,0:0:0:0:
360,128,52460,2,0,L|288:188,1,75,8|0,0:0|0:0,0:0:0:0:
172,276,52696,2,0,L|248:292,1,75,2|0,0:0|0:0,0:0:0:0:
303,176,52932,6,0,P|233:201|160:191,1,150,4|0,0:0|0:0,0:0:0:0:
344,48,53286,1,10,0:3:0:0:
390,202,53405,2,0,B|364:220|364:220|247:199,1,150,12|0,0:0|0:0,0:0:0:0:
120,80,53759,1,0,0:0:0:0:
120,80,53877,6,0,P|72:104|44:160,1,104.999996795654,4|0,0:0|0:0,0:0:0:0:
68,336,54113,2,0,B|84:260|84:260|56:216,1,104.999996795654,4|0,0:0|0:0,0:0:0:0:
232,16,54349,2,0,L|240:124,1,75,8|0,0:0|0:0,0:0:0:0:
256,256,54586,1,4,0:3:0:0:
232,236,54704,1,8,0:3:0:0:
328,156,54822,6,0,P|372:140|448:152,1,104.999996795654,4|0,0:0|0:0,0:0:0:0:
488,292,55058,2,0,L|388:300,1,75,2|0,0:3|0:0,0:0:0:0:
464,68,55294,2,0,L|484:0,1,44.999998626709,10|0,0:0|0:0,0:0:0:0:
256,108,55530,6,0,L|36:132,1,209.999993591309,4|0,0:0|0:0,0:0:0:0:
47,131,56003,6,0,P|62:179|55:244,1,104.999996795654,4|0,0:0|0:0,0:0:0:0:
136,380,56239,2,0,L|148:292,1,75,8|0,0:0|0:0,0:0:0:0:
212,132,56475,1,2,0:0:0:0:
224,104,56593,1,2,0:0:0:0:
264,208,56712,6,0,P|304:236|376:240,1,104.999996795654,4|0,0:0|0:0,0:0:0:0:
512,164,56948,2,0,P|460:152|408:164,1,104.999996795654,4|0,0:0|0:0,0:0:0:0:
272,344,57184,6,0,L|260:152,1,180,10|0,0:0|0:0,0:0:0:0:
96,288,57656,6,0,B|184:296|184:296|172:332,1,104.999996795654,4|0,0:0|0:0,0:0:0:0:
352,268,57893,2,0,B|432:280|432:280|464:224,1,104.999996795654,4|0,0:0|0:0,0:0:0:0:
440,72,58129,2,0,L|376:136,1,75,8|0,0:0|0:0,0:0:0:0:
272,344,58365,1,8,0:3:0:0:
260,316,58483,1,4,0:3:0:0:
176,224,58601,6,0,B|176:172|148:144|148:144|112:200,1,112.500004291535,4|0,0:0|0:0,0:0:0:0:
306,81,58838,2,0,B|269:77|269:77|231:79,1,75,2|0,0:0|0:0,0:0:0:0:
59,167,59074,2,0,B|92:168|92:168|133:165,1,75,10|0,0:0|0:0,0:0:0:0:
373,152,59310,6,0,B|356:182|321:182|321:182|304:247|304:247|250:265|204:225|215:157,1,269.999991760254,4|0,0:0|0:0,0:0:0:0:
449,104,59782,2,0,P|461:148|444:209,1,97.4999955368044,4|0,0:0|0:0,0:0:0:0:
260,352,60019,1,4,0:0:0:0:
56,52,60491,1,6,0:0:0:0:
456,52,60964,1,14,0:0:0:0:
164,48,61436,6,0,B|240:28|240:28|276:32,1,104.999996795654,6|0,0:0|0:0,0:0:0:0:
36,152,61672,2,0,B|128:140|128:140|156:116,1,104.999996795654,4|0,0:0|0:0,0:0:0:0:
304,112,61908,2,0,P|272:116|216:104,1,75,8|0,0:0|0:0,0:0:0:0:
212,288,62145,1,4,0:3:0:0:
212,288,62263,1,8,0:3:0:0:
212,288,62381,6,0,L|316:284,1,104.999996795654,4|0,0:0|0:0,0:0:0:0:
272,116,62617,2,0,L|260:220,1,75,2|0,0:3|0:0,0:0:0:0:
96,312,62853,6,0,B|120:300|120:300|216:320|216:320|264:304,1,150,10|0,0:0|0:0,0:0:0:0:
420,344,63090,6,0,P|396:296|412:216,1,104.999996795654,4|0,0:0|0:0,0:0:0:0:
398,245,63562,2,0,L|432:104,1,104.999996795654,4|0,0:0|0:0,0:0:0:0:
232,44,63798,2,0,P|196:56|136:64,1,75,8|0,0:0|0:0,0:0:0:0:
236,192,64034,1,2,0:0:0:0:
264,176,64153,1,2,0:0:0:0:
422,143,64271,6,0,P|391:89|392:32,1,112.5,4|0,0:0|0:0,0:0:0:0:
390,40,64507,2,0,P|351:57|284:56,1,75,4|0,0:0|0:0,0:0:0:0:
200,288,64743,2,0,P|259:289|320:248,1,112.5,8|0,0:0|0:0,0:0:0:0:
304,264,64979,2,0,L|310:327,1,60,8|0,0:3|0:0,0:0:0:0:
88,236,65216,6,0,L|84:112,1,104.999996795654,4|0,0:0|0:0,0:0:0:0:
48,336,65452,2,0,L|52:220,1,104.999996795654,4|0,0:0|0:0,0:0:0:0:
304,264,65688,1,8,0:0:0:0:
168,88,65924,1,4,0:3:0:0:
168,88,66042,1,8,0:3:0:0:
168,88,66160,6,0,P|212:116|280:116,1,104.999996795654,4|0,0:0|0:0,0:0:0:0:
416,152,66397,2,0,L|328:164,1,75,2|0,0:3|0:0,0:0:0:0:
124,208,66633,2,0,L|208:224,1,75,8|0,0:0|0:0,0:0:0:0:
468,276,66869,1,6,0:0:0:0:
36,348,67342,5,6,0:0:0:0:
51,199,67578,2,0,P|87:199|139:215,1,75,8|0,0:0|0:0,0:0:0:0:
220,160,67814,2,0,L|224:244,1,75,6|0,0:0|0:0,0:0:0:0:
360,296,68050,6,0,P|408:256|432:164,1,150,4|0,0:0|0:0,0:0:0:0:
224,236,68405,1,8,0:3:0:0:
280,340,68523,2,0,P|333:339|426:210,1,225,14|0,0:0|0:0,0:0:0:0:
456,84,68936,1,2,0:0:0:0:
456,84,68995,6,0,L|512:188,1,104.999996795654,6|0,0:0|0:0,0:0:0:0:
320,132,69231,2,0,B|312:88|356:56|356:56|376:92,1,112.500004291535,4|0,0:0|0:0,0:0:0:0:
297,223,69467,2,0,P|265:235|193:227,1,75,8|0,0:0|0:0,0:0:0:0:
144,72,69704,1,4,0:3:0:0:
152,44,69822,1,8,0:3:0:0:
192,156,69940,6,0,P|153:185|140:248,1,104.999996795654,4|0,0:0|0:0,0:0:0:0:
316,296,70176,2,0,L|292:208,1,75,2|0,0:3|0:0,0:0:0:0:
400,248,70412,2,0,L|452:256,2,37.5,10|0|0,0:0|0:0|0:0,0:0:0:0:
216,304,70649,6,0,P|124:344|36:256,1,209.999993591309,4|0,0:0|0:0,0:0:0:0:
43,284,71121,6,0,P|61:229|36:160,1,104.999996795654,4|0,0:0|0:0,0:0:0:0:
24,72,71357,2,0,P|60:76|116:56,1,75,8|0,0:0|0:0,0:0:0:0:
212,44,71593,2,0,L|188:176,1,112.5,10|0,0:3|0:0,0:0:0:0:
192,155,71830,6,0,P|239:135|291:140,1,104.999996795654,4|0,0:0|0:0,0:0:0:0:
388,188,72066,2,0,B|436:196|460:168|460:168|416:132,1,104.999996795654,4|0,0:0|0:0,0:0:0:0:
312,224,72302,2,0,L|284:332,1,112.5,10|0,0:0|0:0,0:0:0:0:
284,333,72538,2,0,P|246:328|198:340,1,75,10|0,0:3|0:0,0:0:0:0:
100,364,72775,6,0,P|104:315|96:260,1,104.999996795654,4|0,0:0|0:0,0:0:0:0:
32,184,73011,2,0,P|60:136|72:84,1,104.999996795654,4|0,0:0|0:0,0:0:0:0:
276,72,73247,2,0,L|184:80,1,75,8|0,0:0|0:0,0:0:0:0:
372,144,73483,1,2,0:0:0:0:
372,144,73601,1,2,0:0:0:0:
372,144,73719,6,0,P|392:88|376:36,1,104.999996795654,4|0,0:0|0:0,0:0:0:0:
240,172,73956,2,0,L|165:175,1,75,8|0,0:3|0:0,0:0:0:0:
412,232,74192,2,0,L|486:229,1,75,8|0,0:0|0:0,0:0:0:0:
216,312,74428,1,4,0:0:0:0:
216,312,74901,6,0,P|174:291|104:296,1,104.999996795654,4|0,0:0|0:0,0:0:0:0:
308,364,75137,2,0,P|320:316|300:244,1,104.999996795654,12|0,0:0|0:0,0:0:0:0:
208,92,75373,1,8,0:3:0:0:
180,76,75491,1,4,0:3:0:0:
316,128,75609,6,0,P|361:87|475:88,1,165.000005035401,12|2,0:0|0:3,0:0:0:0:
235,313,75964,1,8,0:3:0:0:
196,220,76082,2,0,P|150:179|36:180,1,165.000005035401,12|2,0:0|0:3,0:0:0:0:
298,237,76436,1,8,0:3:0:0:
252,73,76554,1,4,0:0:0:0:
