osu file format v14

[General]
AudioFilename: audio.mp3
AudioLeadIn: 0
PreviewTime: 72973
Countdown: 0
SampleSet: None
StackLeniency: 0.2
Mode: 0
LetterboxInBreaks: 0
WidescreenStoryboard: 0

[Editor]
Bookmarks: 17997,35749,45244,70978,108409,143638,178868
DistanceSpacing: 1
BeatDivisor: 4
GridSize: 4
TimelineZoom: 1

[Metadata]
Title:Maigo no echo
TitleUnicode:迷子のエコー
Artist:3L
ArtistUnicode:3L
Creator:Yoges
Version:Insane
Source:
Tags:echo of a lost child toho bossa nova
BeatmapID:1562738
BeatmapSetID:740784

[Difficulty]
HPDrainRate:6
CircleSize:4.3
OverallDifficulty:7
ApproachRate:9.4
SliderMultiplier:1.8
SliderTickRate:1

[Events]
//Background and Video events
0,0,"61201171_p2.png",0,0
//Break Periods
//Storyboard Layer 0 (Background)
//Storyboard Layer 1 (Fail)
//Storyboard Layer 2 (Pass)
//Storyboard Layer 3 (Foreground)
//Storyboard Sound Samples

[TimingPoints]
520,275.229357798165,4,3,0,60,1,0
520,-200,4,3,0,60,0,0
16896,275.229357798165,4,3,0,60,1,0
20198,-133.333333333333,4,3,0,60,0,0
22400,-100,4,3,0,60,0,0
24602,-133.333333333333,4,3,0,60,0,0
26804,-100,4,3,0,60,0,0
29006,-133.333333333333,4,3,0,60,0,0
31207,-100,4,3,0,60,0,0
33409,-133.333333333333,4,3,0,60,0,0
35749,275.229357798165,4,3,0,60,1,0
35749,-86.9565217391304,4,3,0,60,0,0
36849,-76.9230769230769,4,3,0,60,0,0
37950,-100,4,3,0,60,0,0
39051,-117.647058823529,4,3,0,60,0,0
40152,-100,4,3,0,60,0,0
41253,-86.9565217391304,4,3,0,60,0,0
42354,-100,4,3,0,60,0,0
44556,-86.9565217391304,4,3,0,60,0,0
45657,-76.9230769230769,4,3,0,60,0,0
46207,-86.9565217391304,4,3,0,60,0,0
46758,-100,4,3,0,60,0,0
47859,-117.647058823529,4,3,0,60,0,0
48409,-142.857142857143,4,3,0,60,0,0
48960,-86.9565217391304,4,3,0,60,0,0
50060,-100,4,3,0,60,0,0
51161,-117.647058823529,4,3,0,60,0,0
53363,-100,4,3,0,60,0,0
54464,-86.9565217391304,4,3,0,60,0,0
55565,-76.9230769230769,4,3,0,60,0,0

[Colours]
Combo1 : 230,206,151
Combo2 : 134,192,223
Combo3 : 227,185,164
Combo4 : 217,90,53

[HitObjects]
120,159,35749,6,0,B|225:118|217:192|321:150,1,207.000003948212
79,92,36161,2,0,P|47:130|46:181,1,103.500001974106
301,105,36437,2,0,P|350:112|369:158,1,103.500001974106
120,159,36712,1,0,0:0:0:0:
401,191,36849,6,0,P|380:84|271:75,1,233.999989288331
385,279,37262,5,0,0:0:0:0:
321,150,37400,2,0,P|367:105|418:103,1,116.999994644165
480,232,37675,2,0,P|442:273|385:279,1,116.999994644165
191,117,37950,6,0,L|217:295,1,180
205,384,38363,2,0,L|218:288,1,90
204,28,38638,2,0,L|191:117,1,90
204,206,38914,1,0,0:0:0:0:
280,101,39051,6,0,L|355:90,1,76.5000014591217
491,215,39326,6,0,L|481:290,1,76.5000014591217
425,131,39602,2,0,L|415:206,1,76.5000014591217
512,68,39877,2,0,L|502:143,1,76.5000014591217
431,356,40152,6,0,L|457:177,1,180
310,184,40565,6,0,P|271:206|251:246,1,90
73,215,40840,2,0,P|115:226|145:259,1,90
214,338,41115,1,0,0:0:0:0:
154,70,41253,6,0,B|266:48|233:115|354:90,1,207.000003948212
423,291,41666,6,0,P|382:260|331:260,1,103.500001974106
310,184,41941,2,0,P|267:211|250:259,1,103.500001974106
391,182,42216,1,0,0:0:0:0:
260,354,42354,6,0,P|218:276|244:192,1,180
159,100,42767,2,0,P|162:152|145:193,1,90
28,59,43042,2,0,P|59:90|75:132,1,90
66,221,43317,1,0,0:0:0:0:
337,73,43455,6,0,L|159:99,1,180
316,167,43868,1,0,0:0:0:0:
297,258,44005,2,0,L|207:245,1,90
152,308,44281,5,0,0:0:0:0:
330,332,44418,1,0,0:0:0:0:
26,365,44556,2,0,P|70:273|61:171,1,207.000003948212
160,245,44969,2,0,P|182:292|224:320,1,103.500001974106
140,56,45244,2,0,L|37:72,1,103.500001974106
143,153,45519,1,0,0:0:0:0:
397,5,45657,6,0,P|443:110|422:224,1,233.999989288331
421,224,46070,1,0,0:0:0:0:
407,211,46207,6,0,P|366:118|386:18,1,207.000003948212
386,17,46620,1,0,0:0:0:0:
289,149,46758,6,0,B|210:129|207:202|117:186,1,180
30,136,47171,2,0,L|120:149,1,90
267,233,47446,2,0,L|357:246,1,90
434,159,47721,1,0,0:0:0:0:
179,189,47859,6,0,P|171:264|193:337,1,153.000002918243
192,336,48271,1,0,0:0:0:0:
199,322,48409,6,0,P|205:259|188:199,1,125.999996154785
188,199,48822,1,0,0:0:0:0:
383,83,48960,6,0,P|361:182|402:275,1,207.000003948212
512,266,49372,2,0,P|471:234|442:191,1,103.500001974106
368,0,49648,2,0,P|324:28|296:75,1,103.500001974106
282,151,49923,1,0,0:0:0:0:
78,82,50060,6,0,P|152:104|207:200,1,180
281,239,50473,2,0,P|287:194|281:150,1,90
0,178,50748,2,0,P|47:159|105:170,1,90
57,254,51024,1,0,0:0:0:0:
362,214,51161,6,0,P|343:286|280:327,1,153.000002918243
209,257,51574,2,0,P|258:251|291:227,1,76.5000014591217
272,117,51849,2,0,P|251:161|218:181,1,76.5000014591217
189,103,52125,1,0,0:0:0:0:
9,205,52262,6,0,P|30:253|132:306,1,153.000002918243
147,297,52675,5,0,0:0:0:0:
74,268,52813,1,0,0:0:0:0:
32,204,52950,1,0,0:0:0:0:
15,128,53088,1,0,0:0:0:0:
31,53,53226,1,0,0:0:0:0:
