osu file format v14

[General]
AudioFilename: parasol.mp3
AudioLeadIn: 1000
PreviewTime: 115136
Countdown: 0
SampleSet: Soft
StackLeniency: 0.2
Mode: 0
LetterboxInBreaks: 0
WidescreenStoryboard: 1

[Editor]
DistanceSpacing: 1
BeatDivisor: 16
GridSize: 4
TimelineZoom: 1.300006

[Metadata]
Title:Macrophylla Parasol
TitleUnicode:マクロフィラパラソル
Artist:3L
ArtistUnicode:3L
Creator:pimpG
Version:Lunatic
Source:東方風神録 ~ Mountain of Faith.
Tags:taikosu xxheroxx Diasios Touhou Momiji Inubashiri NJK Records ZUN TH10 MoF makuro fira makurofira parasoru Fuujinroku Eastern Wind God Chronicles Fall Autumnal Waterfall Stage 4 midboss Pizuya Cell Rising Star godwood YAMAGEN
BeatmapID:1489084
BeatmapSetID:483344

[Difficulty]
HPDrainRate:6.6
CircleSize:5
OverallDifficulty:7
ApproachRate:8
SliderMultiplier:1.84
SliderTickRate:4

[Events]
//Background and Video events
0,0,"BG.jpg",0,0
//Break Periods
2,30590,43704
2,148972,158931
2,243517,253476
//Storyboard Layer 0 (Background)
//Storyboard Layer 1 (Fail)
//Storyboard Layer 2 (Pass)
//Storyboard Layer 3 (Foreground)
Sprite,Foreground,Centre,"Pulse.png",320,240 M,0,116044,,320,239 S,0,116044,,1 F,0,116044,116953,1,0 F,0,130589,131499,1,0 F,0,210589,211499,1,0 F,0,225135,226044,1,0 F,0,272408,273317,1,0 F,0,285135,286044,1,0
Sprite,Foreground,Centre,"Lyrics\1.png",320,240 M,0,71726,,443,457 S,0,71726,,0.8560001 F,0,71726,71840,0.14,1 F,0,71929,78771,1 F,0,78771,78885,1,0.16
Sprite,Foreground,Centre,"Lyrics\2.png",320,240 M,0,78999,,404,456 S,0,78999,,0.8560001 F,0,78999,79112,0,1 F,0,79163,85249,1 F,0,85300,85362,1,0
Sprite,Foreground,Centre,"Lyrics\3.png",320,240 M,0,86044,,391,456 S,0,86044,,0.8560001 F,0,86044,86158,0,1 F,0,86158,92408,1 F,0,92408,92521,1,0
Sprite,Foreground,Centre,"Lyrics\4.png",320,240 M,0,92862,,443,456 S,0,92862,,0.8560001 F,0,92862,92976,0,1 F,0,93027,99908,1 F,0,99959,100021,1,0
Sprite,Foreground,Centre,"Lyrics\5.png",320,240 M,0,101499,,419,456 S,0,101499,,0.8560001 F,0,101499,101612,0,1 F,0,101612,107976,1 F,0,107976,108089,1,0
Sprite,Foreground,Centre,"Lyrics\6.png",320,240 M,0,108771,,483,456 S,0,108771,,0.8560001 F,0,108771,108885,0,1 F,0,108885,115135,1 F,0,115135,115249,1,0
Sprite,Foreground,Centre,"Lyrics\7.png",320,240 M,0,115362,,456,456 S,0,115362,,0.8560001 F,0,115362,115476,0,1 F,0,115476,123089,1 F,0,123089,123203,1,0
Sprite,Foreground,Centre,"Lyrics\8.png",320,240 M,0,123317,,469,456 S,0,123317,,0.8560001 F,0,123317,123430,0,1 F,0,123430,129680,1 F,0,129680,129794,1,0
Sprite,Foreground,Centre,"Lyrics\9.png",320,240 M,0,129908,,456,455 S,0,129908,,0.8560001 F,0,129908,130021,0,1 F,0,130021,137635,1 F,0,137635,137749,1,0
Sprite,Foreground,Centre,"Lyrics\10.png",320,240 M,0,137862,,390,455 S,0,137862,,0.8560001 F,0,137862,137976,0,1 F,0,137976,145135,1 F,0,145135,148771,1,0
Sprite,Foreground,Centre,"Lyrics\11.png",320,240 M,0,166271,,457,456 S,0,166271,,0.8560001 F,0,166271,166385,0,1 F,0,166385,173317,1 F,0,173317,173430,1,0
Sprite,Foreground,Centre,"Lyrics\12.png",320,240 M,0,173544,,393,456 S,0,173544,,0.8560001 F,0,173544,173658,0,1 F,0,173658,180135,1 F,0,180135,180249,1,0
Sprite,Foreground,Centre,"Lyrics\13.png",320,240 M,0,180589,,380,456 S,0,180589,,0.8560001 F,0,180589,180703,0,1 F,0,180703,186953,1 F,0,186953,187067,1,0
Sprite,Foreground,Centre,"Lyrics\14.png",320,240 M,0,187408,,431,456 S,0,187408,,0.8560001 F,0,187408,187521,0,1 F,0,187521,194226,1 F,0,194226,194339,1,0
Sprite,Foreground,Centre,"Lyrics\15.png",320,240 M,0,196044,,457,456 S,0,196044,,0.8560001 F,0,196044,196158,0,1 F,0,196158,202408,1 F,0,202408,202521,1,0
Sprite,Foreground,Centre,"Lyrics\16.png",320,240 M,0,203317,,470,456 S,0,203317,,0.8560001 F,0,203317,203430,0,1 F,0,203430,209680,1 F,0,209680,209794,1,0
Sprite,Foreground,Centre,"Lyrics\17.png",320,240 M,0,209908,,469,456 S,0,209908,,0.8560001 F,0,209908,210021,0,1 F,0,210021,217635,1 F,0,217635,217749,1,0
Sprite,Foreground,Centre,"Lyrics\18.png",320,240 M,0,217862,,456,456 S,0,217862,,0.8560001 F,0,217862,218976,0,1 F,0,217976,224226,1 F,0,224226,224339,1,0
Sprite,Foreground,Centre,"Lyrics\19.png",320,240 M,0,224453,,431,455 S,0,224453,,0.8560001 F,0,224453,224567,0,1 F,0,224567,232180,1 F,0,232180,232294,1,0
Sprite,Foreground,Centre,"Lyrics\20.png",320,240 M,0,232408,,403,455 S,0,232408,,0.8560001 F,0,232408,232521,0,1 F,0,232521,239680,1 F,0,239680,243317,1,0
Sprite,Foreground,Centre,"Lyrics\15.png",320,240 M,0,254112,,457,455 S,0,254112,,0.8560001 F,0,254112,254226,0,1 F,0,254226,260589,1 F,0,260589,260703,1,0
Sprite,Foreground,Centre,"Lyrics\16.png",320,240 M,0,261499,,470,455 S,0,261499,,0.8560001 F,0,261499,261612,0,1 F,0,261612,269680,1 F,0,269680,269794,1,0
Sprite,Foreground,Centre,"Lyrics\7.png",320,240 M,0,269908,,456,456 S,0,269908,,0.8560001 F,0,269908,270021,0,1 F,0,270021,277635,1 F,0,277635,277749,1,0
Sprite,Foreground,Centre,"Lyrics\8.png",320,240 M,0,277862,,469,456 S,0,277862,,0.8560001 F,0,277862,277976,0,1 F,0,277976,284226,1 F,0,284226,284339,1,0
Sprite,Foreground,Centre,"Lyrics\9.png",320,240 M,0,284453,,456,455 S,0,284453,,0.8560001 F,0,284453,284567,0,1 F,0,284567,292180,1 F,0,292180,292294,1,0
Sprite,Foreground,Centre,"Lyrics\10.png",320,240 M,0,292408,,390,455 S,0,292408,,0.8560001 F,0,292408,292521,0,1 F,0,292521,299680,1 F,0,299680,303317,1,0
//Storyboard Sound Samples

[TimingPoints]
1500,454.545454545455,4,2,1,25,1,0
1611,-100,4,2,1,8,0,0
1640,-100,4,2,1,25,0,0
1838,-100,4,2,1,8,0,0
1867,-100,4,2,1,25,0,0
3657,-100,4,2,1,8,0,0
3685,-100,4,2,1,25,0,0
3884,-100,4,2,1,8,0,0
3912,-100,4,2,1,25,0,0
5248,-100,4,2,1,8,0,0
5276,-100,4,2,1,25,0,0
5475,-100,4,2,1,8,0,0
5503,-100,4,2,1,25,0,0
6838,-100,4,2,1,8,0,0
7975,-100,4,2,1,25,0,0
8202,-100,4,2,1,8,0,0
8230,-100,4,2,1,25,0,0
8429,-100,4,2,1,8,0,0
8458,-100,4,2,1,25,0,0
9537,-100,4,2,1,5,0,0
9821,-100,4,2,1,25,0,0
11355,-100,4,2,1,5,0,0
11640,-100,4,2,1,25,0,0
12520,-100,4,2,1,8,0,0
15248,-100,4,2,1,25,0,0
16157,-100,4,2,1,8,0,0
16185,-100,4,2,1,25,0,0
16384,-100,4,2,1,8,0,0
16412,-100,4,2,1,25,0,0
18202,-100,4,2,1,8,0,0
18230,-100,4,2,1,25,0,0
18429,-100,4,2,1,8,0,0
18458,-100,4,2,1,25,0,0
19793,-100,4,2,1,8,0,0
19821,-100,4,2,1,25,0,0
20020,-100,4,2,1,8,0,0
20049,-100,4,2,1,25,0,0
22748,-100,4,2,1,8,0,0
22776,-100,4,2,1,25,0,0
22975,-100,4,2,1,8,0,0
23003,-100,4,2,1,25,0,0
24083,-100,4,2,1,5,0,0
24367,-100,4,2,1,25,0,0
25901,-100,4,2,1,5,0,0
26185,-100,4,2,1,25,0,0
27066,-100,4,2,1,8,0,0
30588,-100,4,2,1,25,0,0
44566,-100,4,2,1,8,0,0
44594,-100,4,2,1,25,0,0
45020,-100,4,2,1,8,0,0
45049,-100,4,2,1,25,0,0
46384,-100,4,2,1,8,0,0
46412,-100,4,2,1,25,0,0
46611,-100,4,2,1,8,0,0
46640,-100,4,2,1,25,0,0
47066,-100,4,2,1,8,0,0
47094,-100,4,2,1,25,0,0
47293,-100,4,2,1,8,0,0
47321,-100,4,2,1,25,0,0
48884,-100,4,2,1,8,0,0
48912,-100,4,2,1,25,0,0
49111,-100,4,2,1,8,0,0
49140,-100,4,2,1,25,0,0
49537,-100,4,2,1,8,0,0
49821,-100,4,2,1,25,0,0
50248,-100,4,2,1,8,0,0
50276,-100,4,2,1,25,0,0
52520,-100,4,2,1,8,0,0
52549,-100,4,2,1,25,0,0
52975,-100,4,2,1,8,0,0
53003,-100,4,2,1,25,0,0
53657,-100,4,2,1,8,0,0
53685,-100,4,2,1,25,0,0
54338,-100,4,2,1,8,0,0
54367,-100,4,2,1,25,0,0
56157,-100,4,2,1,70,0,0
57634,-100,4,2,1,8,0,0
57861,-100,4,2,1,70,0,0
57863,454.545454545455,4,2,1,70,1,0
57974,-100,4,2,1,20,0,0
58003,-100,4,2,1,70,0,0
58628,-100,4,2,50,70,0,0
58656,-100,4,2,50,20,0,0
58684,-100,4,2,50,70,0,0
58741,-100,4,2,3,70,0,0
58770,-100,4,2,3,50,0,0
58798,-100,4,2,3,70,0,0
58855,-100,4,2,1,70,0,0
58883,-100,4,2,1,20,0,0
58912,-100,4,2,1,70,0,0
59792,-100,4,2,1,20,0,0
59821,-100,4,2,1,70,0,0
60361,-100,4,2,8,70,0,0
60446,-100,4,2,50,70,0,0
60474,-100,4,2,50,20,0,0
60503,-100,4,2,50,70,0,0
60559,-100,4,2,3,70,0,0
60588,-100,4,2,3,50,0,0
60616,-100,4,2,3,70,0,0
60673,-100,4,2,1,70,0,0
60701,-100,4,2,1,20,0,0
60730,-100,4,2,1,70,0,0
61611,-100,4,2,1,20,0,0
61639,-100,4,2,1,70,0,0
62264,-100,4,2,50,70,0,0
62292,-100,4,2,50,20,0,0
62321,-100,4,2,50,70,0,0
62378,-100,4,2,3,70,0,0
62406,-100,4,2,3,50,0,0
62434,-100,4,2,3,70,0,0
62491,-100,4,2,1,70,0,0
62520,-100,4,2,1,20,0,0
62548,-100,4,2,1,70,0,0
62974,-100,4,2,1,20,0,0
63003,-100,4,2,1,70,0,0
63997,-100,4,2,22,70,0,0
64082,-100,4,2,50,70,0,0
64111,-100,4,2,50,20,0,0
64139,-100,4,2,50,70,0,0
64196,-100,4,2,3,70,0,0
64224,-100,4,2,3,50,0,0
64253,-100,4,2,3,70,0,0
64309,-100,4,2,1,70,0,0
64338,-100,4,2,1,20,0,0
64366,-100,4,2,1,70,0,0
64679,-100,4,2,8,70,0,0
65218,-100,4,2,6,70,0,0
65247,-100,4,2,6,20,0,0
65503,-100,4,2,6,70,0,0
65588,-100,4,2,2,70,0,0
66156,-100,4,2,2,20,0,0
66412,-100,4,2,2,70,0,0
66497,-100,4,2,2,70,0,0
67065,-100,4,2,2,20,0,0
67406,-100,4,2,2,70,0,0
67633,-100,4,2,10,70,0,0
67861,-100,4,2,9,70,0,0
67974,-100,4,2,9,20,0,0
68003,-100,4,2,9,70,0,0
68429,-100,4,2,9,5,0,0
68457,-100,4,2,9,70,0,0
68486,-100,4,2,9,5,0,0
68514,-100,4,2,9,70,0,0
68883,-100,4,2,2,70,0,0
72406,-100,4,2,1,70,0,0
72520,-100,4,2,1,20,0,0
72662,-100,4,2,1,70,0,0
72832,-100,4,2,3,70,0,0
72861,-100,4,2,3,50,0,0
72889,-100,4,2,3,70,0,0
72946,-100,4,2,1,70,0,0
72974,-100,4,2,1,20,0,0
73003,-100,4,2,1,70,0,0
73855,-100,4,2,1,70,0,0
73883,-100,4,2,1,20,0,0
73912,-100,4,2,1,70,0,0
75020,-100,4,2,1,20,0,0
75048,-100,4,2,1,70,0,0
75105,-100,4,2,3,70,0,0
75133,-100,4,2,3,50,0,0
75162,-100,4,2,3,70,0,0
75218,-100,4,2,1,70,0,0
75247,-100,4,2,1,20,0,0
75275,-100,4,2,1,70,0,0
76156,-100,4,2,1,20,0,0
76412,-100,4,2,1,70,0,0
76497,-100,4,2,1,70,0,0
77378,-100,4,2,3,70,0,0
77406,-100,4,2,3,50,0,0
77434,-100,4,2,3,70,0,0
77520,-100,4,2,1,70,0,0
77633,-100,4,2,1,20,0,0
77662,-100,4,2,1,70,0,0
78429,-100,4,2,1,20,0,0
78684,-100,4,2,1,70,0,0
79792,-100,4,2,1,20,0,0
79821,-100,4,2,1,70,0,0
79906,-100,4,2,1,20,0,0
79934,-100,4,2,1,70,0,0
80247,-100,4,2,1,20,0,0
80275,-100,4,2,1,70,0,0
81611,-100,4,2,1,20,0,0
81639,-100,4,2,1,70,0,0
82292,-100,4,2,1,20,0,0
82321,-100,4,2,1,70,0,0
82378,-100,4,2,3,70,0,0
82406,-100,4,2,3,50,0,0
82434,-100,4,2,3,70,0,0
82491,-100,4,2,1,70,0,0
82520,-100,4,2,1,20,0,0
82548,-100,4,2,1,70,0,0
83429,-100,4,2,1,20,0,0
83457,-100,4,2,1,70,0,0
83542,-100,4,2,1,20,0,0
83571,-100,4,2,1,70,0,0
83628,-100,4,2,50,70,0,0
83656,-100,4,2,50,20,0,0
83684,-100,4,2,50,70,0,0
83770,-100,4,2,1,70,0,0
84111,-100,4,2,1,20,0,0
84139,-100,4,2,1,70,0,0
84196,-100,4,2,3,70,0,0
84224,-100,4,2,3,50,0,0
84253,-100,4,2,3,70,0,0
84309,-100,4,2,1,70,0,0
84338,-100,4,2,1,20,0,0
84366,-100,4,2,1,70,0,0
85247,-100,4,2,1,20,0,0
85588,-100,4,2,1,70,0,0
87065,-100,4,2,1,20,0,0
87292,-100,4,2,1,70,0,0
87520,-100,4,2,1,20,0,0
87548,-100,4,2,1,70,0,0
88201,-100,4,2,1,20,0,0
88230,-100,4,2,1,70,0,0
88883,-100,4,2,1,20,0,0
88912,-100,4,2,1,70,0,0
89565,-100,4,2,1,20,0,0
89593,-100,4,2,1,70,0,0
89650,-100,4,2,3,70,0,0
89679,-100,4,2,3,50,0,0
89707,-100,4,2,3,70,0,0
89764,-100,4,2,1,70,0,0
89792,-100,4,2,1,20,0,0
89821,-100,4,2,1,70,0,0
90105,-100,4,2,3,70,0,0
90133,-100,4,2,3,50,0,0
90162,-100,4,2,3,70,0,0
90247,-100,4,2,1,70,0,0
90361,-100,4,2,1,20,0,0
90389,-100,4,2,1,70,0,0
91611,-100,4,2,1,20,0,0
91639,-100,4,2,1,70,0,0
91724,-100,4,2,1,20,0,0
91753,-100,4,2,1,70,0,0
91838,-100,4,2,1,20,0,0
91866,-100,4,2,1,70,0,0
92974,-100,4,2,1,20,0,0
93003,-100,4,2,1,70,0,0
93400,-100,4,2,1,70,0,0
93429,-100,4,2,1,20,0,0
93457,-100,4,2,1,70,0,0
93855,-100,4,2,1,70,0,0
93883,-100,4,2,1,20,0,0
93912,-100,4,2,1,70,0,0
94338,-100,4,2,1,20,0,0
94366,-100,4,2,1,70,0,0
94451,-100,4,2,1,20,0,0
94480,-100,4,2,1,70,0,0
94650,-100,4,2,3,70,0,0
94679,-100,4,2,3,50,0,0
94707,-100,4,2,3,70,0,0
94764,-100,4,2,1,70,0,0
94792,-100,4,2,1,20,0,0
94821,-100,4,2,1,70,0,0
96156,-100,4,2,1,20,0,0
96184,-100,4,2,1,70,0,0
96838,-100,4,2,1,20,0,0
96866,-100,4,2,1,70,0,0
96923,-100,4,2,3,70,0,0
96951,-100,4,2,3,50,0,0
96980,-100,4,2,3,70,0,0
97037,-100,4,2,1,70,0,0
97065,-100,4,2,1,20,0,0
97093,-100,4,2,1,70,0,0
97520,-100,4,2,1,20,0,0
97548,-100,4,2,1,70,0,0
97974,-100,4,2,1,20,0,0
98003,-100,4,2,1,70,0,0
98088,-100,4,2,1,20,0,0
98116,-100,4,2,1,70,0,0
98173,-100,4,2,50,70,0,0
98201,-100,4,2,50,20,0,0
98230,-100,4,2,50,70,0,0
98315,-100,4,2,1,70,0,0
99196,-100,4,2,3,70,0,0
99224,-100,4,2,3,50,0,0
99253,-100,4,2,3,70,0,0
99338,-100,4,2,1,70,0,0
99423,-100,4,2,40,70,0,0
99451,-100,4,2,40,20,0,0
99480,-100,4,2,40,70,0,0
99565,-100,4,2,1,70,0,0
99792,-100,4,2,1,20,0,0
99821,-100,4,2,1,70,0,0
99878,-100,4,2,40,70,0,0
99906,-100,4,2,40,20,0,0
99934,-100,4,2,40,70,0,0
100020,-100,4,2,1,70,0,0
100247,-100,4,2,1,20,0,0
100275,-100,4,2,1,70,0,0
100332,-100,4,2,40,70,0,0
100361,-100,4,2,40,20,0,0
100389,-100,4,2,40,70,0,0
100474,-100,4,2,1,70,0,0
100588,-100,4,2,6,70,0,0
101497,-100,4,2,10,70,0,0
102520,-100,4,2,10,20,0,0
102548,-100,4,2,10,70,0,0
102633,-100,4,2,10,70,0,0
102974,-100,4,2,10,20,0,0
103003,-100,4,2,10,70,0,0
103656,-100,4,2,10,20,0,0
103684,-100,4,2,10,70,0,0
103741,-100,4,2,3,70,0,0
103770,-100,4,2,3,50,0,0
103798,-100,4,2,3,70,0,0
103855,-100,4,2,1,70,0,0
103883,-100,4,2,1,20,0,0
103912,-100,4,2,1,70,0,0
105218,-100,4,2,15,70,0,0
105247,-100,4,2,15,35,0,0
105275,-100,4,2,15,70,0,0
105361,-100,4,2,10,70,0,0
105701,-100,4,2,10,20,0,0
105730,-100,4,2,10,70,0,0
106156,-100,4,2,10,20,0,0
106184,-100,4,2,10,70,0,0
106611,-100,4,2,10,20,0,0
106639,-100,4,2,10,70,0,0
106951,-100,4,2,7,70,0,0
108855,-100,4,2,16,70,0,0
108883,-100,4,2,16,35,0,0
108912,-100,4,2,16,70,0,0
108997,-100,4,2,7,70,0,0
109537,-100,4,2,50,70,0,0
109565,-100,4,2,50,20,0,0
109593,-100,4,2,50,70,0,0
109650,-100,4,2,40,70,0,0
109679,-100,4,2,40,20,0,0
109707,-100,4,2,40,70,0,0
109764,-100,4,2,7,70,0,0
109792,-100,4,2,7,20,0,0
109821,-100,4,2,7,70,0,0
110701,-100,4,2,7,20,0,0
110730,-100,4,2,7,70,0,0
111838,-100,4,2,7,20,0,0
111866,-100,4,2,7,70,0,0
112406,-100,4,2,11,70,0,0
113429,-100,4,2,11,20,0,0
113457,-100,4,2,11,70,0,0
113883,-100,4,2,11,20,0,0
113912,-100,4,2,11,70,0,0
114224,-100,4,2,22,70,0,0
115133,-100,4,2,8,70,0,0
116044,-100,4,2,2,90,0,1
116156,-100,4,2,2,20,0,1
116184,-100,4,2,2,90,0,1
116838,-100,4,2,2,20,0,1
116866,-100,4,2,2,90,0,1
116923,-100,4,2,40,90,0,1
116951,-100,4,2,40,20,0,1
116980,-100,4,2,40,90,0,1
117037,-100,4,2,50,90,0,1
117065,-100,4,2,50,20,0,1
117093,-100,4,2,50,90,0,1
117179,-100,4,2,2,90,0,1
117718,-100,4,2,50,90,0,1
117747,-100,4,2,50,20,0,1
117775,-100,4,2,50,90,0,1
117832,-100,4,2,40,90,0,1
117861,-100,4,2,40,20,0,1
117889,-100,4,2,40,90,0,1
117946,-100,4,2,2,90,0,1
117974,-100,4,2,2,20,0,1
118003,-100,4,2,2,90,0,1
118429,-100,4,2,2,20,0,1
118457,-100,4,2,2,90,0,1
118883,-100,4,2,13,90,0,1
118968,-100,4,2,13,20,0,1
119025,-100,4,2,13,90,0,1
119224,-100,4,2,2,90,0,1
119451,-100,4,2,13,90,0,1
119679,-100,4,2,2,90,0,1
119792,-100,4,2,2,20,0,1
119821,-100,4,2,2,90,0,1
120474,-100,4,2,2,20,0,1
120503,-100,4,2,2,90,0,1
120559,-100,4,2,40,90,0,1
120588,-100,4,2,40,20,0,1
120616,-100,4,2,40,90,0,1
120673,-100,4,2,50,90,0,1
120701,-100,4,2,50,20,0,1
120730,-100,4,2,50,90,0,1
120815,-100,4,2,2,90,0,1
121355,-100,4,2,50,90,0,1
121383,-100,4,2,50,20,0,1
121412,-100,4,2,50,90,0,1
121497,-100,4,2,12,90,0,1
121724,-100,4,2,2,90,0,1
121838,-100,4,2,12,90,0,1
121951,-100,4,2,2,90,0,1
123315,-100,4,2,12,90,0,1
123429,-100,4,2,12,20,0,1
123457,-100,4,2,12,90,0,1
123542,-100,4,2,2,90,0,1
123997,-100,4,2,14,90,0,1
124111,-100,4,2,14,20,0,1
124139,-100,4,2,1,90,0,1
124196,-100,4,2,40,90,0,1
124224,-100,4,2,40,20,0,1
124253,-100,4,2,40,90,0,1
124309,-100,4,2,50,90,0,1
124338,-100,4,2,50,20,0,1
124366,-100,4,2,50,90,0,1
124451,-100,4,2,14,90,0,1
124565,-100,4,2,2,90,0,1
124991,-100,4,2,50,90,0,1
125020,-100,4,2,50,20,0,1
125048,-100,4,2,50,90,0,1
125105,-100,4,2,17,90,0,1
125133,-100,4,2,17,60,0,1
125162,-100,4,2,17,90,0,1
125218,-100,4,2,2,90,0,1
125247,-100,4,2,2,20,0,1
125275,-100,4,2,2,90,0,1
125815,-100,4,2,14,90,0,1
125929,-100,4,2,14,20,0,1
125957,-100,4,2,14,90,0,1
126042,-100,4,2,2,90,0,1
126951,-100,4,2,12,90,0,1
127065,-100,4,2,12,20,0,1
127093,-100,4,2,12,90,0,1
127179,-100,4,2,2,90,0,1
127747,-100,4,2,2,20,0,1
127775,-100,4,2,2,90,0,1
127832,-100,4,2,40,90,0,1
127861,-100,4,2,40,20,0,1
127889,-100,4,2,40,90,0,1
127946,-100,4,2,50,90,0,1
127974,-100,4,2,50,20,0,1
128003,-100,4,2,50,90,0,1
128088,-100,4,2,2,90,0,1
128628,-100,4,2,50,90,0,1
128656,-100,4,2,50,20,0,1
128684,-100,4,2,50,90,0,1
128741,-100,4,2,40,90,0,1
128770,-100,4,2,40,20,0,1
128798,-100,4,2,40,90,0,1
128855,-100,4,2,2,90,0,1
128883,-100,4,2,2,20,0,1
128912,-100,4,2,2,90,0,1
129338,-100,4,2,2,20,0,1
129366,-100,4,2,2,90,0,1
129764,-100,4,2,50,90,0,1
129792,-100,4,2,50,20,0,1
129821,-100,4,2,50,90,0,1
129906,-100,4,2,2,90,0,1
130476,-100,4,2,1,90,0,0
130590,-100,4,2,2,90,0,1
130929,-100,4,2,2,20,0,1
130957,-100,4,2,2,90,0,1
131383,-100,4,2,2,20,0,1
131412,-100,4,2,2,90,0,1
131468,-100,4,2,40,90,0,1
131497,-100,4,2,40,20,0,1
131525,-100,4,2,40,90,0,1
131582,-100,4,2,50,90,0,1
131611,-100,4,2,50,20,0,1
131639,-100,4,2,50,90,0,1
131724,-100,4,2,2,90,0,1
132264,-100,4,2,50,90,0,1
132292,-100,4,2,50,20,0,1
132321,-100,4,2,50,90,0,1
132378,-100,4,2,40,90,0,1
132406,-100,4,2,40,20,0,1
132434,-100,4,2,40,90,0,1
132491,-100,4,2,2,90,0,1
132520,-100,4,2,2,20,0,1
132548,-100,4,2,2,90,0,1
132974,-100,4,2,2,20,0,1
133003,-100,4,2,2,90,0,1
133429,-100,4,2,13,90,0,1
133514,-100,4,2,13,20,0,1
133571,-100,4,2,13,90,0,1
133770,-100,4,2,2,90,0,1
133997,-100,4,2,13,90,0,1
134225,-100,4,2,2,90,0,1
134338,-100,4,2,2,20,0,1
134366,-100,4,2,2,90,0,1
135020,-100,4,2,2,20,0,1
135048,-100,4,2,2,90,0,1
135446,-100,4,2,50,90,0,1
135474,-100,4,2,50,20,0,1
135503,-100,4,2,50,90,0,1
135588,-100,4,2,2,90,0,1
136042,-100,4,2,12,90,0,1
136156,-100,4,2,12,20,0,1
136184,-100,4,2,12,90,0,1
136497,-100,4,2,2,90,0,1
137493,-100,4,2,2,20,0,1
137664,-100,4,2,2,90,0,1
137861,-100,4,2,12,90,0,1
138315,-100,4,2,2,90,0,1
138542,-100,4,2,14,90,0,1
138656,-100,4,2,14,20,0,1
138684,-100,4,2,14,90,0,1
138741,-100,4,2,40,90,0,1
138770,-100,4,2,40,20,0,1
138798,-100,4,2,40,90,0,1
138855,-100,4,2,50,90,0,1
138883,-100,4,2,50,20,0,1
138912,-100,4,2,50,90,0,1
138997,-100,4,2,14,90,0,1
139111,-100,4,2,2,90,0,1
139537,-100,4,2,50,90,0,1
139565,-100,4,2,50,20,0,1
139593,-100,4,2,50,90,0,1
139650,-100,4,2,17,90,0,1
139679,-100,4,2,17,60,0,1
139707,-100,4,2,17,90,0,1
139764,-100,4,2,2,90,0,1
139792,-100,4,2,2,20,0,1
139821,-100,4,2,2,90,0,1
140361,-100,4,2,14,90,0,1
140474,-100,4,2,14,20,0,1
140503,-100,4,2,14,90,0,1
140588,-100,4,2,2,90,0,1
141497,-100,4,2,12,90,0,1
141611,-100,4,2,12,20,0,1
141809,-100,4,2,50,90,0,1
141838,-100,4,2,50,20,0,1
141866,-100,4,2,50,90,0,1
141923,-100,4,2,25,90,0,1
141951,-100,4,2,25,60,0,1
141980,-100,4,2,25,90,0,1
142037,-100,4,2,2,90,0,1
142065,-100,4,2,2,20,0,1
142264,-100,4,2,2,90,0,1
142292,-100,4,2,2,20,0,1
142321,-100,4,2,2,90,0,1
143315,-100,4,2,12,90,0,1
143429,-100,4,2,12,20,0,1
143457,-100,4,2,12,90,0,1
143770,-100,4,2,2,90,0,1
144111,-100,4,2,2,20,0,1
144139,-100,4,2,2,90,0,1
144196,-100,4,2,40,90,0,1
144224,-100,4,2,40,20,0,1
144253,-100,4,2,40,90,0,1
144309,-100,4,2,50,90,0,1
144338,-100,4,2,50,20,0,1
144366,-100,4,2,50,90,0,1
144451,-100,4,2,2,90,0,1
145135,-100,4,2,1,90,0,0
148883,-100,4,2,1,5,0,0
158770,-133.333333333333,4,2,1,25,0,0
160474,-133.333333333333,4,2,1,8,0,0
160503,-133.333333333333,4,2,1,25,0,0
160929,-133.333333333333,4,2,1,8,0,0
160957,-133.333333333333,4,2,1,25,0,0
161042,-133.333333333333,4,2,3,25,0,0
161128,-133.333333333333,4,2,50,25,0,0
161156,-133.333333333333,4,2,50,8,0,0
161184,-133.333333333333,4,2,50,25,0,0
161270,-133.333333333333,4,2,1,25,0,0
162292,-133.333333333333,4,2,1,8,0,0
162321,-133.333333333333,4,2,1,25,0,0
162747,-133.333333333333,4,2,1,8,0,0
162775,-133.333333333333,4,2,1,25,0,0
162861,-133.333333333333,4,2,3,25,0,0
162946,-133.333333333333,4,2,50,25,0,0
162974,-133.333333333333,4,2,50,8,0,0
163003,-133.333333333333,4,2,50,25,0,0
163088,-133.333333333333,4,2,1,25,0,0
164111,-133.333333333333,4,2,1,8,0,0
164139,-133.333333333333,4,2,1,25,0,0
164565,-133.333333333333,4,2,1,8,0,0
164593,-133.333333333333,4,2,1,25,0,0
164679,-133.333333333333,4,2,3,25,0,0
164764,-133.333333333333,4,2,50,25,0,0
164792,-133.333333333333,4,2,50,8,0,0
164821,-133.333333333333,4,2,50,25,0,0
164906,-133.333333333333,4,2,1,25,0,0
165929,-133.333333333333,4,2,1,8,0,0
165957,-133.333333333333,4,2,1,25,0,0
166497,-133.333333333333,4,2,8,70,0,0
166951,-100,4,2,8,70,0,0
167065,-100,4,2,8,20,0,0
167093,-100,4,2,8,70,0,0
167150,-100,4,2,1,70,0,0
167179,-100,4,2,1,20,0,0
167207,-100,4,2,1,70,0,0
167520,-100,4,2,1,20,0,0
167548,-100,4,2,1,70,0,0
168088,-100,4,2,8,70,0,0
168883,-100,4,2,8,20,0,0
168912,-100,4,2,8,70,0,0
168997,-100,4,2,1,70,0,0
169111,-100,4,2,1,45,0,0
169139,-100,4,2,1,70,0,0
169681,-100,4,2,8,70,0,0
169906,-100,4,2,1,70,0,0
170247,-100,4,2,1,45,0,0
170275,-100,4,2,1,70,0,0
170588,-100,4,2,8,70,0,0
170701,-100,4,2,8,20,0,0
170730,-100,4,2,8,70,0,0
170787,-100,4,2,40,70,0,0
170815,-100,4,2,40,20,0,0
170843,-100,4,2,40,70,0,0
170900,-100,4,2,50,70,0,0
170929,-100,4,2,50,20,0,0
170957,-100,4,2,50,70,0,0
171042,-100,4,2,1,70,0,0
171383,-100,4,2,1,45,0,0
171412,-100,4,2,1,70,0,0
171468,-100,4,2,3,70,0,0
171497,-100,4,2,3,50,0,0
171525,-100,4,2,3,70,0,0
171582,-100,4,2,1,70,0,0
171611,-100,4,2,1,20,0,0
171639,-100,4,2,1,70,0,0
171724,-100,4,2,8,70,0,0
171838,-100,4,2,1,70,0,0
172179,-100,4,2,8,70,0,0
172406,-100,4,2,1,70,0,0
172520,-100,4,2,1,20,0,0
172548,-100,4,2,1,70,0,0
172974,-100,4,2,1,20,0,0
173173,-100,4,2,1,70,0,0
173201,-100,4,2,1,20,0,0
173230,-100,4,2,1,70,0,0
174338,-100,4,2,1,20,0,0
174366,-100,4,2,1,70,0,0
174423,-100,4,2,1,70,0,0
174451,-100,4,2,1,20,0,0
174480,-100,4,2,1,70,0,0
174650,-100,4,2,3,70,0,0
174679,-100,4,2,3,50,0,0
174707,-100,4,2,3,70,0,0
174764,-100,4,2,1,70,0,0
174792,-100,4,2,1,20,0,0
174821,-100,4,2,22,70,0,0
175133,-100,4,2,1,70,0,0
175361,-100,4,2,8,70,0,0
175446,-100,4,2,1,70,0,0
175474,-100,4,2,1,20,0,0
175503,-100,4,2,1,70,0,0
175588,-100,4,2,8,70,0,0
176128,-100,4,2,1,70,0,0
176156,-100,4,2,1,20,0,0
176184,-100,4,2,1,70,0,0
176270,-100,4,2,1,70,0,0
176497,-100,4,2,8,70,0,0
176809,-100,4,2,1,70,0,0
176838,-100,4,2,1,20,0,0
176866,-100,4,2,8,70,0,0
176923,-100,4,2,3,70,0,0
176951,-100,4,2,3,50,0,0
176980,-100,4,2,3,70,0,0
177037,-100,4,2,1,70,0,0
177065,-100,4,2,1,20,0,0
177093,-100,4,2,1,70,0,0
177179,-100,4,2,8,70,0,0
177974,-100,4,2,8,20,0,0
178003,-100,4,2,8,70,0,0
178059,-100,4,2,40,70,0,0
178088,-100,4,2,40,20,0,0
178116,-100,4,2,40,70,0,0
178173,-100,4,2,50,70,0,0
178201,-100,4,2,50,20,0,0
178230,-100,4,2,50,70,0,0
178315,-100,4,2,1,70,0,0
178656,-100,4,2,1,20,0,0
178684,-100,4,2,1,70,0,0
178741,-100,4,2,24,70,0,0
178770,-100,4,2,24,50,0,0
178798,-100,4,2,24,70,0,0
178855,-100,4,2,1,70,0,0
178883,-100,4,2,1,20,0,0
178912,-100,4,2,1,70,0,0
179113,-100,4,2,8,70,0,0
179226,-100,4,2,1,70,0,0
179451,-100,4,2,8,70,0,0
179792,-100,4,2,8,20,0,0
180020,-100,4,2,1,70,0,0
180133,-100,4,2,23,70,0,0
180361,-100,4,2,1,70,0,0
180701,-100,4,2,1,20,0,0
180730,-100,4,2,1,70,0,0
181156,-100,4,2,1,20,0,0
181184,-100,4,2,1,70,0,0
181611,-100,4,2,1,20,0,0
181639,-100,4,2,1,70,0,0
181724,-100,4,2,1,20,0,0
181753,-100,4,2,1,70,0,0
181923,-100,4,2,3,70,0,0
181951,-100,4,2,3,50,0,0
181980,-100,4,2,3,70,0,0
182037,-100,4,2,1,70,0,0
182065,-100,4,2,1,20,0,0
182093,-100,4,2,1,70,0,0
182633,-100,4,2,8,70,0,0
182718,-100,4,2,1,70,0,0
182747,-100,4,2,1,20,0,0
182775,-100,4,2,1,70,0,0
182861,-100,4,2,8,70,0,0
183429,-100,4,2,8,20,0,0
183457,-100,4,2,8,70,0,0
183542,-100,4,2,1,70,0,0
183770,-100,4,2,22,70,0,0
183997,-100,4,2,1,70,0,0
184111,-100,4,2,1,45,0,0
184139,-100,4,2,1,70,0,0
184196,-100,4,2,24,70,0,0
184224,-100,4,2,24,50,0,0
184253,-100,4,2,24,70,0,0
184309,-100,4,2,1,70,0,0
184338,-100,4,2,1,20,0,0
184366,-100,4,2,1,70,0,0
185133,-100,4,2,8,70,0,0
185218,-100,4,2,1,70,0,0
185247,-100,4,2,1,20,0,0
185588,-100,4,2,1,70,0,0
186156,-100,4,2,1,45,0,0
186184,-100,4,2,1,70,0,0
186241,-100,4,2,26,70,0,0
186270,-100,4,2,26,50,0,0
186298,-100,4,2,26,70,0,0
186355,-100,4,2,1,70,0,0
186383,-100,4,2,1,20,0,0
186412,-100,4,2,1,70,0,0
186497,-100,4,2,8,70,0,0
186724,-100,4,2,1,70,0,0
186951,-100,4,2,19,70,0,0
187406,-100,4,2,1,70,0,0
187520,-100,4,2,1,20,0,0
187548,-100,4,2,1,70,0,0
187974,-100,4,2,1,20,0,0
188003,-100,4,2,1,70,0,0
188429,-100,4,2,1,20,0,0
188571,-100,4,2,1,70,0,0
188770,-100,4,2,8,70,0,0
188997,-100,4,2,1,70,0,0
189082,-100,4,2,40,70,0,0
189111,-100,4,2,40,20,0,0
189139,-100,4,2,40,70,0,0
189224,-100,4,2,1,70,0,0
189565,-100,4,2,1,20,0,0
189593,-100,4,2,1,70,0,0
189792,-100,4,2,1,20,0,0
189821,-100,4,2,1,70,0,0
189906,-100,4,2,8,70,0,0
190701,-100,4,2,8,20,0,0
190730,-100,4,2,8,70,0,0
190815,-100,4,2,1,70,0,0
191383,-100,4,2,1,45,0,0
191412,-100,4,2,1,70,0,0
191468,-100,4,2,24,70,0,0
191497,-100,4,2,24,50,0,0
191525,-100,4,2,24,70,0,0
191582,-100,4,2,1,70,0,0
191611,-100,4,2,1,20,0,0
191639,-100,4,2,1,70,0,0
192406,-100,4,2,8,70,0,0
192520,-100,4,2,8,20,0,0
192861,-100,4,2,1,70,0,0
193201,-100,4,2,1,20,0,0
193230,-100,4,2,1,70,0,0
193287,-100,4,2,3,70,0,0
193315,-100,4,2,3,50,0,0
193343,-100,4,2,3,70,0,0
193400,-100,4,2,1,70,0,0
193429,-100,4,2,1,20,0,0
193457,-100,4,2,1,70,0,0
193770,-100,4,2,8,70,0,0
194452,-100,4,2,12,70,0,0
194679,-100,4,2,1,70,0,0
194907,-100,4,2,12,70,0,0
195134,-100,4,2,1,70,0,0
195361,-100,4,2,12,70,0,0
195588,-100,4,2,1,70,0,0
195815,-100,4,2,12,70,0,0
196042,-100,4,2,1,70,0,0
196156,-100,4,2,1,20,0,0
196184,-100,4,2,1,70,0,0
196270,-100,4,2,1,20,0,0
196298,-100,4,2,1,70,0,0
196355,-100,4,2,50,70,0,0
196383,-100,4,2,50,20,0,0
196412,-100,4,2,50,70,0,0
196497,-100,4,2,1,70,0,0
197065,-100,4,2,1,20,0,0
197093,-100,4,2,1,70,0,0
197179,-100,4,2,1,20,0,0
197207,-100,4,2,1,70,0,0
197520,-100,4,2,1,20,0,0
197548,-100,4,2,1,70,0,0
198173,-100,4,2,50,70,0,0
198201,-100,4,2,50,20,0,0
198230,-100,4,2,50,70,0,0
198315,-100,4,2,1,70,0,0
198656,-100,4,2,1,20,0,0
198684,-100,4,2,1,70,0,0
198741,-100,4,2,40,70,0,0
198770,-100,4,2,40,20,0,0
198798,-100,4,2,40,70,0,0
198855,-100,4,2,1,70,0,0
198883,-100,4,2,1,20,0,0
198912,-100,4,2,1,70,0,0
199792,-100,4,2,1,20,0,0
199821,-100,4,2,1,70,0,0
199878,-100,4,2,40,70,0,0
199906,-100,4,2,40,20,0,0
199934,-100,4,2,40,70,0,0
199991,-100,4,2,1,70,0,0
200020,-100,4,2,1,20,0,0
200048,-100,4,2,1,70,0,0
200247,-100,4,2,1,20,0,0
200275,-100,4,2,1,70,0,0
200361,-100,4,2,1,20,0,0
200389,-100,4,2,1,70,0,0
200474,-100,4,2,1,20,0,0
200503,-100,4,2,1,70,0,0
201611,-100,4,2,1,20,0,0
201639,-100,4,2,1,70,0,0
201838,-100,4,2,1,20,0,0
201866,-100,4,2,1,70,0,0
202264,-100,4,2,50,70,0,0
202292,-100,4,2,50,20,0,0
202321,-100,4,2,50,70,0,0
202406,-100,4,2,1,70,0,0
202747,-100,4,2,1,20,0,0
202775,-100,4,2,1,70,0,0
202832,-100,4,2,3,70,0,0
202861,-100,4,2,3,50,0,0
202889,-100,4,2,3,70,0,0
202946,-100,4,2,1,70,0,0
202974,-100,4,2,1,20,0,0
203003,-100,4,2,1,70,0,0
203656,-100,4,2,1,20,0,0
203684,-100,4,2,1,70,0,0
203741,-100,4,2,3,70,0,0
203770,-100,4,2,3,50,0,0
203798,-100,4,2,3,70,0,0
203855,-100,4,2,1,70,0,0
203883,-100,4,2,1,20,0,0
203912,-100,4,2,1,70,0,0
204111,-100,4,2,1,20,0,0
204139,-100,4,2,1,70,0,0
204196,-100,4,2,40,70,0,0
204224,-100,4,2,40,20,0,0
204253,-100,4,2,40,70,0,0
204309,-100,4,2,1,70,0,0
204338,-100,4,2,1,20,0,0
204366,-100,4,2,1,70,0,0
204792,-100,4,2,1,20,0,0
204821,-100,4,2,1,70,0,0
205474,-100,4,2,1,20,0,0
205503,-100,4,2,1,70,0,0
205559,-100,4,2,3,70,0,0
205588,-100,4,2,3,50,0,0
205616,-100,4,2,3,70,0,0
205673,-100,4,2,1,70,0,0
205701,-100,4,2,1,20,0,0
205730,-100,4,2,1,70,0,0
205929,-100,4,2,1,20,0,0
205957,-100,4,2,1,70,0,0
206014,-100,4,2,40,70,0,0
206042,-100,4,2,40,20,0,0
206071,-100,4,2,40,70,0,0
206128,-100,4,2,1,70,0,0
206156,-100,4,2,1,20,0,0
206184,-100,4,2,1,70,0,0
206951,-100,4,2,6,70,0,0
208770,-100,4,2,8,70,0,0
209565,-100,4,2,8,20,0,0
209593,-100,4,2,8,70,0,0
209679,-100,4,2,1,70,0,0
210590,-100,4,2,2,90,0,1
210929,-100,4,2,2,60,0,1
210957,-100,4,2,2,90,0,1
211383,-100,4,2,2,20,0,1
211412,-100,4,2,2,90,0,1
211809,-100,4,2,50,90,0,1
211838,-100,4,2,50,20,0,1
211866,-100,4,2,50,90,0,1
211951,-100,4,2,2,90,0,1
212264,-100,4,2,50,90,0,1
212292,-100,4,2,50,20,0,1
212321,-100,4,2,50,90,0,1
212406,-100,4,2,2,90,0,1
212974,-100,4,2,2,20,0,1
213003,-100,4,2,2,90,0,1
213429,-100,4,2,13,90,0,1
213542,-100,4,2,13,20,0,1
213571,-100,4,2,13,90,0,1
213770,-100,4,2,2,90,0,1
213997,-100,4,2,13,90,0,1
214224,-100,4,2,2,90,0,1
214338,-100,4,2,2,20,0,1
214366,-100,4,2,2,90,0,1
215020,-100,4,2,2,20,0,1
215048,-100,4,2,2,90,0,1
215105,-100,4,2,40,90,0,1
215133,-100,4,2,40,20,0,1
215162,-100,4,2,40,90,0,1
215218,-100,4,2,50,90,0,1
215247,-100,4,2,50,20,0,1
215275,-100,4,2,50,90,0,1
215361,-100,4,2,2,90,0,1
215900,-100,4,2,50,90,0,1
215929,-100,4,2,50,20,0,1
215957,-100,4,2,50,90,0,1
216042,-100,4,2,12,90,0,1
216497,-100,4,2,2,90,0,1
217861,-100,4,2,12,90,0,1
218088,-100,4,2,2,90,0,1
218542,-100,4,2,14,90,0,1
218656,-100,4,2,14,20,0,1
218684,-100,4,2,14,90,0,1
218741,-100,4,2,40,90,0,1
218770,-100,4,2,40,20,0,1
218798,-100,4,2,40,90,0,1
218855,-100,4,2,14,90,0,1
218883,-100,4,2,14,20,0,1
218912,-100,4,2,14,90,0,1
219111,-100,4,2,2,90,0,1
219537,-100,4,2,50,90,0,1
219565,-100,4,2,50,20,0,1
219593,-100,4,2,50,90,0,1
219650,-100,4,2,17,90,0,1
219679,-100,4,2,17,60,0,1
219707,-100,4,2,17,90,0,1
219764,-100,4,2,2,90,0,1
219792,-100,4,2,2,20,0,1
219821,-100,4,2,2,90,0,1
220361,-100,4,2,14,90,0,1
220474,-100,4,2,14,20,0,1
220503,-100,4,2,14,90,0,1
220588,-100,4,2,2,90,0,1
221497,-100,4,2,12,90,0,1
221582,-100,4,2,50,90,0,1
221611,-100,4,2,50,20,0,1
221639,-100,4,2,50,90,0,1
221724,-100,4,2,2,90,0,1
222292,-100,4,2,2,20,0,1
222321,-100,4,2,2,90,0,1
222378,-100,4,2,40,90,0,1
222406,-100,4,2,40,20,0,1
222434,-100,4,2,40,90,0,1
222491,-100,4,2,50,90,0,1
222520,-100,4,2,50,20,0,1
222548,-100,4,2,50,90,0,1
222633,-100,4,2,2,90,0,1
223173,-100,4,2,50,90,0,1
223201,-100,4,2,50,20,0,1
223230,-100,4,2,50,90,0,1
223287,-100,4,2,40,90,0,1
223315,-100,4,2,40,20,0,1
223343,-100,4,2,40,90,0,1
223400,-100,4,2,2,90,0,1
223429,-100,4,2,2,20,0,1
223457,-100,4,2,2,90,0,1
223883,-100,4,2,2,20,0,1
223912,-100,4,2,2,90,0,1
224309,-100,4,2,50,90,0,1
224338,-100,4,2,50,20,0,1
224366,-100,4,2,50,90,0,1
224451,-100,4,2,2,90,0,1
225022,-100,4,2,1,90,0,0
225135,-100,4,2,2,90,0,1
225247,-100,4,2,2,20,0,1
225275,-100,4,2,2,90,0,1
225929,-100,4,2,2,20,0,1
225957,-100,4,2,2,90,0,1
226014,-100,4,2,40,90,0,1
226042,-100,4,2,40,20,0,1
226071,-100,4,2,40,90,0,1
226128,-100,4,2,50,90,0,1
226156,-100,4,2,50,20,0,1
226184,-100,4,2,50,90,0,1
226270,-100,4,2,2,90,0,1
226809,-100,4,2,50,90,0,1
226838,-100,4,2,50,20,0,1
226866,-100,4,2,50,90,0,1
226923,-100,4,2,40,90,0,1
226951,-100,4,2,40,20,0,1
226980,-100,4,2,40,90,0,1
227037,-100,4,2,2,90,0,1
227065,-100,4,2,2,20,0,1
227093,-100,4,2,2,90,0,1
227520,-100,4,2,2,20,0,1
227548,-100,4,2,2,90,0,1
227974,-100,4,2,13,90,0,1
228315,-100,4,2,2,90,0,1
228429,-100,4,2,2,20,0,1
228457,-100,4,2,2,90,0,1
228542,-100,4,2,13,90,0,1
228770,-100,4,2,2,90,0,1
229082,-100,4,2,50,90,0,1
229111,-100,4,2,50,20,0,1
229139,-100,4,2,50,90,0,1
229196,-100,4,2,25,90,0,1
229224,-100,4,2,25,60,0,1
229253,-100,4,2,25,90,0,1
229309,-100,4,2,4,90,0,1
229338,-100,4,2,4,20,0,1
229366,-100,4,2,4,90,0,1
229451,-100,4,2,4,90,0,1
229565,-100,4,2,4,20,0,1
229593,-100,4,2,4,90,0,1
229650,-100,4,2,40,90,0,1
229679,-100,4,2,40,20,0,1
229707,-100,4,2,40,90,0,1
229764,-100,4,2,50,90,0,1
229792,-100,4,2,50,20,0,1
229821,-100,4,2,50,90,0,1
229906,-100,4,2,2,90,0,1
230588,-100,4,2,12,90,0,1
230701,-100,4,2,12,20,0,1
230730,-100,4,2,12,90,0,1
230815,-100,4,2,2,90,0,1
230929,-100,4,2,12,90,0,1
231042,-100,4,2,2,90,0,1
232406,-100,4,2,12,90,0,1
232520,-100,4,2,12,20,0,1
232548,-100,4,2,12,90,0,1
232633,-100,4,2,2,90,0,1
233088,-100,4,2,14,90,0,1
233201,-100,4,2,14,20,0,1
233230,-100,4,2,14,90,0,1
233287,-100,4,2,40,90,0,1
233315,-100,4,2,40,20,0,1
233343,-100,4,2,40,90,0,1
233400,-100,4,2,14,90,0,1
233429,-100,4,2,14,20,0,1
233457,-100,4,2,14,90,0,1
233656,-100,4,2,2,90,0,1
234082,-100,4,2,50,90,0,1
234111,-100,4,2,50,20,0,1
234139,-100,4,2,50,90,0,1
234196,-100,4,2,17,90,0,1
234224,-100,4,2,17,60,0,1
234253,-100,4,2,17,90,0,1
234309,-100,4,2,2,90,0,1
234338,-100,4,2,2,20,0,1
234366,-100,4,2,2,90,0,1
234906,-100,4,2,14,90,0,1
234991,-100,4,2,2,90,0,1
235020,-100,4,2,2,20,0,1
235048,-100,4,2,2,90,0,1
235133,-100,4,2,2,90,0,1
236042,-100,4,2,12,90,0,1
236156,-100,4,2,12,20,0,1
236355,-100,4,2,50,90,0,1
236383,-100,4,2,50,20,0,1
236412,-100,4,2,50,90,0,1
236497,-100,4,2,25,90,0,1
236582,-100,4,2,2,90,0,1
236611,-100,4,2,2,20,0,1
236809,-100,4,2,2,90,0,1
236838,-100,4,2,2,20,0,1
236866,-100,4,2,2,90,0,1
237861,-100,4,2,12,90,0,1
237974,-100,4,2,12,20,0,1
238003,-100,4,2,12,90,0,1
238315,-100,4,2,2,90,0,1
238656,-100,4,2,2,20,0,1
238684,-100,4,2,2,90,0,1
238741,-100,4,2,40,90,0,1
238770,-100,4,2,40,20,0,1
238798,-100,4,2,40,90,0,1
238855,-100,4,2,50,90,0,1
238883,-100,4,2,50,20,0,1
238912,-100,4,2,50,90,0,1
238997,-100,4,2,2,90,0,1
239681,-100,4,2,2,90,0,0
243429,-100,4,2,2,5,0,0
253315,-133.333333333333,4,2,1,50,0,0
254338,-133.333333333333,4,2,1,15,0,0
254366,-133.333333333333,4,2,1,50,0,0
254451,-133.333333333333,4,2,1,15,0,0
254480,-133.333333333333,4,2,1,50,0,0
254565,-133.333333333333,4,2,1,15,0,0
254593,-133.333333333333,4,2,1,50,0,0
254650,-133.333333333333,4,2,40,50,0,0
254679,-133.333333333333,4,2,40,15,0,0
254707,-133.333333333333,4,2,40,50,0,0
254764,-133.333333333333,4,2,1,50,0,0
254792,-133.333333333333,4,2,1,15,0,0
254821,-133.333333333333,4,2,1,50,0,0
255247,-133.333333333333,4,2,1,15,0,0
255275,-133.333333333333,4,2,1,50,0,0
255361,-133.333333333333,4,2,1,15,0,0
255389,-133.333333333333,4,2,1,50,0,0
255559,-133.333333333333,4,2,3,50,0,0
255588,-133.333333333333,4,2,3,35,0,0
255616,-133.333333333333,4,2,3,50,0,0
255673,-133.333333333333,4,2,1,50,0,0
255701,-133.333333333333,4,2,1,15,0,0
255730,-133.333333333333,4,2,1,50,0,0
256383,-133.333333333333,4,2,1,15,0,0
256412,-133.333333333333,4,2,1,50,0,0
256497,-133.333333333333,4,2,1,15,0,0
256525,-133.333333333333,4,2,1,50,0,0
256611,-133.333333333333,4,2,1,15,0,0
256639,-133.333333333333,4,2,1,50,0,0
257179,-133.333333333333,4,2,8,50,0,0
257946,-133.333333333333,4,2,1,50,0,0
257974,-133.333333333333,4,2,1,15,0,0
258003,-133.333333333333,4,2,1,50,0,0
258088,-133.333333333333,4,2,1,15,0,0
258116,-133.333333333333,4,2,1,50,0,0
258201,-133.333333333333,4,2,1,15,0,0
258230,-133.333333333333,4,2,1,50,0,0
258429,-133.333333333333,4,2,1,15,0,0
258457,-133.333333333333,4,2,1,50,0,0
258542,-133.333333333333,4,2,1,15,0,0
258571,-133.333333333333,4,2,1,50,0,0
258656,-133.333333333333,4,2,1,15,0,0
258684,-133.333333333333,4,2,1,50,0,0
259792,-133.333333333333,4,2,1,15,0,0
259821,-133.333333333333,4,2,1,50,0,0
259906,-133.333333333333,4,2,1,15,0,0
259934,-133.333333333333,4,2,1,50,0,0
260020,-133.333333333333,4,2,1,15,0,0
260048,-133.333333333333,4,2,1,50,0,0
260105,-133.333333333333,4,2,40,50,0,0
260133,-133.333333333333,4,2,40,15,0,0
260162,-133.333333333333,4,2,40,50,0,0
260218,-133.333333333333,4,2,1,50,0,0
260247,-133.333333333333,4,2,1,15,0,0
260275,-133.333333333333,4,2,1,50,0,0
260588,-133.333333333333,4,2,8,50,0,0
260701,-133.333333333333,4,2,8,15,0,0
260730,-133.333333333333,4,2,8,50,0,0
261724,-133.333333333333,4,2,1,50,0,0
261838,-133.333333333333,4,2,1,15,0,0
261866,-133.333333333333,4,2,1,50,0,0
261923,-133.333333333333,4,2,40,50,0,0
261951,-133.333333333333,4,2,40,15,0,0
261980,-133.333333333333,4,2,40,50,0,0
262037,-133.333333333333,4,2,1,50,0,0
262065,-133.333333333333,4,2,1,15,0,0
262093,-133.333333333333,4,2,1,50,0,0
262292,-133.333333333333,4,2,1,15,0,0
262321,-133.333333333333,4,2,1,50,0,0
262378,-133.333333333333,4,2,40,50,0,0
262406,-133.333333333333,4,2,40,15,0,0
262434,-133.333333333333,4,2,40,50,0,0
262491,-133.333333333333,4,2,1,50,0,0
262520,-133.333333333333,4,2,1,15,0,0
262548,-133.333333333333,4,2,1,50,0,0
263656,-133.333333333333,4,2,1,15,0,0
263684,-133.333333333333,4,2,1,50,0,0
263741,-133.333333333333,4,2,40,50,0,0
263770,-133.333333333333,4,2,40,15,0,0
263798,-133.333333333333,4,2,40,50,0,0
263855,-133.333333333333,4,2,1,50,0,0
263883,-133.333333333333,4,2,1,15,0,0
263912,-133.333333333333,4,2,1,50,0,0
264224,-133.333333333333,4,2,8,50,0,0
264338,-133.333333333333,4,2,8,15,0,0
264366,-133.333333333333,4,2,8,50,0,0
265247,-133.333333333333,4,2,8,15,0,0
265275,-133.333333333333,4,2,8,50,0,0
265361,-133.333333333333,4,2,8,15,0,0
265389,-133.333333333333,4,2,8,50,0,0
265474,-133.333333333333,4,2,8,15,0,0
265503,-133.333333333333,4,2,8,50,0,0
265588,-133.333333333333,4,2,1,50,0,0
266156,-133.333333333333,4,2,1,15,0,0
266184,-133.333333333333,4,2,1,50,0,0
266270,-133.333333333333,4,2,1,15,0,0
266298,-133.333333333333,4,2,1,50,0,0
266383,-133.333333333333,4,2,1,15,0,0
266412,-133.333333333333,4,2,1,50,0,0
266951,-133.333333333333,4,2,22,50,0,0
267065,-133.333333333333,4,2,22,15,0,0
267093,-133.333333333333,4,2,22,50,0,0
267179,-133.333333333333,4,2,22,15,0,0
267207,-133.333333333333,4,2,22,50,0,0
267292,-133.333333333333,4,2,22,15,0,0
267321,-133.333333333333,4,2,22,50,0,0
267378,-133.333333333333,4,2,40,50,0,0
267406,-133.333333333333,4,2,40,15,0,0
267434,-133.333333333333,4,2,40,50,0,0
267491,-133.333333333333,4,2,22,50,0,0
267520,-133.333333333333,4,2,22,15,0,0
267548,-133.333333333333,4,2,22,50,0,0
267747,-133.333333333333,4,2,22,15,0,0
267775,-133.333333333333,4,2,22,50,0,0
267832,-133.333333333333,4,2,40,50,0,0
267861,-133.333333333333,4,2,40,15,0,0
267889,-133.333333333333,4,2,40,50,0,0
267946,-133.333333333333,4,2,22,50,0,0
267974,-133.333333333333,4,2,22,15,0,0
268003,-133.333333333333,4,2,22,50,0,0
268088,-133.333333333333,4,2,22,15,0,0
268116,-133.333333333333,4,2,22,50,0,0
268201,-133.333333333333,4,2,22,15,0,0
268230,-133.333333333333,4,2,22,50,0,0
268315,-133.333333333333,4,2,1,50,0,0
268770,-133.333333333333,4,2,8,50,0,0
268883,-133.333333333333,4,2,8,15,0,0
268912,-133.333333333333,4,2,8,50,0,0
268997,-133.333333333333,4,2,8,15,0,0
269025,-133.333333333333,4,2,8,50,0,0
269111,-133.333333333333,4,2,8,15,0,0
269139,-133.333333333333,4,2,8,50,0,0
269196,-133.333333333333,4,2,8,50,0,0
269224,-133.333333333333,4,2,8,15,0,0
269253,-133.333333333333,4,2,8,50,0,0
269309,-133.333333333333,4,2,8,50,0,0
269338,-133.333333333333,4,2,8,15,0,0
269366,-133.333333333333,4,2,8,50,0,0
269451,-133.333333333333,4,2,1,50,0,0
270020,-133.333333333333,4,2,1,15,0,0
270048,-133.333333333333,4,2,1,50,0,0
270247,-133.333333333333,4,2,1,15,0,0
270275,-133.333333333333,4,2,1,50,0,0
270588,-133.333333333333,4,2,8,50,0,0
271951,-100,4,2,1,70,0,0
272408,454.545454545455,4,2,2,90,1,1
272408,-100,4,2,2,90,0,1
272974,-100,4,2,2,20,0,1
273002,-100,4,2,2,90,0,1
273428,-100,4,2,13,90,0,1
273770,-100,4,2,2,90,0,1
273997,-100,4,2,13,90,0,1
274224,-100,4,2,2,90,0,1
274338,-100,4,2,2,20,0,1
274366,-100,4,2,2,90,0,1
274991,-100,4,2,50,90,0,1
275020,-100,4,2,50,20,0,1
275048,-100,4,2,50,90,0,1
275105,-100,4,2,40,90,0,1
275133,-100,4,2,40,20,0,1
275162,-100,4,2,40,90,0,1
275218,-100,4,2,50,90,0,1
275247,-100,4,2,50,20,0,1
275275,-100,4,2,50,90,0,1
275361,-100,4,2,2,90,0,1
276042,-100,4,2,12,90,0,1
276156,-100,4,2,12,20,0,1
276184,-100,4,2,12,90,0,1
276270,-100,4,2,2,90,0,1
276383,-100,4,2,12,90,0,1
276497,-100,4,2,2,90,0,1
277861,-100,4,2,12,90,0,1
277862,454.545454545455,4,2,12,90,1,1
277974,-100,4,2,12,20,0,1
278003,-100,4,2,12,90,0,1
278088,-100,4,2,2,90,0,1
278542,-100,4,2,14,90,0,1
278628,-100,4,2,50,90,0,1
278656,-100,4,2,50,20,0,1
278684,-100,4,2,50,90,0,1
278741,-100,4,2,40,90,0,1
278770,-100,4,2,40,20,0,1
278798,-100,4,2,40,90,0,1
278855,-100,4,2,14,90,0,1
278883,-100,4,2,14,20,0,1
278912,-100,4,2,14,90,0,1
279111,-100,4,2,2,90,0,1
279537,-100,4,2,50,90,0,1
279565,-100,4,2,50,20,0,1
279593,-100,4,2,50,90,0,1
279650,-100,4,2,17,90,0,1
279679,-100,4,2,17,60,0,1
279707,-100,4,2,17,90,0,1
279764,-100,4,2,2,90,0,1
279792,-100,4,2,2,20,0,1
279821,-100,4,2,2,90,0,1
280361,-100,4,2,14,90,0,1
280446,-100,4,2,50,90,0,1
280474,-100,4,2,50,20,0,1
280503,-100,4,2,50,90,0,1
280588,-100,4,2,2,90,0,1
281497,-100,4,2,12,90,0,1
281611,-100,4,2,12,20,0,1
281639,-100,4,2,12,90,0,1
281724,-100,4,2,2,90,0,1
282264,-100,4,2,50,90,0,1
282292,-100,4,2,50,20,0,1
282321,-100,4,2,50,90,0,1
282378,-100,4,2,40,90,0,1
282406,-100,4,2,40,20,0,1
282434,-100,4,2,40,90,0,1
282491,-100,4,2,50,90,0,1
282520,-100,4,2,50,20,0,1
282548,-100,4,2,50,90,0,1
282633,-100,4,2,2,90,0,1
283173,-100,4,2,50,90,0,1
283201,-100,4,2,50,20,0,1
283230,-100,4,2,50,90,0,1
283287,-100,4,2,40,90,0,1
283315,-100,4,2,40,20,0,1
283343,-100,4,2,40,90,0,1
283400,-100,4,2,50,90,0,1
283429,-100,4,2,50,20,0,1
283457,-100,4,2,50,90,0,1
283542,-100,4,2,2,90,0,1
285021,-100,4,2,1,90,0,0
285134,-100,4,2,2,90,0,1
285446,-100,4,2,50,90,0,1
285474,-100,4,2,50,20,0,1
285503,-100,4,2,50,90,0,1
285559,-100,4,2,25,90,0,1
285588,-100,4,2,25,60,0,1
285616,-100,4,2,25,90,0,1
285673,-100,4,2,2,90,0,1
285701,-100,4,2,2,20,0,1
285730,-100,4,2,2,90,0,1
286128,-100,4,2,50,90,0,1
286156,-100,4,2,50,20,0,1
286184,-100,4,2,50,90,0,1
286270,-100,4,2,2,90,0,1
286809,-100,4,2,50,90,0,1
286838,-100,4,2,50,20,0,1
286866,-100,4,2,50,90,0,1
286923,-100,4,2,40,90,0,1
286951,-100,4,2,40,20,0,1
286980,-100,4,2,40,90,0,1
287037,-100,4,2,2,90,0,1
287065,-100,4,2,2,20,0,1
287093,-100,4,2,2,90,0,1
287520,-100,4,2,2,20,0,1
287548,-100,4,2,2,90,0,1
287605,-100,4,2,1,90,0,1
287633,-100,4,2,1,20,0,1
287662,-100,4,2,1,90,0,1
287718,-100,4,2,50,90,0,1
287747,-100,4,2,50,90,0,1
287775,-100,4,2,50,90,0,1
287861,-100,4,2,2,90,0,1
287974,-100,4,2,13,90,0,1
288315,-100,4,2,2,90,0,1
288429,-100,4,2,2,20,0,1
288457,-100,4,2,2,90,0,1
288542,-100,4,2,13,90,0,1
288770,-100,4,2,2,90,0,1
289082,-100,4,2,50,90,0,1
289111,-100,4,2,50,20,0,1
289139,-100,4,2,50,90,0,1
289224,-100,4,2,2,90,0,1
289537,-100,4,2,50,90,0,1
289565,-100,4,2,50,20,0,1
289593,-100,4,2,50,90,0,1
289679,-100,4,2,2,90,0,1
289991,-100,4,2,50,90,0,1
290020,-100,4,2,50,20,0,1
290048,-100,4,2,50,90,0,1
290133,-100,4,2,2,90,0,1
290588,-100,4,2,12,90,0,1
290701,-100,4,2,12,20,0,1
290730,-100,4,2,12,90,0,1
290815,-100,4,2,2,90,0,1
290929,-100,4,2,12,90,0,1
291042,-100,4,2,2,90,0,1
291156,-100,4,2,2,20,0,1
291184,-100,4,2,2,90,0,1
292406,-100,4,2,12,90,0,1
292520,-100,4,2,12,20,0,1
292548,-100,4,2,12,90,0,1
292605,-100,4,2,1,90,0,1
292633,-100,4,2,1,20,0,1
292662,-100,4,2,1,90,0,1
292718,-100,4,2,50,90,0,1
292747,-100,4,2,50,20,0,1
292775,-100,4,2,50,90,0,1
292861,-100,4,2,2,90,0,1
293088,-100,4,2,14,90,0,1
293173,-100,4,2,50,90,0,1
293201,-100,4,2,50,20,0,1
293230,-100,4,2,50,90,0,1
293315,-100,4,2,2,90,0,1
293542,-100,4,2,14,90,0,1
293628,-100,4,2,50,90,0,1
293656,-100,4,2,50,20,0,1
293684,-100,4,2,50,90,0,1
293770,-100,4,2,2,90,0,1
294224,-100,4,2,12,90,0,1
294338,-100,4,2,12,20,0,1
294366,-100,4,2,12,90,0,1
294423,-100,4,2,1,90,0,1
294451,-100,4,2,1,20,0,1
294480,-100,4,2,1,90,0,1
294537,-100,4,2,50,90,0,1
294565,-100,4,2,50,20,0,1
294593,-100,4,2,50,90,0,1
294679,-100,4,2,2,90,0,1
294906,-100,4,2,14,90,0,1
294991,-100,4,2,50,90,0,1
295020,-100,4,2,50,20,0,1
295048,-100,4,2,50,90,0,1
295133,-100,4,2,2,90,0,1
296156,-100,4,2,2,20,0,1
296383,-100,4,2,2,90,0,1
296611,-100,4,2,2,20,0,1
296838,-100,4,2,2,90,0,1
297065,-100,4,2,2,20,0,1
297292,-100,4,2,2,90,0,1
297520,-100,4,2,2,20,0,1
297747,-100,4,2,2,90,0,1
297861,-100,4,2,12,90,0,1
297974,-100,4,2,2,90,0,1
298088,-100,4,2,12,90,0,1
298201,-100,4,2,2,90,0,1
298855,-100,4,2,50,90,0,1
298883,-100,4,2,50,20,0,1
299139,-100,4,2,50,90,0,1
299224,-100,4,2,2,90,0,1
299680,-100,4,2,9,80,0,0
300020,-100,4,2,2,80,0,0
300133,-100,4,2,9,80,0,0
300247,-100,4,2,9,20,0,0
300275,-100,4,2,9,80,0,0
300559,-100,4,2,40,80,0,0
300588,-100,4,2,40,20,0,0
300616,-100,4,2,40,80,0,0
300701,-100,4,2,9,80,0,0
300815,-100,4,2,9,20,0,0
300843,-100,4,2,9,80,0,0
301611,-100,4,2,9,20,0,0
301838,-100,4,2,2,80,0,0
302065,-100,4,2,2,20,0,0
302292,-100,4,2,2,80,0,0
302520,-100,4,2,13,80,0,0
302633,-100,4,2,13,20,0,0
302747,-100,4,2,13,80,0,0
302861,-100,4,2,2,80,0,0
303088,-100,4,2,9,80,0,0
303315,-100,4,2,9,80,0,0
303429,-100,4,2,9,20,0,0
303457,-100,4,2,9,80,0,0
303542,-100,4,2,2,80,0,0
303741,-100,4,2,25,80,0,0
303770,-100,4,2,25,55,0,0
303798,-100,4,2,25,80,0,0
303883,-100,4,2,9,80,0,0
303968,-100,4,2,9,80,0,0
303997,-100,4,2,9,20,0,0
304025,-100,4,2,9,80,0,0
304224,-100,4,2,2,80,0,0
304991,-100,4,2,50,80,0,0
305020,-100,4,2,50,20,0,0
305048,-100,4,2,50,80,0,0
305133,-100,4,2,2,80,0,0
305929,-100,4,2,2,20,0,0
305957,-100,4,2,2,80,0,0
306042,-100,4,2,9,80,0,0
306156,-100,4,2,2,80,0,0
306383,-100,4,2,9,80,0,0
306497,-100,4,2,2,80,0,0
306582,-100,4,2,50,80,0,0
306611,-100,4,2,50,20,0,0
306639,-100,4,2,50,80,0,0
306724,-100,4,2,2,80,0,0
306951,-100,4,2,9,80,0,0
307065,-100,4,2,9,20,0,0
307292,-100,4,2,9,80,0,0
307406,-100,4,2,2,80,0,0
307747,-100,4,2,2,20,0,0
307775,-100,4,2,2,80,0,0
307832,-100,4,2,40,80,0,0
307861,-100,4,2,40,20,0,0
307889,-100,4,2,40,80,0,0
307974,-100,4,2,9,80,0,0
308201,-100,4,2,2,80,0,0
308315,-100,4,2,9,80,0,0
308542,-100,4,2,2,80,0,0
308628,-100,4,2,50,80,0,0
308656,-100,4,2,50,20,0,0
308684,-100,4,2,50,80,0,0
308741,-100,4,2,40,80,0,0
308770,-100,4,2,40,20,0,0
308798,-100,4,2,40,80,0,0
308855,-100,4,2,2,80,0,0
308883,-100,4,2,2,20,0,0
308912,-100,4,2,2,80,0,0
308997,-100,4,2,2,20,0,0
309025,-100,4,2,2,80,0,0
309224,-100,4,2,9,80,0,0
309650,-100,4,2,40,80,0,0
309679,-100,4,2,40,20,0,0
309707,-100,4,2,40,80,0,0
309764,-100,4,2,50,80,0,0
309792,-100,4,2,50,20,0,0
309821,-100,4,2,50,80,0,0
309906,-100,4,2,9,80,0,0
311014,-100,4,2,25,80,0,0
311042,-100,4,2,25,55,0,0
311071,-100,4,2,25,80,0,0
311128,-100,4,2,50,80,0,0
311156,-100,4,2,50,20,0,0
311184,-100,4,2,50,80,0,0
311270,-100,4,2,2,80,0,0
311497,-100,4,2,9,80,0,0
311611,-100,4,2,2,35,0,0
311724,-100,4,2,9,80,0,0
311838,-100,4,2,2,35,0,0
311951,-100,4,2,9,80,0,0
312065,-100,4,2,2,35,0,0
312179,-100,4,2,9,80,0,0
312292,-100,4,2,2,35,0,0
312406,-100,4,2,9,80,0,0
312491,-100,4,2,50,80,0,0
312520,-100,4,2,50,20,0,0
312662,-100,4,2,9,80,0,0
312860,-100,4,2,2,80,0,0
313087,-100,4,2,9,80,0,0
313400,-100,4,2,50,80,0,0
313429,-100,4,2,50,20,0,0
313571,-100,4,2,9,80,0,0
313741,-100,4,2,25,80,0,0
313770,-100,4,2,25,55,0,0
313798,-100,4,2,25,80,0,0
313855,-100,4,2,50,80,0,0
313883,-100,4,2,50,20,0,0
313912,-100,4,2,50,80,0,0
313997,-100,4,2,9,80,0,0
314565,-100,4,2,2,80,0,0
314792,-100,4,2,2,20,0,0
314821,-100,4,2,2,80,0,0
315361,-100,4,2,9,80,0,0
315559,-100,4,2,25,80,0,0
315588,-100,4,2,25,55,0,0
315616,-100,4,2,25,80,0,0
315673,-100,4,2,50,80,0,0
315701,-100,4,2,50,20,0,0
315730,-100,4,2,50,80,0,0
315815,-100,4,2,9,80,0,0
316128,-100,4,2,2,80,0,0
316156,-100,4,2,2,20,0,0
316412,-100,4,2,50,80,0,0
316497,-100,4,2,2,80,0,0
316611,-100,4,2,2,20,0,0
316866,-100,4,2,50,80,0,0
316951,-100,4,2,2,80,0,0
317037,-100,4,2,50,80,0,0
317065,-100,4,2,50,20,0,0
317321,-100,4,2,50,80,0,0
317406,-100,4,2,2,80,0,0
317633,-100,4,2,9,80,0,0
317861,-100,4,2,2,80,0,0
317974,-100,4,2,2,20,0,0
318003,-100,4,2,2,80,0,0
318173,-100,4,2,50,80,0,0
318201,-100,4,2,50,20,0,0
318230,-100,4,2,50,80,0,0
318315,-100,4,2,9,80,0,0
318741,-100,4,2,40,80,0,0
318770,-100,4,2,40,20,0,0
318798,-100,4,2,40,80,0,0
318855,-100,4,2,50,80,0,0
318883,-100,4,2,50,20,0,0
318912,-100,4,2,50,80,0,0
318997,-100,4,2,9,80,0,0
319764,-100,4,2,50,80,0,0
319792,-100,4,2,50,20,0,0
320048,-100,4,2,50,80,0,0
320133,-100,4,2,2,80,0,0
320588,-100,4,2,9,80,0,0
320673,-100,4,2,20,80,0,0
320701,-100,4,2,20,20,0,0
320929,-100,4,2,9,80,0,0
321128,-100,4,2,50,80,0,0
321156,-100,4,2,50,20,0,0
321184,-100,4,2,50,80,0,0
321270,-100,4,2,2,80,0,0
321497,-100,4,2,9,80,0,0
321611,-100,4,2,9,20,0,0
321639,-100,4,2,9,80,0,0
321724,-100,4,2,2,80,0,0
321951,-100,4,2,9,80,0,0
322037,-100,4,2,50,80,0,0
322065,-100,4,2,50,20,0,0
322093,-100,4,2,50,80,0,0
322179,-100,4,2,2,80,0,0
322406,-100,4,2,9,80,0,0
322520,-100,4,2,9,20,0,0
322548,-100,4,2,9,80,0,0
322633,-100,4,2,2,80,0,0
322861,-100,4,2,9,80,0,0
322946,-100,4,2,50,80,0,0
322974,-100,4,2,50,20,0,0
323003,-100,4,2,50,80,0,0
323088,-100,4,2,2,80,0,0
323315,-100,4,2,9,80,0,0
323429,-100,4,2,9,20,0,0
323457,-100,4,2,9,80,0,0
323542,-100,4,2,2,80,0,0
323656,-100,4,2,9,80,0,0
323741,-100,4,2,25,80,0,0
323770,-100,4,2,25,55,0,0
323798,-100,4,2,25,80,0,0
323883,-100,4,2,2,80,0,0
323997,-100,4,2,9,80,0,0
324082,-100,4,2,50,80,0,0
324111,-100,4,2,50,20,0,0
324139,-100,4,2,50,80,0,0
324224,-100,4,2,2,80,0,0
324792,-100,4,2,2,20,0,0
324821,-100,4,2,2,80,0,0
327406,-100,4,2,9,80,0,0
327946,-100,4,2,50,80,0,0
327974,-100,4,2,50,20,0,0
328116,-100,4,2,9,80,0,0
328287,-100,4,2,25,80,0,0
328315,-100,4,2,25,55,0,0
328343,-100,4,2,25,80,0,0
328400,-100,4,2,50,80,0,0
328429,-100,4,2,50,20,0,0
328457,-100,4,2,50,80,0,0
328542,-100,4,2,9,80,0,0
328770,-100,4,2,2,80,0,0
328997,-100,4,2,9,80,0,0
329111,-100,4,2,2,80,0,0
329224,-100,4,2,9,80,0,0
329338,-100,4,2,2,80,0,0
329679,-100,4,2,9,80,0,0
329764,-100,4,2,50,80,0,0
329792,-100,4,2,50,20,0,0
329821,-100,4,2,50,80,0,0
329906,-100,4,2,2,80,0,0
330020,-100,4,2,9,80,0,0
330105,-100,4,2,25,80,0,0
330133,-100,4,2,25,55,0,0
330162,-100,4,2,25,80,0,0
330247,-100,4,2,2,80,0,0
330361,-100,4,2,9,80,0,0
330588,-100,4,2,2,80,0,0
330701,-100,4,2,2,20,0,0
330957,-100,4,2,50,80,0,0
331042,-100,4,2,2,80,0,0
331128,-100,4,2,50,80,0,0
331156,-100,4,2,50,20,0,0
331412,-100,4,2,2,80,0,0
331582,-100,4,2,50,80,0,0
331611,-100,4,2,50,20,0,0
331696,-100,4,2,26,80,0,0
331724,-100,4,2,26,50,0,0
331753,-100,4,2,26,80,0,0
331808,-100,4,2,50,80,0,0
331837,-100,4,2,50,20,0,0
331866,-100,4,2,50,80,0,0
331951,-100,4,2,9,80,0,0
332179,-100,4,2,2,80,0,0
332406,-100,4,2,9,80,0,0
332633,-100,4,2,2,80,0,0
332861,-100,4,2,9,80,0,0
332974,-100,4,2,2,80,0,0
333315,-100,4,2,9,80,0,0
333400,-100,4,2,50,80,0,0
333429,-100,4,2,50,20,0,0
333457,-100,4,2,50,80,0,0
333542,-100,4,2,2,80,0,0
334082,-100,4,2,50,80,0,0
334111,-100,4,2,50,20,0,0
334139,-100,4,2,50,80,0,0
334196,-100,4,2,40,80,0,0
334224,-100,4,2,40,20,0,0
334253,-100,4,2,40,80,0,0
334309,-100,4,2,2,80,0,0
334338,-100,4,2,2,20,0,0
334565,-100,4,2,2,80,0,0
334679,-100,4,2,9,80,0,0
338315,-100,4,2,2,80,0,0
338997,-100,4,2,9,80,0,0
339082,-100,4,2,50,80,0,0
339110,-100,4,2,50,20,0,0
339139,-100,4,2,50,80,0,0
339196,-100,4,2,25,80,0,0
339224,-100,4,2,25,55,0,0
339253,-100,4,2,25,80,0,0
339338,-100,4,2,9,80,0,0
339792,-100,4,2,9,20,0,0
339934,-100,4,2,9,80,0,0
340105,-100,4,2,25,80,0,0
340133,-100,4,2,25,55,0,0
340162,-100,4,2,25,80,0,0
340218,-100,4,2,9,80,0,0
340247,-100,4,2,9,20,0,0
340275,-100,4,2,9,80,0,0
340588,-100,4,2,2,80,0,0
340673,-100,4,2,50,80,0,0
340701,-100,4,2,50,20,0,0
340730,-100,4,2,50,80,0,0
340815,-100,4,2,2,80,0,0
341497,-100,4,2,9,80,0,0
341582,-100,4,2,50,80,0,0
341611,-100,4,2,50,20,0,0
341753,-100,4,2,9,80,0,0
341923,-100,4,2,25,80,0,0
341951,-100,4,2,25,55,0,0
341980,-100,4,2,25,80,0,0
342037,-100,4,2,9,80,0,0
342065,-100,4,2,9,20,0,0
342093,-100,4,2,9,80,0,0
342406,-100,4,2,2,80,0,0
342491,-100,4,2,50,80,0,0
342520,-100,4,2,50,20,0,0
342548,-100,4,2,50,80,0,0
342633,-100,4,2,2,80,0,0
342946,-100,4,2,50,80,0,0
342974,-100,4,2,50,20,0,0
343003,-100,4,2,50,80,0,0
343088,-100,4,2,2,80,0,0
343542,-100,4,2,9,80,0,0
343883,-100,4,2,9,20,0,0
343912,-100,4,2,9,80,0,0
343997,-100,4,2,2,80,0,0
344224,-100,4,2,9,80,0,0
344537,-100,4,2,50,80,0,0
344565,-100,4,2,50,20,0,0
344593,-100,4,2,50,80,0,0
344679,-100,4,2,9,80,0,0
345133,-100,4,2,2,80,0,0
345247,-100,4,2,2,20,0,0
345503,-100,4,2,50,80,0,0
345588,-100,4,2,2,80,0,0
346042,-100,4,2,9,80,0,0
346128,-100,4,2,50,80,0,0
346156,-100,4,2,50,20,0,0
346184,-100,4,2,50,80,0,0
346270,-100,4,2,9,80,0,0
346611,-100,4,2,2,80,0,0
346838,-100,4,2,9,80,0,0
346951,-100,4,2,2,80,0,0
347065,-100,4,2,2,20,0,0
347321,-100,4,2,50,80,0,0
347406,-100,4,2,2,80,0,0
347861,-100,4,2,9,80,0,0
347946,-100,4,2,50,80,0,0
347974,-100,4,2,50,20,0,0
348003,-100,4,2,50,80,0,0
348088,-100,4,2,9,80,0,0
348315,-100,4,2,2,80,0,0
348628,-100,4,2,50,80,0,0
348656,-100,4,2,50,20,0,0
348684,-100,4,2,50,80,0,0
348741,-100,4,2,40,80,0,0
348770,-100,4,2,40,20,0,0
348798,-100,4,2,40,80,0,0
348855,-100,4,2,2,80,0,0
348883,-100,4,2,2,20,0,0
349139,-100,4,2,50,80,0,0
349224,-100,4,2,2,80,0,0
349792,-100,4,2,9,80,0,0
349906,-100,4,2,9,20,0,0
349934,-100,4,2,9,80,0,0
350105,-100,4,2,25,80,0,0
350133,-100,4,2,25,55,0,0
350162,-100,4,2,25,80,0,0
350247,-100,4,2,9,80,0,0
350588,-100,4,2,2,80,0,0
350701,-100,4,2,2,20,0,0
350929,-100,4,2,9,80,0,0
351042,-100,4,2,2,80,0,0
351128,-100,4,2,50,80,0,0
351156,-100,4,2,50,20,0,0
351184,-100,4,2,50,80,0,0
351270,-100,4,2,9,80,0,0
351497,-100,4,2,2,80,0,0
351611,-100,4,2,9,80,0,0
351838,-100,4,2,2,80,0,0
352406,-100,4,2,9,80,0,0
352520,-100,4,2,9,20,0,0
352662,-100,4,2,9,80,0,0
352861,-100,4,2,2,80,0,0
353088,-100,4,2,9,80,0,0
353173,-100,4,2,50,80,0,0
353201,-100,4,2,50,20,0,0
353230,-100,4,2,50,80,0,0
353287,-100,4,2,40,80,0,0
353315,-100,4,2,40,20,0,0
353343,-100,4,2,40,80,0,0
353429,-100,4,2,9,80,0,0
353542,-100,4,2,2,80,0,0
353770,-100,4,2,9,80,0,0
353997,-100,4,2,2,80,0,0
354224,-100,4,2,9,80,0,0
354338,-100,4,2,2,35,0,0
354565,-100,4,2,9,80,0,0
354679,-100,4,2,2,35,0,0
354906,-100,4,2,9,80,0,0
355020,-100,4,2,2,35,0,0
355133,-100,4,2,9,80,0,0
355247,-100,4,2,2,35,0,0
355474,-100,4,2,9,80,0,0
355588,-100,4,2,2,35,0,0
355815,-100,4,2,9,80,0,0
355929,-100,4,2,2,35,0,0
356042,-100,4,2,9,80,0,0
356156,-100,4,2,9,20,0,0
356184,-100,4,2,9,80,0,0
356270,-100,4,2,9,80,0,0
356383,-100,4,2,20,80,0,0
356497,-100,4,2,2,80,0,0
356582,-100,4,2,50,80,0,0
356611,-100,4,2,50,20,0,0
356639,-100,4,2,50,80,0,0
356724,-100,4,2,20,80,0,0
356951,-100,4,2,2,80,0,0
357037,-100,4,2,50,80,0,0
357065,-100,4,2,50,20,0,0
357093,-100,4,2,50,80,0,0
357179,-100,4,2,2,80,0,0
357292,-100,4,2,21,80,0,0
357406,-100,4,2,2,80,0,0
357491,-100,4,2,50,80,0,0
357520,-100,4,2,50,20,0,0
357548,-100,4,2,50,80,0,0
357633,-100,4,2,21,80,0,0
357861,-100,4,2,2,80,0,0

[Colours]
Combo1 : 83,83,83
Combo2 : 97,100,255
Combo3 : 255,64,69
Combo4 : 207,207,215
SliderBorder : 215,215,215

[HitObjects]
36,148,818,5,0,0:0:0:0:
36,148,1045,1,0,0:0:0:0:
36,148,1272,1,0,0:0:0:0:
116,100,1500,2,0,L|116:4,2,92,4|0|0,0:0|0:0|0:0,0:0:0:0:
116,192,2181,1,0,0:0:0:0:
292,248,2636,5,0,0:0:0:0:
324,336,2863,1,0,0:0:0:0:
384,268,3090,1,0,0:0:0:0:
444,336,3318,1,4,0:0:0:0:
476,248,3545,2,0,L|476:156,2,92
404,80,4454,1,0,0:0:0:0:
256,192,4909,21,0,0:0:0:0:
256,192,5136,2,0,L|256:284,2,92,4|0|0,0:0|0:0|0:0,0:0:0:0:
180,248,5818,1,0,0:0:0:0:
108,80,6272,1,0,0:0:0:0:
108,80,6500,1,0,0:0:0:0:
108,80,6727,1,0,0:0:0:0:
484,136,8090,6,0,L|484:240,2,92
484,44,8772,1,4,0:0:0:0:
404,92,9000,1,0,0:0:0:0:
324,44,9227,1,0,0:0:0:0:
324,136,9454,2,0,L|324:320,1,184
256,256,10136,5,0,0:0:0:0:
188,192,10363,1,0,0:0:0:0:
256,128,10590,1,4,0:0:0:0:
324,192,10818,1,0,0:0:0:0:
256,256,11045,1,0,0:0:0:0:
188,320,11272,2,0,L|188:136,1,184
188,136,12409,21,0,0:0:0:0:
396,284,15363,5,0,0:0:0:0:
396,192,15590,1,0,0:0:0:0:
476,236,15818,1,0,0:0:0:0:
476,134,16045,2,0,L|476:38,2,92,4|0|0,0:0|0:0|0:0,0:0:0:0:
396,192,16727,1,0,0:0:0:0:
192,164,17181,5,0,0:0:0:0:
257,229,17409,1,0,0:0:0:0:
322,164,17636,1,0,0:0:0:0:
322,164,17863,1,4,0:0:0:0:
256,100,18090,2,0,L|256:8,2,92
96,192,19000,1,0,0:0:0:0:
256,284,19454,21,0,0:0:0:0:
256,284,19681,2,0,L|256:376,2,92,4|0|0,0:0|0:0|0:0,0:0:0:0:
176,332,20363,1,0,0:0:0:0:
336,236,20818,1,0,0:0:0:0:
336,236,21045,1,0,0:0:0:0:
336,236,21272,1,0,0:0:0:0:
112,288,22636,6,0,L|112:184,2,92
32,336,23318,1,4,0:0:0:0:
112,288,23545,1,0,0:0:0:0:
192,336,23772,1,0,0:0:0:0:
192,244,24000,2,0,L|192:60,1,184
256,128,24681,5,0,0:0:0:0:
256,220,24909,1,0,0:0:0:0:
256,312,25136,1,4,0:0:0:0:
256,220,25363,1,0,0:0:0:0:
256,128,25590,1,0,0:0:0:0:
320,60,25818,2,0,L|320:244,1,184
320,244,26954,21,0,0:0:0:0:
308,148,44454,6,0,L|404:124,1,92
456,52,44909,2,0,L|360:28,1,92,0|2,0:0|0:0,0:0:0:0:
296,88,45363,1,0,0:0:0:0:
208,68,45590,1,0,0:0:0:0:
144,136,45818,1,0,0:0:0:0:
320,192,46272,6,0,L|320:284,2,92,2|0|0,0:0|0:0|0:0,0:0:0:0:
376,120,46954,2,0,L|376:24,2,92,2|0|0,0:0|0:0|0:0,0:0:0:0:
432,192,47636,1,0,0:0:0:0:
256,244,48090,1,2,0:0:0:0:
80,296,48545,21,0,0:0:0:0:
80,296,48772,2,0,P|96:344|128:368,2,92,2|0|2,0:0|0:0|0:0,0:0:0:0:
168,288,49454,2,0,P|256:264|344:288,1,184,0|2,0:0|0:0,0:0:0:0:
384,368,50136,2,0,P|419:340|431:297,1,92,0|0,0:0|0:0,0:0:0:0:
72,228,51727,5,0,0:0:0:0:
116,148,51954,1,0,0:0:0:0:
28,124,52181,1,0,0:0:0:0:
72,44,52409,2,0,L|164:44,1,92,2|0,0:0|0:0,0:0:0:0:
208,124,52863,2,0,L|116:124,1,92
300,144,53545,6,0,P|356:176|416:180,1,92,2|0,0:0|0:0,0:0:0:0:
472,160,54000,1,0,0:0:0:0:
448,248,54227,2,0,P|392:280|332:284,1,92,2|0,0:0|0:0,0:0:0:0:
276,264,54681,1,0,0:0:0:0:
214,332,54909,1,0,0:0:0:0:
96,192,55363,1,2,0:0:0:0:
96,192,56045,21,0,0:0:0:0:
256,192,56159,12,0,57636,0:0:0:0:
348,76,57863,6,0,P|408:108|444:156,1,92,8|0,0:0|0:0,0:0:0:0:
444,216,58317,1,8,0:0:0:0:
292,192,58544,2,0,P|348:248|376:348,1,184
256,336,59226,1,8,0:0:0:0:
196,232,59453,1,0,0:0:0:0:
164,76,59681,6,0,P|104:108|68:156,1,92,8|0,0:0|0:0,0:0:0:0:
68,216,60135,1,8,0:0:0:0:
135,346,60363,2,0,P|157:258|220:192,1,184
335,225,61044,1,8,0:0:0:0:
409,131,61272,1,0,0:0:0:0:
504,256,61499,22,0,P|464:288|404:300,1,92,8|0,0:0|0:0,0:0:0:0:
336,280,61953,1,8,0:0:0:0:
236,160,62181,2,0,P|232:224|132:312,1,184,2|0,0:0|0:0,0:0:0:0:
32,324,62863,2,0,P|36:272|56:236,1,92,8|0,0:0|0:0,0:0:0:0:
172,132,63317,5,8,0:0:0:0:
262,195,63544,1,0,2:0:0:0:
161,243,63772,1,8,0:0:0:0:
272,84,63999,2,0,B|364:92|364:92|436:148,1,184
476,232,64681,5,0,0:0:0:0:
476,236,64794,1,0,0:0:0:0:
476,240,64908,1,0,0:0:0:0:
476,244,65022,1,0,0:0:0:0:
476,248,65135,2,0,P|416:320|331:336,1,184,0|8,0:0|0:0,0:0:0:0:
256,252,65817,1,2,0:0:0:0:
181,335,66044,2,0,P|92:318|36:248,1,184,0|8,0:0|0:0,0:0:0:0:
181,48,66953,22,0,P|92:65|36:136,1,184,0|8,0:0|0:0,0:0:0:0:
166,192,67635,1,2,0:0:0:0:
299,145,67863,2,0,P|335:173|387:173,1,92
213,239,68317,2,0,P|177:267|141:271,2,61.3333333333333,8|0|0,0:0|0:0|0:0,0:0:0:0:
256,192,68772,5,0,0:0:0:0:
256,192,68885,12,0,71272,0:0:0:0:
132,168,71726,5,0,0:0:0:0:
204,152,71953,1,8,0:0:0:0:
260,104,72181,1,0,0:0:0:0:
332,80,72408,2,0,P|428:96|476:152,2,138,10|0|0,0:0|0:0|0:0,0:0:0:0:
372,164,73317,1,8,0:0:0:0:
364,180,73431,1,0,0:0:0:0:
356,196,73544,1,2,0:0:0:0:
308,252,73772,22,0,L|212:260,1,92,8|0,0:0|0:0,0:0:0:0:
152,224,74226,1,10,0:0:0:0:
32,160,74453,1,0,0:0:0:0:
136,112,74681,1,8,0:0:0:0:
92,192,74908,2,0,P|96:264|196:276,1,184,0|2,0:0|0:0,0:0:0:0:
232,256,75476,5,0,0:0:0:0:
256,216,75590,2,0,L|256:168,1,46,8|0,0:0|0:0,0:0:0:0:
308,332,75931,1,0,0:0:0:0:
308,332,76044,2,0,P|412:292|420:232,1,184,10|8,0:0|0:0,0:0:0:0:
388,124,76726,1,0,0:0:0:0:
332,196,76953,6,0,L|328:256,2,46,8|2|0,0:0|0:0|0:0,0:0:0:0:
316,152,77294,2,0,P|292:120|232:120,2,92,2|0|2,0:0|0:0|0:0,0:0:0:0:
332,196,77863,1,8,0:0:0:0:
176,316,78317,2,0,P|100:264|76:164,1,184,8|8,0:0|0:0,0:0:0:0:
104,112,78999,21,0,0:0:0:0:
164,68,79226,1,8,0:0:0:0:
192,136,79453,1,0,0:0:0:0:
252,92,79681,2,0,P|312:64|388:88,1,138,10|0,0:0|0:0,0:0:0:0:
396,116,80135,2,0,P|424:156|484:160,1,92,8|0,0:0|0:0,0:0:0:0:
512,104,80590,1,8,0:0:0:0:
488,244,80817,5,2,0:0:0:0:
428,284,81044,1,8,0:0:0:0:
356,284,81272,1,0,0:0:0:0:
304,232,81499,2,0,P|240:188|204:188,1,92,10|0,0:0|0:0,0:0:0:0:
132,212,81953,1,8,0:0:0:0:
40,112,82181,2,0,P|0:200|24:296,1,184,0|2,0:0|0:0,0:0:0:0:
68,336,82863,5,8,0:0:0:0:
166,263,83090,1,0,0:0:0:0:
256,348,83317,2,0,P|356:336|404:272,1,184,10|8,0:0|0:0,0:0:0:0:
484,128,83999,2,0,P|384:140|336:204,1,184,0|2,0:0|0:0,0:0:0:0:
200,192,84681,21,8,0:0:0:0:
200,192,84794,1,0,0:0:0:0:
152,320,85022,1,2,0:0:0:0:
152,320,85135,2,0,P|60:328|4:256,1,184,8|10,0:0|0:0,0:0:0:0:
60,60,86044,5,8,0:0:0:0:
133,71,86272,1,0,0:0:0:0:
71,133,86499,1,8,0:0:0:0:
207,88,86726,1,0,0:0:0:0:
88,207,86953,2,0,P|136:264|224:280,1,138,10|0,0:0|0:0,0:0:0:0:
195,282,87408,2,0,L|228:372,1,92,8|0,0:0|0:0,0:0:0:0:
364,340,87863,5,8,0:0:0:0:
388,336,87976,1,0,0:0:0:0:
408,324,88090,2,0,P|440:288|444:228,1,92,2|8,0:0|0:0,0:0:0:0:
412,160,88544,1,0,0:0:0:0:
480,72,88772,2,0,L|368:56,1,92,10|0,0:0|0:0,0:0:0:0:
316,116,89226,1,8,0:0:0:0:
228,24,89453,2,0,P|128:63|116:152,1,184,0|2,0:0|0:0,0:0:0:0:
104,176,90022,2,0,P|52:196|0:176,2,92,0|0|2,0:0|0:0|0:0,0:0:0:0:
104,176,90590,21,8,0:0:0:0:
200,100,90817,1,0,0:0:0:0:
320,88,91044,1,8,0:0:0:0:
424,144,91272,1,2,0:0:0:0:
304,212,91499,2,0,P|320:304|404:356,1,184,8|8,0:0|0:0,0:0:0:0:
404,248,92181,2,0,L|456:224,2,46,0|2|8,0:0|0:0|0:0,0:0:0:0:
164,288,92863,6,0,L|72:288,1,92,8|0,0:0|0:0,0:0:0:0:
210,192,93317,2,0,L|302:192,1,92,8|0,0:0|0:0,0:0:0:0:
440,96,93772,2,0,L|348:96,1,92,8|0,0:0|0:0,0:0:0:0:
72,96,94226,6,0,P|100:156|180:184,2,138,10|0|0,0:0|0:0|0:0,0:0:0:0:
156,100,95135,1,8,0:0:0:0:
52,216,95363,21,2,0:0:0:0:
112,260,95590,1,8,0:0:0:0:
184,264,95817,1,0,0:0:0:0:
240,220,96044,2,0,P|288:192|324:188,1,92,10|0,0:0|0:0,0:0:0:0:
460,208,96499,1,8,0:0:0:0:
356,120,96726,2,0,B|432:148|352:240|428:272,1,184,0|2,0:0|0:0,0:0:0:0:
448,120,97408,6,0,P|404:68|364:56,1,92,8|0,0:0|0:0,0:0:0:0:
324,208,97863,2,0,P|260:280|144:296,1,184,10|8,0:0|0:0,0:0:0:0:
64,284,98544,1,0,0:0:0:0:
48,160,98772,6,0,L|-12:148,2,46,8|2|0,0:0|0:0|0:0,0:0:0:0:
80,176,99113,2,0,P|92:220|144:242,2,92,2|0|2,0:0|0:0|0:0,0:0:0:0:
148,176,99681,22,0,L|284:128,1,138,8|0,0:0|0:0,0:0:0:0:
336,176,100135,6,0,L|200:224,1,138,8|0,0:0|0:0,0:0:0:0:
256,276,100590,5,8,0:0:0:0:
297,260,100703,1,8,0:0:0:0:
340,245,100817,1,8,0:0:0:0:
384,230,100931,1,8,0:0:0:0:
428,288,101044,21,8,0:0:0:0:
387,304,101158,1,8,0:0:0:0:
344,319,101272,1,8,0:0:0:0:
300,334,101385,1,8,0:0:0:0:
304,336,101499,6,0,L|280:386,2,46,2|2|2,0:0|0:0|0:0,0:0:0:0:
227,270,101953,1,8,0:0:0:0:
136,304,102181,1,2,0:0:0:0:
136,304,102294,1,2,0:0:0:0:
136,304,102408,2,0,P|92:272|76:224,1,92,2|2,0:0|0:0,0:0:0:0:
76,192,102749,1,0,0:0:0:0:
84,148,102863,2,0,P|124:112|140:60,1,92,8|2,0:0|0:0,0:0:0:0:
56,72,103317,5,0,0:0:0:0:
223,84,103544,2,0,P|192:169|120:224,1,184,2|2,0:0|0:0,0:0:0:0:
120,223,104113,1,2,0:0:0:0:
120,223,104226,1,0,0:0:0:0:
24,176,104453,1,2,0:0:0:0:
140,60,104681,21,8,0:0:0:0:
256,112,104908,1,0,0:0:0:0:
372,60,105135,2,0,P|408:132|400:176,1,92,0|2,0:0|0:0,0:0:0:0:
324,252,105590,2,0,P|396:288|440:280,1,92,8|2,0:0|0:0,0:0:0:0:
188,252,106044,2,0,P|116:288|72:280,1,92,0|2,0:0|0:0,0:0:0:0:
140,60,106499,2,0,P|104:132|112:176,1,92,8|2,0:0|0:0,0:0:0:0:
256,288,106953,5,2,0:0:0:0:
339,144,107181,1,2,0:0:0:0:
172,144,107408,1,10,0:0:0:0:
311,224,107635,5,2,0:0:0:0:
342,241,107749,1,2,0:0:0:0:
373,260,107863,1,0,0:0:0:0:
256,340,108090,1,2,0:0:0:0:
200,224,108317,1,10,0:0:0:0:
169,241,108431,1,0,0:0:0:0:
138,260,108544,1,2,0:0:0:0:
24,184,108772,22,0,P|36:112|68:72,1,92,4|2,0:0|0:0,0:0:0:0:
116,40,109226,1,8,0:0:0:0:
116,164,109453,2,0,L|296:224,1,184,2|2,0:0|0:0,0:0:0:0:
290,222,110135,1,8,0:0:0:0:
392,252,110363,1,2,0:0:0:0:
488,184,110590,6,0,P|476:112|444:72,1,92,4|2,0:0|0:0,0:0:0:0:
396,40,111044,1,8,0:0:0:0:
396,164,111272,1,2,0:0:0:0:
376,176,111385,1,2,0:0:0:0:
356,188,111499,1,0,0:0:0:0:
284,128,111726,2,0,P|246:102|196:100,1,92,2|8,0:0|0:0,0:0:0:0:
116,132,112181,1,2,0:0:0:0:
132,288,112408,6,0,L|72:296,2,46,10|2|2,0:0|0:0|0:0,0:0:0:0:
256,192,112863,1,8,0:0:0:0:
376,88,113090,1,2,0:0:0:0:
376,88,113203,1,2,0:0:0:0:
376,88,113317,2,0,L|480:76,1,92,8|2,0:0|0:0,0:0:0:0:
364,200,113772,2,0,L|260:212,1,92,8|2,0:0|0:0,0:0:0:0:
159,324,114226,21,0,0:0:0:0:
85,269,114453,1,0,0:0:0:0:
140,184,114681,1,0,0:0:0:0:
26,145,114908,1,0,0:0:0:0:
116,40,115135,5,0,0:0:0:0:
140,36,115249,1,0,0:0:0:0:
164,40,115363,1,0,0:0:0:0:
188,44,115476,1,0,0:0:0:0:
212,40,115590,1,0,0:0:0:0:
236,36,115703,1,0,0:0:0:0:
260,40,115817,1,0,0:0:0:0:
284,44,115931,1,0,0:0:0:0:
308,40,116044,6,0,P|360:28|416:32,1,92,4|2,0:0|0:0,0:0:0:0:
364,136,116499,1,8,0:0:0:0:
292,220,116726,2,0,P|392:240|460:192,1,184,2|0,0:0|0:0,0:0:0:0:
364,136,117408,1,8,0:0:0:0:
436,52,117635,2,0,P|336:32|268:80,1,184,2|0,0:0|0:0,0:0:0:0:
200,160,118317,2,0,L|104:160,1,92,10|0,0:0|0:0,0:0:0:0:
21,28,118772,21,0,0:0:0:0:
65,19,118885,2,0,P|115:26|150:60,1,92,2|2,0:0|0:0,0:0:0:0:
162,95,119226,1,8,0:0:0:0:
74,210,119453,1,2,0:0:0:0:
214,247,119681,6,0,P|266:275|282:319,1,92,0|2,0:0|0:0,0:0:0:0:
310,195,120135,1,8,0:0:0:0:
384,79,120363,2,0,P|440:135|440:239,1,184,2|2,0:0|0:0,0:0:0:0:
310,195,121044,1,8,0:0:0:0:
280,88,121272,2,0,P|256:126|214:143,1,92,0|6,0:0|0:0,0:0:0:0:
43,117,121726,1,0,0:0:0:0:
67,78,121840,1,4,0:0:0:0:
109,61,121953,1,8,0:0:0:0:
214,143,122181,1,0,0:0:0:0:
321,67,122408,5,0,0:0:0:0:
363,83,122522,1,0,0:0:0:0:
381,125,122635,1,0,0:0:0:0:
362,167,122749,1,0,0:0:0:0:
321,187,122863,1,10,0:0:0:0:
306,230,122976,1,0,0:0:0:0:
326,270,123090,1,0,0:0:0:0:
367,289,123203,1,0,0:0:0:0:
411,275,123317,22,0,P|459:247|476:213,1,92,6|0,0:0|0:0,0:0:0:0:
362,167,123772,1,8,0:0:0:0:
354,44,123999,2,0,P|291:55|231:159,1,184,2|0,0:0|0:0,0:0:0:0:
230,151,124567,1,0,0:0:0:0:
230,151,124681,1,8,0:0:0:0:
158,340,124908,6,0,P|221:329|281:225,1,184,2|0,0:0|0:0,0:0:0:0:
228,120,125590,1,8,0:0:0:0:
168,228,125817,2,0,P|128:196|112:152,1,92,2|0,0:0|0:0,0:0:0:0:
212,48,126272,5,0,0:0:0:0:
256,192,126499,1,8,0:0:0:0:
300,48,126726,1,0,0:0:0:0:
344,228,126953,22,0,P|384:196|400:152,1,92,4|2,0:0|0:0,0:0:0:0:
308,144,127408,1,8,0:0:0:0:
376,312,127635,2,0,P|444:268|488:172,1,184,0|2,0:0|0:0,0:0:0:0:
256,192,128317,1,8,0:0:0:0:
136,312,128544,2,0,P|68:268|24:172,1,184,2|0,0:0|0:0,0:0:0:0:
96,56,129226,6,0,L|212:36,1,92,10|0,0:0|0:0,0:0:0:0:
348,96,129681,2,0,L|232:116,1,92,2|0,0:0|0:0,0:0:0:0:
400,16,130135,1,10,0:0:0:0:
512,120,130363,1,2,0:0:0:0:
452,244,130590,5,4,0:0:0:0:
316,216,130817,2,0,P|260:224|220:264,1,92,2|8,0:0|0:0,0:0:0:0:
152,356,131272,2,0,P|60:304|40:220,1,184,2|0,0:0|0:0,0:0:0:0:
128,168,131953,1,8,0:0:0:0:
232,204,132181,2,0,P|324:152|344:68,1,184,2|0,0:0|0:0,0:0:0:0:
236,96,132863,2,0,L|156:32,1,92,10|0,0:0|0:0,0:0:0:0:
33,104,133317,21,0,0:0:0:0:
13,148,133431,2,0,P|2:192|13:236,1,92,2|2,0:0|0:0,0:0:0:0:
33,280,133772,1,8,0:0:0:0:
113,192,133999,1,2,0:0:0:0:
152,308,134226,6,0,P|208:320|272:316,1,92,0|2,0:0|0:0,0:0:0:0:
348,276,134681,1,8,0:0:0:0:
452,172,134908,2,0,L|422:64,1,92,2|0,0:0|0:0,0:0:0:0:
400,224,135363,2,0,L|429:331,1,92,2|8,0:0|0:0,0:0:0:0:
506,124,135817,1,0,0:0:0:0:
304,192,136044,2,0,P|257:195|180:172,1,92,6|0,0:0|0:0,0:0:0:0:
196,180,136385,1,4,0:0:0:0:
180,172,136499,1,8,0:0:0:0:
88,76,136726,1,0,0:0:0:0:
24,192,136953,5,0,0:0:0:0:
36,236,137067,1,0,0:0:0:0:
76,258,137181,1,0,0:0:0:0:
122,261,137294,1,0,0:0:0:0:
163,240,137408,2,0,P|247:216|299:220,1,138,10|0,0:0|0:0,0:0:0:0:
340,236,137863,21,4,0:0:0:0:
436,320,138090,1,0,0:0:0:0:
512,204,138317,1,8,0:0:0:0:
400,96,138544,2,0,P|312:68|228:96,1,184,2|0,0:0|0:0,0:0:0:0:
227,96,139113,1,0,0:0:0:0:
227,96,139226,1,8,0:0:0:0:
152,236,139453,6,0,P|64:168|76:108,1,184,2|0,0:0|0:0,0:0:0:0:
140,16,140135,1,8,0:0:0:0:
244,108,140363,2,0,P|280:132|344:140,1,92,2|0,0:0|0:0,0:0:0:0:
328,32,140817,5,0,0:0:0:0:
240,224,141044,1,8,0:0:0:0:
328,32,141272,1,0,0:0:0:0:
512,136,141499,22,0,P|444:284|256:292,1,368,4|0,0:0|0:0,0:0:0:0:
120,52,142863,1,10,0:0:0:0:
392,52,143317,2,0,P|432:92|440:148,1,92,4|4,0:0|0:0,0:0:0:0:
441,125,143772,1,8,0:0:0:0:
200,180,143999,6,0,B|192:252|320:236|312:308,1,184
256,380,144681,1,10,0:0:0:0:
132,244,144908,1,0,0:0:0:0:
256,108,145135,1,4,0:0:0:0:
256,192,145249,12,0,148772,0:0:0:0:
256,192,159681,5,8,0:0:0:0:
256,192,160135,1,8,0:0:0:0:
196,156,160363,2,0,P|168:120|160:88,1,69.0000026321412,2|8,0:0|0:0,0:0:0:0:
328,152,160817,2,0,P|329:221|281:273,1,138.000005264282,2|0,0:0|0:0,0:0:0:0:
256,192,161499,21,8,0:0:0:0:
256,192,161953,1,8,0:0:0:0:
196,148,162181,2,0,L|132:96,1,69.0000026321412,2|8,0:0|0:0,0:0:0:0:
312,236,162635,2,0,L|424:328,1,138.000005264282,2|0,0:0|0:0,0:0:0:0:
256,192,163317,5,8,0:0:0:0:
256,192,163772,1,8,0:0:0:0:
224,128,163999,2,0,P|256:118|288:128,1,69.0000026321412,2|8,0:0|0:0,0:0:0:0:
224,256,164453,2,0,P|172:299|88:296,1,138.000005264282,2|0,0:0|0:0,0:0:0:0:
256,192,165135,5,8,0:0:0:0:
256,192,165590,1,8,0:0:0:0:
315,132,165817,2,0,L|366:81,1,69.0000026321412,2|8,0:0|0:0,0:0:0:0:
370,78,166158,2,0,L|403:45,1,34.5000013160706,2|2,0:0|0:0,0:0:0:0:
468,160,166499,21,0,0:0:0:0:
465,194,166613,1,0,0:0:0:0:
448,224,166726,1,0,0:0:0:0:
419,242,166840,1,0,0:0:0:0:
384,246,166953,2,0,P|303:236|255:205,1,138,8|0,0:0|0:0,0:0:0:0:
242,171,167408,2,0,P|215:128|155:116,1,92,8|2,0:0|0:0,0:0:0:0:
108,136,167863,1,8,0:0:0:0:
216,44,168090,5,0,0:0:0:0:
288,48,168317,1,10,0:0:0:0:
352,84,168544,1,0,0:0:0:0:
388,148,168772,2,0,P|444:152|484:128,2,92,8|2|8,0:0|0:0|0:0,0:0:0:0:
296,132,169453,1,2,0:0:0:0:
296,132,169567,1,0,0:0:0:0:
296,132,169681,1,8,0:0:0:0:
424,64,169908,5,0,0:0:0:0:
512,180,170135,2,0,P|476:232|424:244,1,92,10|0,0:0|0:0,0:0:0:0:
316,156,170590,2,0,B|240:132|208:236|140:204,1,184,8|8,0:0|0:0,0:0:0:0:
64,40,171272,2,0,P|0:124|16:204,1,184,2|0,0:0|0:0,0:0:0:0:
11,196,171840,21,0,0:0:0:0:
11,196,171953,1,8,0:0:0:0:
108,140,172181,1,0,0:0:0:0:
184,220,172408,2,0,L|284:208,1,92,8|0,0:0|0:0,0:0:0:0:
312,204,172749,1,0,0:0:0:0:
344,220,172863,2,0,P|412:160|400:68,1,184,8|8,0:0|0:0,0:0:0:0:
324,124,173544,5,0,0:0:0:0:
264,84,173772,1,10,0:0:0:0:
236,152,173999,1,0,0:0:0:0:
168,120,174226,2,0,P|116:76|104:8,2,138,10|0|2,0:0|0:0|0:0,0:0:0:0:
188,32,175135,1,8,0:0:0:0:
40,112,175363,6,0,P|60:164|100:188,1,92,2|8,0:0|0:0,0:0:0:0:
180,164,175817,1,0,0:0:0:0:
320,216,176044,2,0,P|300:164|260:140,1,92,10|0,0:0|0:0,0:0:0:0:
88,184,176499,1,10,0:0:0:0:
176,344,176726,2,0,P|264:364|372:352,1,184,2|0,0:0|0:0,0:0:0:0:
444,328,177408,21,10,0:0:0:0:
480,244,177635,1,2,0:0:0:0:
432,92,177863,2,0,P|312:120|292:176,1,184,8|8,0:0|0:0,0:0:0:0:
256,320,178544,2,0,P|136:292|116:236,1,184,2|0,0:0|0:0,0:0:0:0:
116,245,179113,1,0,0:0:0:0:
116,245,179226,1,10,0:0:0:0:
104,136,179453,1,0,0:0:0:0:
208,176,179681,6,0,L|340:224,1,138,8|0,0:0|0:0,0:0:0:0:
337,223,180135,1,12,0:0:0:0:
424,256,180363,1,0,0:0:0:0:
500,208,180590,6,0,P|480:165|440:148,1,92,8|2,0:0|0:0,0:0:0:0:
300,156,181044,2,0,P|319:198|359:215,1,92,8|2,0:0|0:0,0:0:0:0:
367,75,181499,2,0,P|320:20|256:8,2,138,10|0|2,0:0|0:0|0:0,0:0:0:0:
388,164,182408,1,8,0:0:0:0:
276,244,182635,22,0,P|316:280|352:292,1,92,2|8,0:0|0:0,0:0:0:0:
444,284,183090,1,2,0:0:0:0:
297,375,183317,2,0,P|350:372|384:355,1,92,10|2,0:0|0:0,0:0:0:0:
444,284,183772,1,10,0:0:0:0:
364,116,183999,2,0,P|464:152|504:216,1,184,2|0,0:0|0:0,0:0:0:0:
464,348,184681,5,8,0:0:0:0:
360,288,184908,1,2,0:0:0:0:
264,360,185135,2,0,P|164:356|100:304,1,184,8|8,0:0|0:0,0:0:0:0:
211,252,185817,1,0,0:0:0:0:
155,144,186044,2,0,P|255:148|319:200,1,184,10|8,0:0|0:0,0:0:0:0:
317,198,186726,1,2,0:0:0:0:
116,220,186953,1,6,0:0:0:0:
256,56,187408,6,0,P|328:76|348:108,1,92,8|0,0:0|0:0,0:0:0:0:
136,84,187863,2,0,P|156:12|188:-8,1,92,8|0,0:0|0:0,0:0:0:0:
168,204,188317,2,0,P|96:204|40:124,1,138,8|0,0:0|0:0,0:0:0:0:
50,161,188772,21,8,0:0:0:0:
148,108,188999,2,0,L|256:140,1,92,0|8,0:0|0:0,0:0:0:0:
396,168,189453,2,0,P|372:116|340:96,2,92,0|10|0,0:0|0:0|0:0,0:0:0:0:
380,260,190135,5,8,0:0:0:0:
304,340,190363,1,0,0:0:0:0:
168,352,190590,2,0,P|116:332|100:296,1,92,10|0,0:0|0:0,0:0:0:0:
104,192,191044,1,8,0:0:0:0:
168,32,191272,2,0,P|68:56|40:136,1,184,2|0,0:0|0:0,0:0:0:0:
104,192,191953,1,10,0:0:0:0:
28,244,192181,1,0,0:0:0:0:
164,265,192408,6,0,P|264:241|292:161,1,184,10|8,0:0|0:0,0:0:0:0:
251,49,193090,2,0,P|280:140|358:177,1,184,2|0,0:0|0:0,0:0:0:0:
362,64,193772,21,0,0:0:0:0:
362,64,193885,1,0,0:0:0:0:
362,64,193999,1,0,0:0:0:0:
362,64,194113,1,0,0:0:0:0:
362,64,194226,5,0,0:0:0:0:
434,120,194453,1,4,0:0:0:0:
473,213,194681,1,0,0:0:0:0:
452,321,194908,1,4,0:0:0:0:
345,374,195135,1,0,0:0:0:0:
216,364,195363,1,4,0:0:0:0:
105,282,195590,1,0,0:0:0:0:
77,137,195817,1,4,0:0:0:0:
170,11,196044,6,0,P|270:12|336:64,1,184,0|8,0:0|0:0,0:0:0:0:
256,144,196726,1,2,0:0:0:0:
220,252,196953,2,0,P|286:299|351:296,1,138,0|2,0:0|0:0,0:0:0:0:
352,320,197408,2,0,L|388:200,1,92,8|0,0:0|0:0,0:0:0:0:
176,156,197863,21,0,0:0:0:0:
292,84,198090,2,0,L|412:104,1,92,2|8,0:0|0:0,0:0:0:0:
480,196,198544,2,0,L|296:164,1,184,2|0,0:0|0:0,0:0:0:0:
176,148,199226,5,8,0:0:0:0:
56,240,199453,1,2,0:0:0:0:
172,336,199681,2,0,P|256:368|340:336,2,184,0|8|2,0:0|0:0|0:0,0:0:0:0:
408,192,201044,1,8,0:0:0:0:
104,192,201499,6,0,L|44:272,2,92,2|0|8,0:0|0:0|0:0,0:0:0:0:
252,176,202181,2,0,L|312:96,1,92,2|0,0:0|0:0,0:0:0:0:
400,228,202635,2,0,P|312:324|244:332,1,184,2|0,0:0|0:0,0:0:0:0:
100,300,203317,21,0,0:0:0:0:
224,108,203544,2,0,P|148:80|40:88,2,184,2|0|0,0:0|0:0|0:0,0:0:0:0:
328,196,204681,2,0,P|392:184|420:148,1,92,10|0,0:0|0:0,0:0:0:0:
344,112,205135,5,0,0:0:0:0:
224,276,205363,2,0,P|148:304|40:296,2,184,2|0|2,0:0|0:0|0:0,0:0:0:0:
224,276,206499,1,8,0:0:0:0:
456,124,206953,6,0,L|492:152,2,46,8|8|8,0:0|0:0|0:0,0:0:0:0:
368,148,207408,1,8,0:0:0:0:
280,128,207635,2,0,L|244:100,2,46,8|8|8,0:0|0:0|0:0,0:0:0:0:
316,212,208090,1,8,0:0:0:0:
316,304,208317,2,0,L|352:332,2,46,8|8|8,0:0|0:0|0:0,0:0:0:0:
236,260,208772,21,0,0:0:0:0:
140,160,208999,1,0,0:0:0:0:
24,236,209226,1,0,0:0:0:0:
116,368,209453,2,0,P|200:364|236:336,1,92
284,316,209908,5,0,0:0:0:0:
468,316,210135,1,0,0:0:0:0:
284,316,210363,1,0,0:0:0:0:
376,156,210590,5,4,0:0:0:0:
420,238,210817,2,0,P|396:286|364:306,1,92,2|8,0:0|0:0,0:0:0:0:
147,305,211272,2,0,P|110:279|92:238,1,92,2|0,0:0|0:0,0:0:0:0:
304,192,211726,2,0,L|388:152,1,92,0|8,0:0|0:0,0:0:0:0:
147,76,212181,2,0,P|110:102|92:144,1,92,2|0,0:0|0:0,0:0:0:0:
172,220,212635,1,0,0:0:0:0:
128,320,212863,2,0,L|224:340,1,92,10|0,0:0|0:0,0:0:0:0:
356,336,213317,21,0,0:0:0:0:
396,316,213431,2,0,P|428:268|428:204,1,92,2|2,0:0|0:0,0:0:0:0:
428,188,213772,1,8,0:0:0:0:
296,232,213999,1,2,0:0:0:0:
167,183,214226,6,0,P|139:131|107:111,1,92,0|2,0:0|0:0,0:0:0:0:
71,7,214681,1,8,0:0:0:0:
7,149,214908,2,0,P|43:245|115:277,1,184,2|2,0:0|0:0,0:0:0:0:
167,183,215590,1,8,0:0:0:0:
211,67,215817,2,0,P|246:95|265:136,1,92,0|6,0:0|0:0,0:0:0:0:
301,317,216272,1,0,0:0:0:0:
265,289,216385,1,4,0:0:0:0:
246,247,216499,1,8,0:0:0:0:
345,183,216726,1,0,0:0:0:0:
505,149,216953,5,0,0:0:0:0:
500,196,217067,1,0,0:0:0:0:
480,236,217181,1,0,0:0:0:0:
444,264,217294,1,0,0:0:0:0:
400,276,217408,2,0,L|352:272,2,46,10|0|0,0:0|0:0|0:0,0:0:0:0:
256,340,217863,21,6,0:0:0:0:
160,244,218090,1,0,0:0:0:0:
256,144,218317,1,8,0:0:0:0:
352,244,218544,2,0,P|348:320|256:340,1,184,2|0,0:0|0:0,0:0:0:0:
256,340,219113,1,0,0:0:0:0:
256,340,219226,1,8,0:0:0:0:
256,144,219453,6,0,P|176:154|160:244,1,184,2|0,0:0|0:0,0:0:0:0:
256,340,220135,1,8,0:0:0:0:
352,244,220363,2,0,P|380:272|436:284,1,92,2|0,0:0|0:0,0:0:0:0:
428,192,220817,5,0,0:0:0:0:
256,300,221044,1,8,0:0:0:0:
84,192,221272,1,0,0:0:0:0:
220,36,221499,22,0,P|260:68|276:112,1,92,4|2,0:0|0:0,0:0:0:0:
168,136,221953,1,8,0:0:0:0:
24,177,222181,2,0,P|61:260|136:312,1,184,0|2,0:0|0:0,0:0:0:0:
256,192,222863,1,8,0:0:0:0:
487,177,223090,2,0,P|450:260|376:312,1,184,2|0,0:0|0:0,0:0:0:0:
220,289,223772,6,0,L|204:379,1,92,10|0,0:0|0:0,0:0:0:0:
308,248,224226,2,0,L|323:157,1,92,2|0,0:0|0:0,0:0:0:0:
160,72,224681,1,10,0:0:0:0:
352,72,224908,1,2,0:0:0:0:
160,72,225135,6,0,P|96:100|72:144,1,92,4|2,0:0|0:0,0:0:0:0:
28,212,225590,1,8,0:0:0:0:
12,372,225817,2,0,P|100:340|140:244,1,184,2|0,0:0|0:0,0:0:0:0:
152,152,226499,1,8,0:0:0:0:
236,16,226726,2,0,P|324:48|364:144,1,184,2|0,0:0|0:0,0:0:0:0:
352,260,227408,22,0,B|376:300|376:300|412:328,1,92,10|0,0:0|0:0,0:0:0:0:
256,332,227863,1,0,0:0:0:0:
256,356,227976,1,2,0:0:0:0:
164,236,228203,1,2,0:0:0:0:
160,260,228317,2,0,B|136:300|136:300|100:328,1,92,8|2,0:0|0:0,0:0:0:0:
48,220,228772,5,0,0:0:0:0:
108,76,228999,2,0,P|180:28|276:16,2,184,2|2|2,0:0|0:0|0:0,0:0:0:0:
108,76,230022,1,0,0:0:0:0:
108,76,230135,1,8,0:0:0:0:
180,192,230363,1,0,0:0:0:0:
108,308,230590,2,0,P|168:352|200:360,1,92,6|0,0:0|0:0,0:0:0:0:
220,363,230931,1,4,0:0:0:0:
256,360,231044,1,8,0:0:0:0:
322,239,231272,1,0,0:0:0:0:
460,236,231499,5,0,0:0:0:0:
480,196,231613,1,0,0:0:0:0:
484,152,231726,1,0,0:0:0:0:
464,112,231840,1,0,0:0:0:0:
432,80,231953,2,0,P|408:64|384:52,3,46,10|0|0|0,0:0|0:0|0:0|0:0,0:0:0:0:
348,60,232408,22,0,P|308:96|268:108,1,92,6|0,0:0|0:0,0:0:0:0:
140,64,232863,1,8,0:0:0:0:
76,184,233090,2,0,P|144:256|248:248,1,184,2|0,0:0|0:0,0:0:0:0:
224,258,233658,1,0,0:0:0:0:
224,258,233772,1,8,0:0:0:0:
436,200,233999,6,0,P|368:128|264:136,1,184
192,224,234681,1,8,0:0:0:0:
296,316,234908,2,0,P|256:352|216:364,1,92,2|0,0:0|0:0,0:0:0:0:
88,328,235363,5,0,0:0:0:0:
0,136,235590,1,8,0:0:0:0:
184,32,235817,1,0,0:0:0:0:
0,136,236044,22,0,P|68:284|256:292,1,368,4|0,0:0|0:0,0:0:0:0:
392,52,237408,1,10,0:0:0:0:
120,52,237863,2,0,P|80:92|72:148,1,92,4|4,0:0|0:0,0:0:0:0:
71,125,238317,1,8,0:0:0:0:
312,180,238544,6,0,B|320:252|192:236|200:308,1,184
256,380,239226,1,10,0:0:0:0:
380,244,239453,1,0,0:0:0:0:
256,108,239681,1,4,0:0:0:0:
256,192,239794,12,0,243317,0:0:0:0:
464,40,254226,6,0,P|336:48|264:112,1,207.000007896424,2|0,0:0|0:0,0:0:0:0:
256,160,255135,2,0,P|287:208|336:232,2,103.500003948212,2|0|0,0:0|0:0|0:0,0:0:0:0:
232,96,256044,1,0,0:0:0:0:
180,52,256272,2,0,P|108:32|20:48,1,138.000005264282,2|0,0:0|0:0,0:0:0:0:
4,168,257181,1,0,0:0:0:0:
4,168,257408,21,8,0:0:0:0:
44,224,257635,1,0,0:0:0:0:
108,244,257863,2,0,P|200:264|248:260,2,138.000005264282,0|0|2,0:0|0:0|0:0,0:0:0:0:
208,132,259226,1,8,0:0:0:0:
356,160,259681,6,0,P|380:264|308:360,1,207.000007896424,2|0,0:0|0:0,0:0:0:0:
248,360,260590,2,0,L|180:320,1,69.0000026321412
112,360,261044,1,8,0:0:0:0:
112,360,261499,5,0,0:0:0:0:
72,264,261726,2,0,P|20:304|8:376,2,138.000005264282,2|0|0,0:0|0:0|0:0,0:0:0:0:
156,256,262863,1,10,0:0:0:0:
384,96,263317,21,0,0:0:0:0:
488,83,263544,2,0,P|477:150|424:192,1,138.000005264282,2|0,0:0|0:0,0:0:0:0:
384,96,264226,2,0,L|316:56,1,69.0000026321412
228,100,264681,1,10,0:0:0:0:
228,100,265135,6,0,P|164:140|152:200,1,138.000005264282,0|2,0:0|0:0,0:0:0:0:
284,284,266044,2,0,P|348:244|360:184,1,138.000005264282,0|10,0:0|0:0,0:0:0:0:
156,52,266953,6,0,P|68:120|44:208,2,207.000007896424,8|0|8,0:0|0:0|0:0,0:0:0:0:
467,175,268772,22,0,P|438:272|356:332,1,207.000007896424
355,332,269681,1,2,0:0:0:0:
256,192,269908,2,0,L|256:112,2,69.0000026321412
184,276,270590,5,0,0:0:0:0:
328,276,270817,1,0,0:0:0:0:
40,192,271272,1,0,0:0:0:0:
472,192,271726,1,0,0:0:0:0:
148,24,272181,5,10,0:0:0:0:
256,228,272408,1,4,0:0:0:0:
364,24,272635,1,0,0:0:0:0:
456,152,272863,2,0,P|428:212|376:240,1,92,10|0,0:0|0:0,0:0:0:0:
256,192,273317,21,0,0:0:0:0:
210,184,273430,1,2,0:0:0:0:
303,338,273658,1,2,0:0:0:0:
348,344,273771,1,8,0:0:0:0:
223,284,273999,1,2,0:0:0:0:
96,336,274226,6,0,P|48:288|40:232,1,92,0|2,0:0|0:0,0:0:0:0:
128,176,274681,1,8,0:0:0:0:
96,16,274908,2,0,P|196:76|200:152,1,184,2|2,0:0|0:0,0:0:0:0:
204,134,275476,1,0,0:0:0:0:
204,134,275590,1,8,0:0:0:0:
104,232,275817,1,0,0:0:0:0:
228,292,276044,2,0,P|188:348|128:360,1,92,6|0,0:0|0:0,0:0:0:0:
132,364,276385,1,4,0:0:0:0:
96,356,276499,1,8,0:0:0:0:
28,236,276726,1,0,0:0:0:0:
48,100,276953,5,0,0:0:0:0:
81,68,277067,1,0,0:0:0:0:
125,56,277181,1,0,0:0:0:0:
170,64,277294,1,0,0:0:0:0:
202,97,277408,1,10,0:0:0:0:
206,101,277522,1,0,0:0:0:0:
210,105,277635,1,0,0:0:0:0:
214,109,277749,1,0,0:0:0:0:
218,113,277863,22,0,P|286:153|326:153,1,92,6|0,0:0|0:0,0:0:0:0:
458,140,278317,1,8,0:0:0:0:
333,46,278544,2,0,P|307:91|324:220,1,184,2|0,0:0|0:0,0:0:0:0:
322,217,279113,1,0,0:0:0:0:
322,217,279226,1,8,0:0:0:0:
179,338,279453,6,0,P|205:293|188:164,1,184,2|0,0:0|0:0,0:0:0:0:
59,78,280135,1,8,0:0:0:0:
8,224,280363,2,0,P|41:244|97:249,1,92,2|0,0:0|0:0,0:0:0:0:
204,224,280817,5,0,0:0:0:0:
348,84,281044,1,8,0:0:0:0:
152,128,281272,1,0,0:0:0:0:
344,192,281499,22,0,P|376:232|384:276,1,92,4|2,0:0|0:0,0:0:0:0:
244,80,281953,1,8,0:0:0:0:
288,272,282181,2,0,P|260:340|156:372,1,184,0|2,0:0|0:0,0:0:0:0:
148,212,282863,1,8,0:0:0:0:
0,148,283090,2,0,P|28:80|132:48,1,184,2|0,0:0|0:0,0:0:0:0:
275,122,283772,5,10,0:0:0:0:
363,98,283999,1,0,0:0:0:0:
216,224,284226,1,2,0:0:0:0:
304,248,284453,1,0,0:0:0:0:
156,376,284681,1,10,0:0:0:0:
178,369,284794,1,0,0:0:0:0:
200,364,284908,1,2,0:0:0:0:
222,358,285022,1,0,0:0:0:0:
244,352,285135,5,4,0:0:0:0:
388,372,285363,2,0,P|464:356|496:264,1,184,2|2,0:0|0:0,0:0:0:0:
492,256,286044,6,0,L|396:236,1,92
395,241,286499,1,8,0:0:0:0:
460,96,286726,2,0,P|368:44|288:60,1,184,2|0,0:0|0:0,0:0:0:0:
76,172,287408,2,0,P|166:171|206:137,1,138,10|0,0:0|0:0,0:0:0:0:
232,112,287863,5,0,0:0:0:0:
256,76,287976,1,2,0:0:0:0:
416,120,288203,1,2,0:0:0:0:
410,163,288317,2,0,P|422:215|454:243,1,92,8|2,0:0|0:0,0:0:0:0:
304,192,288772,5,0,0:0:0:0:
304,192,288999,2,0,L|212:192,1,92,2|8,0:0|0:0,0:0:0:0:
424,288,289453,2,0,L|332:288,1,92,2|0,0:0|0:0,0:0:0:0:
88,96,289908,2,0,L|180:96,1,92,2|8,0:0|0:0,0:0:0:0:
320,168,290363,1,0,0:0:0:0:
224,292,290590,2,0,P|268:336|324:336,1,92,6|0,0:0|0:0,0:0:0:0:
313,355,290931,1,4,0:0:0:0:
323,376,291044,2,0,P|350:326|384:295,1,92,8|0,0:0|0:0,0:0:0:0:
480,192,291499,5,0,0:0:0:0:
468,172,291613,1,0,0:0:0:0:
456,152,291726,1,0,0:0:0:0:
444,132,291840,1,0,0:0:0:0:
432,112,291953,2,0,L|432:56,2,46,10|0|0,0:0|0:0|0:0,0:0:0:0:
376,248,292408,22,0,P|324:320|224:348,1,184,4|8,0:0|0:0,0:0:0:0:
128,264,293090,2,0,L|16:264,1,92
232,192,293544,2,0,L|344:192,1,92,0|8,0:0|0:0,0:0:0:0:
208,32,293999,5,0,0:0:0:0:
208,32,294113,1,0,0:0:0:0:
208,32,294226,2,0,P|136:84|108:184,1,184,4|8,0:0|0:0,0:0:0:0:
180,308,294908,2,0,P|144:328|92:328,1,92
120,252,295363,5,0,0:0:0:0:
328,116,295590,1,8,0:0:0:0:
224,184,295817,1,0,0:0:0:0:
436,44,296044,22,0,P|452:120|416:172,1,138
371,225,296499,2,0,P|355:149|391:97,1,138,8|0,0:0|0:0,0:0:0:0:
289,28,296953,2,0,P|305:104|269:156,1,138
224,209,297408,2,0,P|208:133|244:81,1,138,8|0,0:0|0:0,0:0:0:0:
168,12,297863,6,0,L|148:56,1,46,4|0,0:0|0:0,0:0:0:0:
64,100,298090,2,0,L|84:56,1,46,4|0,0:0|0:0,0:0:0:0:
172,24,298317,5,8,0:0:0:0:
340,24,298544,1,0,0:0:0:0:
484,112,298772,2,0,B|512:192|512:192|512:244|480:284,1,184,0|8,0:0|0:0,0:0:0:0:
320,124,299681,21,4,0:0:0:0:
140,84,299908,1,0,0:0:0:0:
140,84,300022,1,0,0:0:0:0:
140,84,300135,2,0,L|52:116,1,92,8|0,0:0|0:0,0:0:0:0:
124,160,300476,2,0,L|36:192,2,92,0|0|0,0:0|0:0|0:0,0:0:0:0:
192,132,301044,1,8,0:0:0:0:
304,212,301272,1,2,0:0:0:0:
176,268,301499,2,0,P|212:332|280:352,1,138
316,352,301953,6,0,L|456:352,1,138,10|0,0:0|0:0,0:0:0:0:
471,284,302408,1,0,0:0:0:0:
471,284,302522,2,0,L|419:208,1,92,2|2,0:0|0:0,0:0:0:0:
351,208,302863,2,0,L|315:260,1,46,10|0,0:0|0:0,0:0:0:0:
299,284,303090,5,0,0:0:0:0:
116,340,303317,2,0,P|40:332|16:300,1,92
20,280,303658,2,0,B|20:232|20:232|-8:180,2,92
20,280,304226,21,0,0:0:0:0:
76,192,304453,1,2,0:0:0:0:
94,234,304567,1,0,0:0:0:0:
113,276,304681,1,8,0:0:0:0:
172,192,304908,2,0,L|212:283,1,92,2|0,0:0|0:0,0:0:0:0:
340,192,305363,1,2,0:0:0:0:
322,234,305476,1,0,0:0:0:0:
303,276,305590,1,8,0:0:0:0:
436,192,305817,2,0,L|396:283,1,92,2|0,0:0|0:0,0:0:0:0:
398,276,306158,1,0,0:0:0:0:
304,100,306385,5,0,0:0:0:0:
304,100,306499,2,0,P|276:136|220:160,1,92,8|0,0:0|0:0,0:0:0:0:
32,284,306953,2,0,P|16:208|40:144,1,138
34,152,307408,5,8,0:0:0:0:
192,52,307635,2,0,L|332:44,1,138
472,120,308203,1,0,0:0:0:0:
472,120,308317,1,8,0:0:0:0:
248,280,308544,6,0,P|400:288|480:252,1,230,2|0,0:0|0:0,0:0:0:0:
469,258,309226,21,8,0:0:0:0:
469,258,309340,1,0,0:0:0:0:
376,128,309567,2,0,L|244:184,1,138
128,228,310135,1,10,0:0:0:0:
296,304,310363,1,2,0:0:0:0:
200,64,310590,5,2,0:0:0:0:
200,64,310703,1,0,0:0:0:0:
376,128,310931,2,0,L|244:184,1,138
384,328,311499,22,0,L|464:356,1,46
280,300,311726,2,0,L|200:328,1,46
400,260,311953,2,0,L|480:232,1,46,8|0,0:0|0:0,0:0:0:0:
292,224,312181,2,0,L|212:196,1,46
416,176,312408,6,0,P|472:104|472:56,1,138
472,60,312863,1,8,0:0:0:0:
288,76,313090,1,0,0:0:0:0:
96,176,313317,2,0,P|40:104|40:56,2,138
224,76,314226,1,0,0:0:0:0:
408,108,314567,5,0,0:0:0:0:
408,108,314681,2,0,P|396:160|368:192,1,92,8|0,0:0|0:0,0:0:0:0:
256,100,315135,1,2,0:0:0:0:
116,192,315363,1,0,0:0:0:0:
144,228,315476,2,0,P|248:260|300:244,1,138,0|2,0:0|0:0,0:0:0:0:
392,328,316044,6,0,B|444:276|380:204|432:152,3,184,0|10|0|10,0:0|0:0|0:0|0:0,0:0:0:0:
344,20,317635,21,0,0:0:0:0:
256,128,317863,2,0,P|264:184|292:220,2,92,0|0|8,0:0|0:0|0:0,0:0:0:0:
160,28,318544,1,0,0:0:0:0:
160,28,318658,2,0,P|88:32|24:64,1,138,0|2,0:0|0:0,0:0:0:0:
0,208,319226,1,8,0:0:0:0:
0,208,319453,1,2,0:0:0:0:
64,344,319681,2,0,P|160:340|232:292,1,184,0|10,0:0|0:0,0:0:0:0:
468,72,320590,6,0,L|332:104,1,138
268,96,321044,2,0,P|324:120|352:152,1,92,8|0,0:0|0:0,0:0:0:0:
460,248,321499,2,0,P|404:224|376:192,1,92
380,44,321953,2,0,P|387:104|373:144,1,92,8|0,0:0|0:0,0:0:0:0:
344,286,322408,2,0,P|336:225|350:185,1,92
484,116,322863,2,0,P|435:152|393:160,1,92,8|2,0:0|0:0,0:0:0:0:
256,205,323317,22,0,P|304:168|346:160,1,92
192,217,323658,2,0,P|184:155|198:116,1,92
168,278,323999,2,0,P|110:254|84:222,1,92
258,308,324453,1,0,0:0:0:0:
274,292,324567,1,0,0:0:0:0:
286,272,324681,2,0,L|298:172,1,92,10|2,0:0|0:0,0:0:0:0:
256,192,325135,12,0,326953,0:0:0:0:
144,192,327294,5,0,0:0:0:0:
144,192,327408,1,8,0:0:0:0:
396,220,327863,2,0,P|468:192|508:116,2,138,0|0|0,0:0|0:0|0:0,0:0:0:0:
396,220,328772,5,4,0:0:0:0:
272,156,328999,2,0,L|220:176,1,46
128,108,329226,2,0,L|76:128,2,46,8|0|0,0:0|0:0|0:0,0:0:0:0:
284,244,329681,2,0,P|324:244|368:220,1,92,2|0,0:0|0:0,0:0:0:0:
229,172,330022,2,0,P|189:172|145:196,1,92
120,328,330363,5,2,0:0:0:0:
120,328,330590,2,0,B|68:276|132:204|80:152,3,184,0|10|0|10,0:0|0:0|0:0|0:0,0:0:0:0:
82,154,332067,5,0,0:0:0:0:
82,154,332181,1,0,0:0:0:0:
208,60,332408,1,0,0:0:0:0:
208,60,332522,1,0,0:0:0:0:
208,60,332635,1,0,0:0:0:0:
364,76,332863,1,8,0:0:0:0:
364,76,332976,1,0,0:0:0:0:
364,76,333090,1,0,0:0:0:0:
436,216,333317,38,0,P|468:248|532:268,1,92,2|2,0:0|0:0,0:0:0:0:
510,265,333772,1,8,0:0:0:0:
376,112,333999,2,0,P|264:60|156:80,1,230,2|0,0:0|0:0,0:0:0:0:
112,108,334681,1,10,0:0:0:0:
232,192,334908,21,0,0:0:0:0:
268,220,335022,1,0,0:0:0:0:
304,248,335135,2,0,L|356:252,2,46,0|0|0,0:0|0:0|0:0,0:0:0:0:
264,272,335476,1,0,0:0:0:0:
224,296,335590,2,0,L|176:324,2,46,8|0|0,0:0|0:0|0:0,0:0:0:0:
376,192,336044,1,0,0:0:0:0:
256,192,336158,12,8,338317,0:0:0:0:
304,120,338999,6,0,L|444:108,1,138
208,264,339681,2,0,L|68:276,2,138,2|0|0,0:0|0:0|0:0,0:0:0:0:
380,192,340590,2,0,P|424:212|460:276,1,92
450,245,340931,1,0,0:0:0:0:
450,245,341044,1,8,0:0:0:0:
256,332,341272,21,0,0:0:0:0:
256,332,341385,1,0,0:0:0:0:
256,332,341499,2,0,P|200:364|104:372,2,138,2|0|0,0:0|0:0|0:0,0:0:0:0:
348,136,342408,2,0,L|364:40,1,92
228,180,342863,2,0,L|244:276,1,92,8|0,0:0|0:0,0:0:0:0:
124,56,343317,5,4,0:0:0:0:
52,160,343544,1,0,0:0:0:0:
40,316,343772,2,0,P|76:348|136:360,1,92,8|0,0:0|0:0,0:0:0:0:
17,242,344226,1,2,0:0:0:0:
118,360,344453,2,0,P|166:357|216:323,1,92,2|8,0:0|0:0,0:0:0:0:
352,124,345022,1,0,0:0:0:0:
352,124,345135,2,0,P|400:168|416:284,1,184,0|10,0:0|0:0,0:0:0:0:
160,124,346044,6,0,L|68:152,1,92
234,239,346499,1,10,0:0:0:0:
193,283,346613,1,0,0:0:0:0:
376,260,346840,1,0,0:0:0:0:
384,320,346953,2,0,P|348:360|219:379,1,184,0|8,0:0|0:0,0:0:0:0:
76,216,347863,6,0,P|44:248|-20:268,1,92,2|2,0:0|0:0,0:0:0:0:
2,265,348317,1,8,0:0:0:0:
136,112,348544,2,0,P|248:60|392:98,1,276,2|10,0:0|0:0,0:0:0:0:
504,272,349681,5,0,0:0:0:0:
504,272,349794,2,0,P|484:324|416:352,2,92
380,172,350476,1,0,0:0:0:0:
380,172,350590,2,0,L|228:152,1,138
243,154,351044,2,0,P|216:107|228:49,1,92,8|0,0:0|0:0,0:0:0:0:
124,204,351499,2,0,L|124:256,1,46
32,100,351840,2,0,L|32:52,1,46,0|8,0:0|0:0,0:0:0:0:
32,192,352181,37,2,0:0:0:0:
32,330,352408,22,0,P|128:358|192:342,1,138
203,328,352863,1,8,0:0:0:0:
140,156,353090,2,0,L|292:184,1,138,0|0,0:0|0:0,0:0:0:0:
320,192,353544,1,0,0:0:0:0:
492,288,353772,21,10,0:0:0:0:
492,96,353999,1,2,0:0:0:0:
388,256,354226,38,0,L|354:289,1,46
256,192,354567,2,0,L|219:228,1,46,0|8,0:0|0:0,0:0:0:0:
124,128,354908,2,0,L|87:164,1,46
324,224,355135,22,0,L|290:257,1,46
192,160,355476,2,0,L|155:196,1,46,0|8,0:0|0:0,0:0:0:0:
60,96,355817,2,0,L|23:132,1,46
256,192,356044,6,0,L|356:192,1,92
392,176,356385,1,8,0:0:0:0:
432,152,356499,2,0,P|480:156|512:184,1,92,8|8,0:0|0:0,0:0:0:0:
332,264,356953,2,0,L|240:236,1,92
224,196,357294,1,8,0:0:0:0:
200,156,357408,2,0,P|144:164|112:180,1,92,10|10,0:0|0:0,0:0:0:0:
48,256,357863,1,4,0:0:0:0:
256,192,357976,12,0,361499,0:0:0:0:
