osu file format v14

[General]
AudioFilename: Be Happy.mp3
AudioLeadIn: 1500
PreviewTime: 76447
Countdown: 0
SampleSet: Soft
StackLeniency: 0.7
Mode: 0
LetterboxInBreaks: 0
EpilepsyWarning: 1
WidescreenStoryboard: 1

[Editor]
Bookmarks: 27080,77207,151258,212302
DistanceSpacing: 1
BeatDivisor: 4
GridSize: 4
TimelineZoom: 2.999999

[Metadata]
Title:Be Happy*
TitleUnicode:Be Happy☆
Artist:3L
ArtistUnicode:3L
Creator:moonlightleaf
Version:Happy!
Source:
Tags:M3-29 SUPER EURO SMASH Vol.1 Tsukasa frozz Fzl_17
BeatmapID:2037594
BeatmapSetID:973301

[Difficulty]
HPDrainRate:7
CircleSize:4
OverallDifficulty:7
ApproachRate:8.5
SliderMultiplier:2
SliderTickRate:1

[Events]
//Background and Video events
0,0,"d.jpg",0,0
//Break Periods
//Storyboard Layer 0 (Background)
//Storyboard Layer 1 (Fail)
//Storyboard Layer 2 (Pass)
//Storyboard Layer 3 (Foreground)
//Storyboard Sound Samples

[TimingPoints]
1258,379.746835443038,4,2,1,20,1,0
1637,-100,4,2,1,30,0,0
2017,-100,4,2,1,40,0,0
2397,-100,4,2,1,50,0,0
2776,-100,4,2,1,60,0,0
3536,-100,4,2,1,70,0,0
4295,-100,4,2,1,55,0,0
5055,-100,4,2,1,70,0,0
5814,-100,4,2,1,50,0,0
7333,-100,4,2,1,40,0,0
8663,-100,4,2,1,65,0,0
8852,-100,4,2,1,75,0,0
9612,-100,4,2,1,70,0,0
10371,-100,4,2,1,55,0,0
11131,-100,4,2,1,70,0,0
11890,-100,4,2,1,80,0,0
13409,-100,4,2,1,85,0,0
14928,-100,4,2,2,60,0,0
15688,-100,4,2,1,60,0,0
19675,-100,4,2,2,60,0,0
21004,-100,4,2,2,60,0,0
21764,-100,4,2,1,60,0,0
26321,-100,4,2,1,60,0,0
27080,-100,4,2,2,70,0,0
39232,-100,4,2,2,50,0,0
51384,-100,4,2,2,50,0,0
63536,-100,4,2,2,60,0,0
77207,-100,4,2,2,85,0,1
101511,-100,4,2,2,70,0,0
113663,-100,4,2,2,50,0,0
125814,-100,4,2,2,50,0,0
137966,-100,4,2,2,60,0,0
151637,-100,4,2,2,85,0,1
175941,-100,4,2,2,70,0,0
188093,-100,4,2,2,60,0,0
188663,-133.333333333333,4,2,2,60,0,0
188852,-100,4,2,2,70,0,0
189612,-100,4,2,2,85,0,1
213916,-100,4,2,2,70,0,0
226068,-100,4,2,2,55,0,0
238220,-100,4,2,2,65,0,0

[Colours]
Combo1 : 75,191,254
Combo2 : 239,159,251
Combo3 : 156,89,247
Combo4 : 252,189,120

[HitObjects]
74,210,1258,6,0,L|121:194,3,50
191,242,1637,2,0,L|241:242,3,50
316,283,2017,2,0,L|364:294,1,50
474,235,2207,2,0,L|425:223,1,50
373,133,2397,2,0,L|381:83,1,50
279,91,2587,2,0,L|269:140,1,50
241,242,2776,5,10,0:0:0:0:
472,167,3536,5,2,0:0:0:0:
241,92,4295,1,2,0:0:0:0:
384,288,5055,1,2,0:0:0:0:
384,45,5814,1,2,0:0:0:0:
256,192,7333,5,2,0:0:0:0:
145,111,8663,5,0,1:0:0:0:
145,111,8852,1,8,1:2:0:0:
298,321,9612,5,2,0:0:0:0:
298,62,10371,1,2,0:0:0:0:
145,272,11131,1,2,0:0:0:0:
392,192,11890,5,2,0:0:0:0:
256,192,13409,5,2,0:0:0:0:
392,106,14928,5,14,1:2:0:0:
339,235,15308,1,0,1:0:0:0:
236,122,15688,1,2,1:2:0:0:
408,181,16068,1,0,1:0:0:0:
246,306,16447,6,0,B|254:206,1,100,2|0,1:2|0:0,0:0:0:0:
139,341,16827,2,0,B|113:244,1,100,0|0,1:2|0:0,0:0:0:0:
147,106,17207,1,2,1:2:0:0:
225,222,17587,1,0,1:0:0:0:
341,123,17966,6,0,B|242:117,1,100,2|0,1:2|0:0,0:0:0:0:
80,185,18346,2,0,B|180:192,1,100,0|0,1:2|0:0,0:0:0:0:
324,279,18726,2,0,B|224:272,1,100,0|0,1:2|0:0,0:0:0:0:
63,341,19106,2,0,B|163:348,1,100,0|0,1:2|0:0,0:0:0:0:
80,185,19485,5,2,1:2:0:0:
0,260,19675,1,2,0:0:0:0:
18,102,19865,1,2,1:2:0:0:
18,102,19960,1,2,0:0:0:0:
135,263,20150,1,2,0:0:0:0:
135,263,20245,1,2,1:2:0:0:
164,100,20435,1,2,0:0:0:0:
265,264,20625,5,2,1:2:0:0:
307,239,20720,1,2,1:2:0:0:
332,196,20814,1,2,1:2:0:0:
333,147,20909,1,2,1:2:0:0:
308,103,21004,6,0,L|408:103,1,100,14|0,1:2|0:0,0:0:0:0:
504,209,21384,2,0,L|386:206,1,100,0|0,1:2|0:0,0:0:0:0:
207,239,21764,2,0,L|307:239,1,100,2|0,1:2|0:0,0:0:0:0:
408,338,22144,2,0,L|306:338,1,100,0|0,1:2|0:0,0:0:0:0:
56,291,22523,6,0,B|70:192,1,100,2|0,1:2|0:0,0:0:0:0:
163,57,22903,2,0,B|151:157,1,100,0|0,1:2|0:0,0:0:0:0:
193,322,23283,2,0,B|208:224,1,100,2|0,1:2|0:0,0:0:0:0:
301,88,23663,2,0,B|288:188,1,100,0|0,1:2|0:0,0:0:0:0:
317,330,24042,6,0,P|415:324|486:256,1,200,6|0,1:2|1:2,0:0:0:0:
363,84,24612,1,0,0:0:0:0:
498,172,24802,1,0,1:2:0:0:
498,172,24897,1,0,0:0:0:0:
498,172,24992,1,0,0:0:0:0:
337,181,25182,1,0,1:2:0:0:
463,79,25371,5,4,1:2:0:0:
422,236,25751,5,4,1:2:0:0:
294,118,26131,5,4,1:2:0:0:
498,172,26321,1,14,0:0:0:0:
269,231,27080,6,0,P|220:239|180:268,1,100,14|0,1:2|0:0,0:0:0:0:
114,353,27460,1,2,1:2:0:0:
61,252,27650,2,0,P|52:203|58:154,1,100,2|0,0:0|1:2,0:0:0:0:
242,116,28030,2,0,P|197:135|147:138,1,100,2|0,0:0|1:2,0:0:0:0:
225,30,28409,6,0,P|313:63|319:158,1,200,2|2,0:0|0:0,0:0:0:0:
241,237,28979,1,2,1:2:0:0:
341,274,29169,2,0,P|330:322|337:371,1,100,2|0,0:0|1:2,0:0:0:0:
443,240,29549,2,0,P|432:192|439:143,1,100,2|0,0:0|1:2,0:0:0:0:
322,82,29928,6,0,B|259:68|259:68|180:88|180:88|127:73,1,200,2|0,1:2|0:0,0:0:0:0:
0,218,30498,2,0,B|52:203|52:203|131:223|131:223|194:209,1,200,2|0,1:2|1:2,0:0:0:0:
315,299,31068,1,2,0:0:0:0:
329,139,31258,1,2,1:2:0:0:
487,222,31447,6,0,B|287:211,1,200,2|2,0:0|0:0,0:0:0:0:
212,308,32017,1,2,1:2:0:0:
172,171,32207,2,0,P|221:91|313:111,1,200,2|2,0:0|0:0,0:0:0:0:
381,217,32776,1,2,1:2:0:0:
254,166,32966,1,2,1:2:0:0:
254,166,33061,1,2,1:2:0:0:
254,166,33156,6,0,B|295:257,1,100,2|0,1:2|0:0,0:0:0:0:
213,343,33536,2,0,B|137:345|137:345|91:296|91:296|53:354,1,200,14|0,1:2|1:2,0:0:0:0:
167,263,34106,2,0,P|177:214|169:166,1,100,2|2,0:0|1:2,0:0:0:0:
76,72,34485,5,2,0:0:0:0:
60,210,34675,1,2,1:2:0:0:
169,166,34865,1,2,0:0:0:0:
1,134,35055,1,2,1:2:0:0:
6,292,35245,2,0,P|101:300|156:222,1,200,2|0,0:0|0:0,0:0:0:0:
83,123,35814,2,0,B|182:116,1,100,2|0,1:2|1:2,0:0:0:0:
216,115,36099,1,0,1:2:0:0:
216,115,36194,5,6,1:2:0:0:
298,247,36384,1,2,0:0:0:0:
369,102,36574,1,2,1:2:0:0:
450,235,36764,2,0,B|360:190,1,100,2|0,0:0|1:2,0:0:0:0:
123,189,37144,2,0,B|214:232,1,100,2|0,0:0|1:2,0:0:0:0:
452,281,37523,6,0,P|379:271|324:319,1,150,6|0,1:2|0:0,0:0:0:0:
318,364,37903,2,0,P|316:290|264:239,1,150,6|0,1:2|0:0,0:0:0:0:
214,232,38283,2,0,P|288:233|347:189,1,150,6|0,1:2|0:0,0:0:0:0:
368,145,38662,1,6,1:2:0:0:
368,145,38852,2,0,L|366:244,1,100,4|0,1:2|0:0,0:0:0:0:
260,347,39232,5,14,1:2:0:0:
113,237,39422,2,0,B|211:221,1,100,2|2,0:0|1:2,0:0:0:0:
261,78,39802,1,2,0:0:0:0:
369,195,39992,2,0,B|401:292,2,100,2|2|0,1:2|0:0|1:2,0:0:0:0:
179,164,40561,6,0,B|278:157,1,100,2|0,0:0|1:2,0:0:0:0:
369,87,40941,1,2,0:0:0:0:
296,237,41131,2,0,B|254:328,1,100,2|0,1:2|0:0,0:0:0:0:
147,203,41511,2,0,P|159:251|156:300,1,100,2|0,1:2|0:0,0:0:0:0:
31,229,41890,2,0,P|28:179|40:131,1,100,2|2,1:2|1:2,0:0:0:0:
64,92,42175,1,2,1:2:0:0:
64,92,42270,6,0,B|163:84,1,100,2|0,1:2|0:0,0:0:0:0:
223,236,42650,2,0,B|232:136,1,100,2|2,1:2|0:0,0:0:0:0:
299,25,43030,1,2,1:2:0:0:
358,175,43220,1,2,0:0:0:0:
232,136,43409,1,2,1:2:0:0:
381,82,43599,2,0,P|430:75|477:89,1,100,2|0,0:0|1:2,0:0:0:0:
458,219,43979,1,0,0:0:0:0:
331,327,44169,6,0,B|322:292|322:292|330:229,1,100,2|0,1:2|0:0,0:0:0:0:
392,76,44549,2,0,B|400:138|400:138|390:174,1,100,2|0,1:2|0:0,0:0:0:0:
214,127,44928,2,0,B|310:153,1,100,2|0,1:2|0:0,0:0:0:0:
214,39,45308,2,0,P|132:86|141:180,2,200,2|6|0,1:2|1:2|1:2,0:0:0:0:
214,127,46258,5,2,0:0:0:0:
201,241,46447,1,0,1:2:0:0:
41,174,46637,2,0,B|141:180,2,100,2|0|2,0:0|1:2|0:0,0:0:0:0:
114,70,47207,2,0,B|14:64,2,100,2|2|0,1:2|0:0|1:2,0:0:0:0:
238,97,47776,2,0,B|249:196,1,100,2|0,0:0|1:2,0:0:0:0:
268,333,48156,1,2,1:2:0:0:
268,333,48251,1,2,1:2:0:0:
268,333,48346,5,6,1:2:0:0:
386,240,48536,1,2,0:0:0:0:
249,196,48726,1,2,1:2:0:0:
303,260,48916,1,2,0:0:0:0:
156,206,49106,1,2,1:2:0:0:
265,109,49295,1,2,0:0:0:0:
206,278,49485,1,2,1:2:0:0:
338,171,49675,5,6,1:2:0:0:
174,122,50055,5,6,1:2:0:0:
303,260,50435,5,6,1:2:0:0:
358,93,50814,5,6,1:2:0:0:
358,93,51004,1,6,1:2:0:0:
437,205,51194,1,0,1:2:0:0:
437,205,51289,1,0,1:2:0:0:
437,205,51384,1,14,1:2:0:0:
396,359,51574,6,0,B|395:331|395:331|378:287|378:287|380:261,1,100,2|2,0:0|1:2,0:0:0:0:
512,183,51954,1,2,0:0:0:0:
473,272,52144,1,2,1:2:0:0:
358,188,52333,2,0,P|310:174|260:177,1,100,2|0,0:0|1:2,0:0:0:0:
203,340,52713,2,0,P|217:292|214:242,1,100,2|0,0:0|1:2,0:0:0:0:
150,132,53093,1,2,0:0:0:0:
74,229,53283,6,0,P|-6:179|6:86,2,200,2|2|2,1:2|1:2|1:2,0:0:0:0:
150,132,54232,1,0,1:2:0:0:
150,132,54327,1,0,1:2:0:0:
150,132,54422,6,0,B|245:103,1,100,2|0,1:2|0:0,0:0:0:0:
383,89,54802,1,2,1:2:0:0:
323,175,54992,2,0,B|311:237|311:237|317:273,1,100,2|2,0:0|1:2,0:0:0:0:
447,245,55371,1,2,0:0:0:0:
408,358,55561,1,2,1:2:0:0:
317,273,55751,2,0,B|257:267|257:267|209:335|136:317,1,200,2|0,0:0|0:0,0:0:0:0:
140,123,56321,6,0,B|165:220,1,100,2|0,1:2|0:0,0:0:0:0:
276,64,56701,2,0,B|249:161,1,100,2|0,1:2|0:0,0:0:0:0:
119,42,57080,1,2,1:2:0:0:
155,174,57270,1,0,1:2:0:0:
155,174,57365,1,0,1:2:0:0:
155,174,57460,2,0,P|208:250|312:233,2,200,2|6|2,1:2|1:2|1:2,0:0:0:0:
250,164,58409,5,2,0:0:0:0:
247,301,58599,1,2,1:2:0:0:
351,232,58789,2,0,B|450:230,1,100,2|0,0:0|1:2,0:0:0:0:
219,232,59169,1,2,0:0:0:0:
340,320,59359,1,2,1:2:0:0:
335,156,59549,2,0,B|423:110,1,100,2|0,0:0|1:2,0:0:0:0:
250,164,59928,2,0,B|160:120,1,100,2|0,0:0|1:2,0:0:0:0:
299,245,60308,5,2,1:2:0:0:
299,245,60403,1,2,1:2:0:0:
299,245,60498,2,0,B|284:343,1,100,4|2,1:2|0:0,0:0:0:0:
428,291,60878,2,0,B|442:192,1,100,2|2,1:2|0:0,0:0:0:0:
331,39,61258,1,2,1:2:0:0:
354,165,61447,1,2,0:0:0:0:
449,87,61637,1,2,1:2:0:0:
273,114,61827,5,2,0:0:0:0:
233,121,61922,1,2,0:0:0:0:
193,128,62017,1,2,1:2:0:0:
79,216,62207,5,2,0:0:0:0:
119,223,62302,1,2,0:0:0:0:
159,230,62397,1,2,1:2:0:0:
329,290,62587,5,2,0:0:0:0:
289,297,62682,1,2,0:0:0:0:
249,304,62776,1,2,1:2:0:0:
143,360,62966,1,2,1:2:0:0:
159,230,63156,2,0,B|171:125,1,100,6|2,1:2|0:0,0:0:0:0:
149,96,63441,1,2,0:0:0:0:
149,96,63536,6,0,B|49:101,1,100,14|2,1:2|0:0,0:0:0:0:
34,231,63916,1,2,1:2:0:0:
146,329,64106,2,0,B|159:230,1,100,2|0,0:0|1:2,0:0:0:0:
280,161,64485,1,2,0:0:0:0:
184,127,64675,1,2,1:2:0:0:
315,65,64865,1,2,0:0:0:0:
318,237,65055,6,0,P|312:286|321:335,1,100,2|0,1:2|0:0,0:0:0:0:
416,199,65435,2,0,P|425:150|418:100,1,100,2|0,1:2|0:0,0:0:0:0:
234,121,65814,2,0,P|279:143|329:147,1,100,2|0,1:2|0:0,0:0:0:0:
234,238,66194,2,0,P|184:242|139:263,1,100,2|0,1:2|1:2,0:0:0:0:
110,291,66479,1,0,1:2:0:0:
110,291,66574,2,0,B|66:242|66:242|47:169|47:169|5:127,2,200,2|2|2,1:2|1:2|1:2,0:0:0:0:
231,361,67523,1,2,0:0:0:0:
252,223,67713,5,2,1:2:0:0:
264,190,67808,1,2,0:0:0:0:
285,163,67903,1,2,0:0:0:0:
315,146,67998,1,2,0:0:0:0:
350,138,68093,2,0,P|399:137|447:151,1,100,2|0,1:2|0:0,0:0:0:0:
417,324,68473,6,0,B|387:228,1,100,2|0,1:2|0:0,0:0:0:0:
221,268,68852,2,0,B|317:292,1,100,2|0,1:2|0:0,0:0:0:0:
297,92,69232,2,0,B|304:191,1,100,0|2,1:2|1:2,0:0:0:0:
190,346,69612,2,0,P|131:273|178:191,1,200,6|2,1:2|1:2,0:0:0:0:
320,266,70182,2,0,L|221:268,1,100,2|0,0:0|1:2,0:0:0:0:
60,166,70561,5,2,0:0:0:0:
110,267,70751,1,2,1:2:0:0:
174,189,70941,2,0,P|220:168|269:170,1,100,2|0,0:0|1:2,0:0:0:0:
419,143,71321,1,2,0:0:0:0:
355,238,71511,1,0,1:2:0:0:
333,99,71701,2,0,P|287:78|238:80,1,100,2|0,0:0|1:2,0:0:0:0:
125,98,72080,1,2,0:0:0:0:
208,232,72270,1,2,1:2:0:0:
79,206,72460,1,2,0:0:0:0:
303,231,72650,6,0,P|255:314|160:316,1,200,6|2,1:2|1:2,0:0:0:0:
185,134,73220,2,0,B|208:232,1,100,2|0,0:0|1:2,0:0:0:0:
283,54,73599,2,0,B|273:153,1,100,2|0,0:0|1:2,0:0:0:0:
415,59,73979,1,2,0:0:0:0:
415,59,74074,1,2,0:0:0:0:
415,59,74169,6,0,B|363:144,1,100,6|0,1:2|0:0,0:0:0:0:
303,233,74549,1,2,1:2:0:0:
166,251,74739,2,0,L|365:257,1,200,6|0,1:2|1:2,0:0:0:0:
429,354,75308,1,6,1:2:0:0:
458,185,75688,5,6,0:0:0:0:
325,315,76068,5,6,0:0:0:0:
299,142,76447,5,6,0:0:0:0:
398,243,76637,1,2,0:0:0:0:
398,243,76732,1,2,0:0:0:0:
398,243,76827,6,0,B|330:224|296:258|296:258|255:239,1,150,2|0,1:2|0:0,0:0:0:0:
213,196,77207,6,0,B|217:295,1,100,14|2,1:2|0:0,0:0:0:0:
106,325,77587,1,2,1:2:0:0:
0,226,77776,2,0,B|99:213,1,100,2|0,0:0|1:2,0:0:0:0:
182,109,78156,1,2,0:0:0:0:
209,201,78346,1,2,1:2:0:0:
89,99,78536,1,2,0:0:0:0:
244,46,78726,6,0,P|293:41|341:54,1,100,2|0,1:2|0:0,0:0:0:0:
324,215,79106,2,0,P|290:178|281:130,1,100,2|0,1:2|0:0,0:0:0:0:
460,122,79485,2,0,B|361:138,1,100,2|0,1:2|0:0,0:0:0:0:
270,237,79865,1,2,1:2:0:0:
270,237,80055,2,0,B|201:253|201:253|112:191|112:191|92:196,1,200,2|0,0:0|0:0,0:0:0:0:
93,353,80625,2,0,B|77:305|77:305|93:195|93:195|73:162,1,200,0|0,1:2|1:2,0:0:0:0:
0,247,81194,5,2,0:0:0:0:
13,107,81384,1,2,1:2:0:0:
130,209,81574,2,0,B|229:201,1,100,2|0,0:0|1:2,0:0:0:0:
309,284,81954,1,0,0:0:0:0:
349,173,82144,1,2,1:2:0:0:
491,256,82333,2,0,B|445:246|445:246|401:301|349:299|309:284,1,200,2|0,0:0|0:0,0:0:0:0:
261,133,82903,1,2,1:2:0:0:
293,96,82998,1,2,1:2:0:0:
340,80,83093,1,2,1:2:0:0:
388,90,83188,1,2,1:2:0:0:
425,123,83283,6,0,B|408:177|408:177|438:239|440:316,1,200,6|2,1:2|1:2,0:0:0:0:
488,194,83852,2,0,B|429:171|429:171|377:210|301:213,1,200,2|2,0:0|0:0,0:0:0:0:
221,314,84422,1,2,1:2:0:0:
132,239,84612,2,0,P|139:189|131:140,1,100,2|0,0:0|1:2,0:0:0:0:
39,278,84992,1,2,0:0:0:0:
125,355,85182,1,2,1:2:0:0:
229,222,85371,2,0,B|271:212|271:212|325:226,1,100,2|0,0:0|1:2,0:0:0:0:
494,170,85751,5,2,0:0:0:0:
328,142,85941,1,2,1:2:0:0:
395,275,86131,1,2,1:2:0:0:
477,82,86321,5,2,1:2:0:0:
481,255,86511,1,2,0:0:0:0:
277,67,86701,1,6,1:2:0:0:
415,162,86890,1,2,0:0:0:0:
272,225,87080,5,2,1:2:0:0:
386,77,87270,1,2,0:0:0:0:
182,139,87460,1,2,1:2:0:0:
357,221,87650,1,2,0:0:0:0:
210,306,87840,5,2,1:2:0:0:
319,123,88030,1,2,0:2:0:0:
319,123,88125,1,2,0:2:0:0:
319,123,88220,1,2,1:2:0:0:
381,292,88409,1,2,0:0:0:0:
163,223,88599,1,2,1:2:0:0:
441,239,88789,1,2,1:2:0:0:
319,123,88979,5,2,1:2:0:0:
273,139,89074,1,2,1:2:0:0:
223,140,89169,1,2,1:2:0:0:
175,126,89264,1,2,1:2:0:0:
135,97,89359,6,0,L|152:195,1,100,14|2,1:2|0:0,0:0:0:0:
190,342,89739,1,2,1:2:0:0:
30,297,89928,2,0,B|128:278,1,100,2|0,0:0|1:2,0:0:0:0:
321,178,90308,1,2,0:0:0:0:
257,258,90498,1,2,1:2:0:0:
323,327,90688,1,2,0:0:0:0:
184,208,90878,6,0,B|174:148|174:148|185:110,1,100,2|0,1:2|0:0,0:0:0:0:
356,79,91258,2,0,B|318:90|318:90|258:80,1,100,2|0,1:2|0:0,0:0:0:0:
97,28,91637,2,0,B|196:32,1,100,2|0,1:2|0:0,0:0:0:0:
318,116,92017,1,2,1:2:0:0:
321,299,92207,2,0,B|326:253|326:253|288:174|288:174|318:116,1,200,2|0,1:2|0:0,0:0:0:0:
190,262,92776,2,0,B|249:242|249:242|324:258|324:258|382:239,1,200,0|0,1:2|1:2,0:0:0:0:
446,122,93346,5,2,0:0:0:0:
343,57,93536,1,2,1:2:0:0:
226,76,93726,2,0,B|212:121|212:121|219:173,1,100,2|0,0:0|1:2,0:0:0:0:
239,310,94106,1,2,0:0:0:0:
326,227,94295,1,2,1:2:0:0:
457,354,94485,2,0,B|358:339,1,100,2|0,0:0|1:2,0:0:0:0:
239,310,94865,1,0,0:0:0:0:
292,135,95055,5,2,1:2:0:0:
341,131,95150,1,2,1:2:0:0:
386,151,95245,1,2,1:2:0:0:
416,191,95340,1,2,1:2:0:0:
423,240,95435,6,0,P|410:287|414:337,1,100,6|0,1:2|0:0,0:0:0:0:
326,227,95814,1,2,1:2:0:0:
236,346,96004,2,0,P|239:296|226:248,1,100,2|0,0:0|1:2,0:0:0:0:
171,124,96384,5,2,0:0:0:0:
124,254,96574,1,2,1:2:0:0:
0,173,96764,2,0,B|99:173,1,100,2|4,0:0|1:2,0:0:0:0:
249,231,97144,1,2,0:0:0:0:
305,114,97333,1,2,1:2:0:0:
392,229,97523,2,0,P|395:278|384:327,1,100,2|0,0:0|1:2,0:0:0:0:
489,154,97903,5,2,0:0:0:0:
392,229,98093,1,2,1:2:0:0:
492,268,98283,1,2,0:0:0:0:
395,135,98473,2,0,P|312:180|314:275,1,200,2|2,1:2|1:2,0:0:0:0:
429,307,99042,2,0,L|229:292,1,200,2|2,0:0|0:0,0:0:0:0:
127,186,99612,1,0,1:2:0:0:
80,335,99802,1,2,1:2:0:0:
80,335,100182,5,2,1:2:0:0:
0,228,100371,2,0,L|96:256,1,100,0|2,0:0|1:2,0:0:0:0:
289,277,100751,2,0,L|192:304,1,100,2|0,0:0|1:2,0:0:0:0:
248,191,101131,1,2,1:2:0:0:
296,180,101226,1,2,1:2:0:0:
343,195,101321,1,2,1:2:0:0:
376,232,101416,1,2,1:2:0:0:
386,280,101511,6,0,L|406:174,1,100,14|0,1:2|0:0,0:0:0:0:
440,48,101890,1,2,1:2:0:0:
308,94,102080,2,0,L|208:92,1,100,2|0,0:0|1:2,0:0:0:0:
146,243,102460,2,0,B|137:218|137:218|133:173|133:173|123:146,1,100,2|0,0:0|1:2,0:0:0:0:
59,257,102840,6,0,P|122:327|214:301,1,200,2|2,0:0|0:0,0:0:0:0:
272,183,103409,1,2,1:2:0:0:
348,274,103599,2,0,P|337:322|344:371,1,100,2|0,0:0|1:2,0:0:0:0:
470,172,103979,2,0,P|477:221|465:270,1,100,2|0,0:0|1:2,0:0:0:0:
271,262,104359,6,0,B|322:276|322:276|401:256|401:256|465:270,1,200,2|0,1:2|0:0,0:0:0:0:
344,371,104928,2,0,B|329:319|329:319|349:240|349:240|335:177,1,200,2|0,1:2|1:2,0:0:0:0:
235,61,105498,5,2,0:0:0:0:
151,132,105688,1,2,1:2:0:0:
49,158,105878,2,0,B|103:154|103:154|150:174|150:174|244:167,1,200,2|2,0:0|0:0,0:0:0:0:
298,263,106447,1,2,1:2:0:0:
305,113,106637,2,0,P|213:94|162:173,1,200,2|2,0:0|0:0,0:0:0:0:
200,287,107207,1,2,1:2:0:0:
29,235,107397,5,2,1:2:0:0:
29,235,107492,1,2,1:2:0:0:
29,235,107587,2,0,B|128:244,1,100,2|0,1:2|0:0,0:0:0:0:
283,342,107966,2,0,B|223:350|183:319|183:319|144:347|92:329,1,200,14|0,1:2|1:2,0:0:0:0:
29,235,108536,2,0,P|33:185|55:141,1,100,2|2,0:0|1:2,0:0:0:0:
206,109,108916,5,2,0:0:0:0:
55,141,109106,1,2,1:2:0:0:
149,221,109295,1,2,0:0:0:0:
112,36,109485,1,2,1:2:0:0:
237,199,109675,2,0,P|301:129|273:37,1,200,2|0,0:0|0:0,0:0:0:0:
126,121,110245,2,0,B|225:113,1,100,2|0,1:2|1:2,0:0:0:0:
260,113,110530,1,0,1:2:0:0:
260,113,110625,5,6,1:2:0:0:
435,122,110814,1,2,0:0:0:0:
333,257,111004,1,2,1:2:0:0:
358,67,111194,2,0,B|345:166,1,100,2|0,0:0|1:2,0:0:0:0:
505,270,111574,2,0,B|416:226,1,100,2|0,0:0|1:2,0:0:0:0:
243,192,111954,6,0,P|170:182|115:230,1,150,6|0,1:2|0:0,0:0:0:0:
109,275,112333,2,0,P|107:201|55:150,1,150,6|0,1:2|0:0,0:0:0:0:
5,143,112713,2,0,P|79:144|138:100,1,150,6|0,1:2|0:0,0:0:0:0:
159,56,113093,1,6,1:2:0:0:
159,56,113283,2,0,B|194:49|194:49|227:62|227:62|261:54|261:54|299:64|299:64|330:57|330:57|352:61,1,200,4|14,1:2|1:2,0:0:0:0:
406,154,113852,5,2,0:0:0:0:
316,294,114042,2,0,P|301:246|308:197,1,100,2|2,1:2|0:0,0:0:0:0:
414,289,114422,1,2,1:2:0:0:
291,374,114612,2,0,P|252:346|234:299,1,100,2|0,0:0|1:2,0:0:0:0:
175,141,114992,2,0,P|185:189|177:238,1,100,2|0,0:0|1:2,0:0:0:0:
97,334,115371,1,2,0:0:0:0:
99,225,115561,6,0,B|0:234,1,100,2|0,1:2|0:0,0:0:0:0:
194,311,115941,2,0,B|294:299,1,100,2|0,1:2|0:0,0:0:0:0:
207,203,116321,2,0,B|225:105,1,100,2|2,1:2|1:2,0:0:0:0:
187,89,116606,1,2,1:2:0:0:
187,89,116701,6,0,P|232:107|281:102,1,100,2|0,1:2|0:0,0:0:0:0:
511,118,117080,1,2,1:2:0:0:
381,160,117270,1,2,0:0:0:0:
462,49,117460,1,2,1:2:0:0:
462,187,117650,1,2,0:0:0:0:
381,75,117840,1,2,1:2:0:0:
323,213,118030,2,0,P|305:260|313:309,2,100,2|0|0,0:0|1:2|0:0,0:0:0:0:
273,130,118599,6,0,P|226:143|176:140,1,100,2|0,1:2|0:0,0:0:0:0:
83,52,118979,1,2,1:2:0:0:
83,52,119074,1,0,0:0:0:0:
83,52,119169,1,0,0:0:0:0:
71,178,119359,2,0,P|62:227|63:277,1,100,2|0,1:2|0:0,0:0:0:0:
154,186,119739,6,0,P|109:104|15:114,1,200,6|2,1:2|1:2,0:0:0:0:
26,241,120308,2,0,B|34:340,1,100,0|0,0:0|1:2,0:0:0:0:
143,266,120688,1,2,0:0:0:0:
253,339,120878,1,0,1:2:0:0:
255,214,121068,2,0,P|255:165|273:118,1,100,2|0,0:0|1:2,0:0:0:0:
403,59,121447,5,2,0:0:0:0:
381,191,121637,1,2,1:2:0:0:
273,118,121827,2,0,P|223:111|177:92,1,100,2|0,0:0|1:2,0:0:0:0:
63,60,122207,1,2,0:0:0:0:
116,171,122397,2,0,P|122:221|115:271,1,100,0|2,1:2|1:2,0:0:0:0:
90,316,122682,1,2,1:2:0:0:
90,316,122776,5,6,1:2:0:0:
34,219,122966,1,2,0:0:0:0:
199,316,123156,1,2,1:2:0:0:
141,165,123346,1,2,0:0:0:0:
314,184,123536,1,2,1:2:0:0:
216,228,123726,1,2,0:0:0:0:
307,286,123916,1,2,1:2:0:0:
228,138,124106,5,6,1:2:0:0:
403,140,124485,5,6,1:2:0:0:
307,286,124865,5,6,1:2:0:0:
228,138,125245,5,6,1:2:0:0:
228,138,125435,1,6,1:2:0:0:
391,236,125625,1,0,1:2:0:0:
391,236,125720,1,0,1:2:0:0:
391,236,125814,1,14,1:2:0:0:
449,134,126004,6,0,P|436:86|440:37,2,100,2|2|2,0:0|1:2|0:0,0:0:0:0:
503,243,126574,2,0,P|499:292|512:340,2,100,2|2|0,1:2|0:0|1:2,0:0:0:0:
391,236,127144,2,0,P|342:245|293:236,1,100,2|0,0:0|1:2,0:0:0:0:
175,125,127523,5,2,0:0:0:0:
265,151,127713,1,2,1:2:0:0:
203,212,127903,1,2,0:0:0:0:
89,92,128093,1,2,1:2:0:0:
107,186,128283,1,2,0:0:0:0:
189,43,128473,2,0,B|288:42,1,100,2|0,1:2|1:2,0:0:0:0:
337,73,128758,1,0,1:2:0:0:
336,73,128852,6,0,P|275:147|300:240,2,200,2|2|2,1:2|1:2|1:2,0:0:0:0:
481,177,129802,2,0,B|382:171,1,100,2|2,0:0|1:2,0:0:0:0:
300,240,130182,2,0,P|311:288|297:335,2,100,2|0|0,0:0|1:2|0:0,0:0:0:0:
131,261,130751,6,0,B|228:284,1,100,2|0,1:2|0:0,0:0:0:0:
60,216,131131,2,0,P|49:264|56:314,1,100,2|0,1:2|0:0,0:0:0:0:
148,184,131511,2,0,P|152:129|139:73,1,100,2|0,1:2|1:2,0:0:0:0:
124,56,131795,1,0,1:2:0:0:
124,56,131890,2,0,B|175:61|175:61|223:50,1,100,2|0,1:2|0:0,0:0:0:0:
362,30,132270,1,6,1:2:0:0:
343,146,132460,2,0,P|348:195|365:242,1,100,0|2,0:0|1:2,0:0:0:0:
492,207,132840,5,2,0:0:0:0:
463,329,133030,1,2,1:2:0:0:
365,242,133220,2,0,B|265:251,1,100,2|0,0:0|1:2,0:0:0:0:
138,216,133599,1,2,0:0:0:0:
236,129,133789,1,2,1:2:0:0:
265,251,133979,2,0,B|252:356,1,100,2|0,0:0|1:2,0:0:0:0:
340,171,134359,1,2,0:0:0:0:
236,129,134549,1,0,1:2:0:0:
138,216,134739,5,2,1:2:0:0:
138,216,134833,1,2,1:2:0:0:
138,216,134928,2,0,P|108:175|99:127,1,100,4|2,1:2|0:0,0:0:0:0:
223,45,135308,2,0,P|193:85|184:133,1,100,2|2,1:2|0:0,0:0:0:0:
215,253,135688,2,0,P|137:304|59:251,1,200,2|2,1:2|1:2,0:0:0:0:
139,172,136258,5,2,0:0:0:0:
162,154,136352,1,2,0:0:0:0:
184,133,136447,1,2,1:2:0:0:
212,141,136542,1,2,0:0:0:0:
238,155,136637,1,2,0:0:0:0:
267,152,136732,1,2,0:0:0:0:
296,147,136827,2,0,L|311:245,1,100,2|2,1:2|0:0,0:0:0:0:
317,280,137112,5,2,0:0:0:0:
317,280,137207,1,2,1:2:0:0:
439,186,137397,1,2,1:2:0:0:
447,337,137587,1,6,1:2:0:0:
439,186,137776,5,2,0:0:0:0:
439,186,137871,1,2,0:0:0:0:
439,186,137966,1,14,1:2:0:0:
283,238,138156,1,2,0:0:0:0:
383,268,138346,1,2,1:2:0:0:
345,154,138536,2,0,P|339:105|321:59,1,100,2|0,0:0|1:2,0:0:0:0:
167,104,138916,1,2,0:0:0:0:
258,144,139106,1,2,1:2:0:0:
239,31,139295,1,2,0:0:0:0:
167,195,139485,6,0,P|152:243|150:293,1,100,2|0,1:2|0:0,0:0:0:0:
58,211,139865,2,0,P|56:161|41:113,1,100,2|0,1:2|0:0,0:0:0:0:
258,144,140245,1,2,1:2:0:0:
167,195,140435,1,0,0:0:0:0:
262,348,140625,2,0,P|269:299|256:252,1,100,2|0,1:2|1:2,0:0:0:0:
233,234,140909,1,0,1:2:0:0:
233,234,141004,2,0,B|289:243|289:243|365:212|365:212|426:220,2,200,2|2|2,1:2|1:2|1:2,0:0:0:0:
80,317,141954,5,2,0:0:0:0:
56,291,142049,1,2,0:0:0:0:
64,257,142144,1,2,1:2:0:0:
39,231,142239,1,2,0:0:0:0:
43,196,142333,1,2,0:0:0:0:
17,172,142428,1,2,0:0:0:0:
21,136,142523,6,0,P|71:143|117:126,1,100,2|0,1:2|0:0,0:0:0:0:
285,45,142903,2,0,P|235:38|189:55,1,100,2|0,1:2|0:0,0:0:0:0:
204,221,143283,2,0,B|239:127,1,100,2|0,1:2|0:0,0:0:0:0:
432,116,143663,2,0,P|385:132|336:126,1,100,0|2,1:2|1:2,0:0:0:0:
315,95,143947,1,2,1:2:0:0:
315,95,144042,2,0,L|322:194,1,100,6|0,1:2|0:0,0:0:0:0:
322,324,144422,1,2,1:2:0:0:
464,237,144612,2,0,B|366:258,1,100,2|0,0:0|1:2,0:0:0:0:
176,268,144992,5,2,0:0:0:0:
227,347,145182,1,2,1:2:0:0:
85,309,145371,2,0,P|78:260|94:214,1,100,2|0,0:0|1:2,0:0:0:0:
271,152,145751,1,2,0:0:0:0:
172,183,145941,1,0,1:2:0:0:
324,230,146131,2,0,P|358:193|367:144,1,100,2|0,0:0|1:2,0:0:0:0:
260,52,146511,2,0,B|271:152,1,100,2|2,0:0|1:2,0:0:0:0:
223,259,146890,1,2,0:0:0:0:
223,259,146985,1,2,1:2:0:0:
222,259,147080,6,0,P|130:281|65:211,1,200,6|2,1:2|1:2,0:0:0:0:
194,99,147650,2,0,B|159:193,1,100,2|0,0:0|1:2,0:0:0:0:
316,111,148030,2,0,B|280:204,1,100,2|0,0:0|1:2,0:0:0:0:
257,55,148409,6,0,P|349:38|395:120,1,200,2|0,0:0|0:0,0:0:0:0:
348,234,148979,1,2,1:2:0:0:
476,190,149169,1,6,1:2:0:0:
451,355,149549,5,0,1:2:0:0:
388,152,149739,1,6,1:2:0:0:
256,192,149833,12,0,151258,0:0:0:0:
348,234,151637,6,0,B|237:237,1,100,14|2,1:2|0:0,0:0:0:0:
166,174,152017,1,2,1:2:0:0:
56,197,152207,2,0,P|61:246|53:296,1,100,2|0,0:0|1:2,0:0:0:0:
104,113,152587,1,2,0:0:0:0:
179,43,152776,1,2,1:2:0:0:
9,71,152966,1,2,0:0:0:0:
150,195,153156,6,0,P|197:213|247:216,1,100,2|0,1:2|0:0,0:0:0:0:
370,128,153536,2,0,P|323:110|273:107,1,100,2|0,1:2|0:0,0:0:0:0:
149,107,153916,2,0,P|69:157|82:251,1,200,2|2,1:2|1:2,0:0:0:0:
193,330,154485,1,2,0:0:0:0:
193,330,154580,1,2,0:0:0:0:
193,330,154675,2,0,B|250:351|250:351|316:322|316:322|352:336|381:332,2,200,6|0|0,1:2|1:2|1:2,0:0:0:0:
174,196,155625,5,2,0:0:0:0:
286,98,155814,1,2,1:2:0:0:
122,51,156004,2,0,B|200:113,1,100,2|0,0:0|1:2,0:0:0:0:
267,255,156384,1,0,0:0:0:0:
364,155,156574,1,2,1:2:0:0:
441,312,156764,2,0,B|362:250,1,100,2|0,0:0|1:2,0:0:0:0:
173,145,157144,5,2,0:0:0:0:
138,139,157239,1,2,0:0:0:0:
103,143,157333,1,2,1:2:0:0:
71,158,157428,1,2,1:2:0:0:
48,184,157523,1,2,1:2:0:0:
34,216,157618,1,2,1:2:0:0:
32,250,157713,6,0,P|84:330|181:334,1,200,6|2,1:2|1:2,0:0:0:0:
314,271,158283,2,0,B|215:252,1,100,2|0,0:0|1:2,0:0:0:0:
101,145,158663,1,2,0:0:0:0:
135,286,158852,1,2,1:2:0:0:
238,163,159042,2,0,B|334:136,1,100,2|0,0:0|1:2,0:0:0:0:
481,204,159422,1,2,0:0:0:0:
438,50,159612,1,2,1:2:0:0:
381,272,159802,2,0,L|406:175,1,100,2|0,0:0|1:2,0:0:0:0:
256,34,160182,5,2,0:0:0:0:
186,121,160371,1,2,1:2:0:0:
280,198,160561,1,2,0:0:0:0:
359,102,160751,5,2,1:2:0:0:
177,44,160941,1,2,0:0:0:0:
127,217,161131,1,6,1:2:0:0:
298,280,161321,1,2,0:0:0:0:
270,117,161511,5,2,1:2:0:0:
109,133,161701,1,2,0:0:0:0:
137,296,161890,1,2,1:2:0:0:
298,280,162080,2,0,B|397:290,1,100,2|2,0:0|1:2,0:0:0:0:
464,122,162460,5,2,0:0:0:0:
456,156,162555,1,2,0:0:0:0:
450,190,162650,1,2,1:2:0:0:
315,85,162840,5,2,0:0:0:0:
323,119,162935,1,0,0:0:0:0:
329,153,163030,1,2,1:2:0:0:
132,106,163220,5,2,1:2:0:0:
166,107,163314,1,0,0:0:0:0:
198,121,163409,1,2,1:2:0:0:
223,146,163504,1,2,1:2:0:0:
237,178,163599,1,2,1:2:0:0:
239,212,163694,1,2,1:2:0:0:
228,245,163789,6,0,B|281:233|281:233|326:239,1,100,14|2,1:2|0:0,0:0:0:0:
470,324,164169,1,2,1:2:0:0:
449,130,164359,2,0,P|429:177|425:226,1,100,2|0,0:0|1:2,0:0:0:0:
370,348,164739,1,2,0:0:0:0:
324,178,164928,1,2,1:2:0:0:
512,233,165118,1,2,0:0:0:0:
306,271,165308,6,0,B|206:272,1,100,2|0,1:2|0:0,0:0:0:0:
44,332,165688,2,0,B|143:330,1,100,2|0,1:2|0:0,0:0:0:0:
109,148,166068,2,0,P|113:197|129:244,1,100,2|0,1:2|0:0,0:0:0:0:
17,132,166447,1,2,1:2:0:0:
198,191,166637,2,0,B|252:146|228:62|280:12,1,200,2|0,1:2|0:0,0:0:0:0:
152,117,167207,2,0,P|246:118|280:205,1,200,0|0,1:2|1:2,0:0:0:0:
151,316,167776,5,2,0:0:0:0:
198,191,167966,1,2,1:2:0:0:
289,314,168156,2,0,B|397:362|397:362|432:340|472:331,1,200,2|2,0:0|0:0,0:0:0:0:
431,179,168726,1,2,1:2:0:0:
295,221,168916,2,0,B|239:220|195:189|195:189|150:216|106:214,1,200,2|0,0:0|0:0,0:0:0:0:
32,324,169485,5,2,1:2:0:0:
25,289,169580,1,2,1:2:0:0:
21,254,169675,1,2,1:2:0:0:
18,219,169770,1,2,1:2:0:0:
14,182,169865,6,0,B|39:144|39:144|134:155|182:105,1,200,6|2,1:2|1:2,0:0:0:0:
41,26,170435,2,0,B|102:216,1,200,2|2,0:0|0:0,0:0:0:0:
203,325,171004,1,2,1:2:0:0:
278,180,171194,1,2,0:0:0:0:
278,180,171289,1,2,0:0:0:0:
278,180,171384,1,0,1:2:0:0:
157,248,171574,1,2,0:0:0:0:
295,358,171764,1,2,1:2:0:0:
470,296,171954,2,0,B|371:280,1,100,2|0,0:0|1:2,0:0:0:0:
245,121,172333,5,2,0:0:0:0:
398,160,172523,1,2,1:2:0:0:
282,265,172713,1,2,0:0:0:0:
74,218,172903,2,0,B|173:206,1,100,2|0,1:2|0:0,0:0:0:0:
379,259,173283,1,2,1:2:0:0:
227,334,173473,2,0,P|192:245|258:177,2,200,2|2|2,0:0|0:0|1:2,0:0:0:0:
484,165,174612,5,2,1:2:0:0:
484,165,174802,2,0,B|475:264,1,100,0|2,0:0|1:2,0:0:0:0:
362,62,175182,2,0,B|354:161,1,100,2|0,0:0|1:2,0:0:0:0:
189,262,175561,1,2,1:2:0:0:
221,259,175656,1,2,1:2:0:0:
253,257,175751,1,2,1:2:0:0:
285,255,175846,1,2,1:2:0:0:
317,253,175941,5,14,1:2:0:0:
448,242,176131,1,2,0:0:0:0:
391,333,176321,1,2,1:2:0:0:
342,184,176511,2,0,P|339:134|351:86,1,100,2|0,0:0|1:2,0:0:0:0:
456,71,176890,1,2,0:0:0:0:
357,8,177080,1,2,1:2:0:0:
259,72,177270,6,0,L|160:86,1,100,2|0,0:0|1:2,0:0:0:0:
93,174,177650,1,2,0:0:0:0:
7,117,177840,1,2,1:2:0:0:
25,236,178030,2,0,P|39:284|43:334,1,100,2|0,0:0|1:2,0:0:0:0:
143,253,178409,2,0,P|147:203|162:156,1,100,2|0,0:0|1:2,0:0:0:0:
270,70,178789,1,2,1:2:0:0:
270,70,178884,1,2,1:2:0:0:
270,70,178979,2,0,B|335:118|412:67|412:67|456:83,1,200,2|0,1:2|1:2,0:0:0:0:
494,242,179549,5,2,0:0:0:0:
479,211,179644,1,2,0:0:0:0:
453,189,179739,1,2,1:2:0:0:
419,179,179833,1,2,0:0:0:0:
385,184,179928,1,2,0:0:0:0:
259,285,180118,5,2,1:2:0:0:
225,294,180213,1,2,0:0:0:0:
190,292,180308,1,2,0:0:0:0:
10,230,180498,5,2,1:2:0:0:
17,191,180593,1,2,0:0:0:0:
42,160,180688,1,2,0:0:0:0:
79,146,180783,1,2,0:0:0:0:
118,153,180878,1,2,1:2:0:0:
149,178,180973,1,2,0:0:0:0:
180,202,181068,1,2,0:0:0:0:
219,209,181163,1,2,0:0:0:0:
256,195,181258,5,2,1:2:0:0:
281,164,181352,1,2,0:0:0:0:
289,126,181447,1,2,0:0:0:0:
296,87,181542,1,2,0:0:0:0:
321,56,181637,2,0,L|372:35,1,50,2|2,1:2|0:0,0:0:0:0:
483,56,181827,2,0,L|423:80,1,50,2|2,1:2|0:0,0:0:0:0:
383,129,182017,6,0,L|423:220,1,100,2|2,1:2|0:0,0:0:0:0:
466,315,182397,1,6,1:2:0:0:
363,280,182587,2,0,B|287:256|225:314|225:314|178:295,1,200,2|2,0:0|0:0,0:0:0:0:
69,230,183156,1,2,1:2:0:0:
78,333,183346,1,2,0:0:0:0:
156,223,183536,6,0,P|151:173|131:128,1,100,2|2,1:2|0:0,0:0:0:0:
74,41,183916,1,2,1:2:0:0:
189,43,184106,2,0,B|251:48|251:48|287:38,1,100,2|0,0:0|1:2,0:0:0:0:
392,54,184485,1,2,0:0:0:0:
470,113,184675,2,0,P|460:161|469:210,1,100,2|0,1:2|0:0,0:0:0:0:
458,320,185055,5,2,1:2:0:0:
438,285,185150,1,2,0:0:0:0:
405,264,185245,1,2,0:0:0:0:
365,262,185340,1,2,0:0:0:0:
329,279,185435,1,2,1:2:0:0:
306,311,185530,1,2,0:0:0:0:
284,344,185625,1,2,0:0:0:0:
248,361,185720,1,2,0:0:0:0:
208,359,185814,5,2,1:2:0:0:
175,338,185909,1,2,0:0:0:0:
156,304,186004,1,2,0:0:0:0:
136,269,186099,1,2,0:0:0:0:
103,248,186194,1,2,1:2:0:0:
63,246,186289,1,2,0:0:0:0:
27,263,186384,1,2,0:0:0:0:
5,296,186479,1,2,0:0:0:0:
1,336,186574,5,6,1:2:0:0:
256,192,186669,12,8,187713,0:0:0:0:
328,283,188093,5,2,0:0:0:0:
411,260,188283,1,2,0:0:0:0:
448,336,188473,1,2,0:0:0:0:
420,183,188663,2,0,B|423:107,1,75.0000028610231,2|14,0:0|0:0,0:0:0:0:
501,190,189042,5,2,1:2:0:0:
495,49,189232,1,2,1:2:0:0:
340,99,189422,1,2,1:2:0:0:
416,282,189612,2,0,B|420:183,1,100,2|0,1:2|1:2,0:0:0:0:
343,176,189897,5,0,1:2:0:0:
343,176,189992,2,0,B|243:172,1,100,6|0,1:2|0:0,0:0:0:0:
187,322,190371,2,0,P|189:273|174:225,1,100,0|0,1:2|0:0,0:0:0:0:
1,209,190751,2,0,B|100:208,1,100,0|0,1:2|1:2,0:0:0:0:
160,145,191036,1,0,1:2:0:0:
160,145,191131,2,0,B|219:129|219:129|281:171|351:144,2,200,10|4|0,1:2|1:2|1:2,0:0:0:0:
42,95,192080,5,2,0:0:0:0:
42,95,192175,1,2,0:0:0:0:
42,95,192270,1,2,1:2:0:0:
79,228,192460,2,0,P|82:277|66:324,1,100,2|0,0:0|1:2,0:0:0:0:
173,136,192840,1,2,0:0:0:0:
173,136,192935,1,2,0:0:0:0:
173,136,193030,1,2,1:2:0:0:
269,289,193220,2,0,P|253:241|256:192,1,100,2|0,0:0|1:2,0:0:0:0:
424,135,193599,5,2,0:0:0:0:
394,161,193694,1,2,0:0:0:0:
354,163,193789,1,2,1:2:0:0:
320,140,193884,1,2,1:2:0:0:
306,102,193979,1,2,1:2:0:0:
318,63,194074,1,2,1:2:0:0:
352,43,194169,6,0,B|253:27,1,100,6|0,1:2|0:0,0:0:0:0:
153,133,194549,1,2,1:2:0:0:
35,49,194739,2,0,B|134:46,1,100,2|0,0:0|1:2,0:0:0:0:
256,106,195118,1,2,0:0:0:0:
233,261,195308,1,2,1:2:0:0:
33,217,195498,2,0,B|132:207,1,100,2|0,0:0|1:2,0:0:0:0:
335,184,195878,1,2,0:0:0:0:
335,184,195973,1,2,0:0:0:0:
335,184,196068,1,2,1:2:0:0:
143,319,196258,2,0,B|242:306,1,100,2|0,0:0|1:2,0:0:0:0:
441,292,196637,5,2,0:0:0:0:
257,210,196827,1,2,1:2:0:0:
408,87,197017,1,2,0:0:0:0:
189,39,197207,5,2,1:2:0:0:
374,197,197397,1,2,0:0:0:0:
164,237,197587,1,6,1:2:0:0:
263,134,197776,1,2,0:0:0:0:
30,196,197966,5,2,1:2:0:0:
220,369,198156,1,2,0:0:0:0:
263,134,198346,1,2,1:2:0:0:
164,237,198536,1,2,0:0:0:0:
192,71,198726,5,2,1:2:0:0:
225,49,198821,1,2,0:0:0:0:
265,48,198916,1,2,0:0:0:0:
302,61,199011,1,2,0:0:0:0:
333,85,199106,1,2,1:2:0:0:
349,121,199201,1,2,0:0:0:0:
350,160,199295,1,2,0:0:0:0:
336,197,199390,1,2,0:0:0:0:
305,223,199485,6,0,P|295:271|299:321,1,100,2|0,1:2|0:0,0:0:0:0:
452,254,199865,1,2,1:2:0:0:
432,219,199960,1,2,1:2:0:0:
448,182,200055,1,2,1:2:0:0:
423,150,200150,1,2,1:2:0:0:
448,119,200245,6,0,B|402:126|348:120,1,100,14|0,1:2|0:0,0:0:0:0:
233,70,200625,1,2,1:2:0:0:
218,261,200814,2,0,P|205:213|208:163,1,100,2|0,0:0|1:2,0:0:0:0:
431,151,201194,1,2,0:0:0:0:
329,217,201384,1,2,1:2:0:0:
392,319,201574,1,2,0:0:0:0:
218,261,201764,6,0,P|168:264|119:276,1,100,2|0,1:2|0:0,0:0:0:0:
37,213,202144,2,0,P|28:163|7:118,1,100,2|0,1:2|0:0,0:0:0:0:
182,107,202523,2,0,B|123:188,1,100,2|0,1:2|0:0,0:0:0:0:
218,261,202903,1,2,1:2:0:0:
264,91,203093,2,0,P|196:27|111:66,1,200,2|0,0:0|0:0,0:0:0:0:
135,280,203663,2,0,P|203:344|288:305,1,200,0|0,1:2|1:2,0:0:0:0:
182,107,204232,5,2,0:0:0:0:
218,261,204422,1,2,1:2:0:0:
407,151,204612,2,0,L|308:164,1,100,2|0,0:0|1:2,0:0:0:0:
100,201,204992,2,0,L|198:187,1,100,2|0,0:0|1:2,0:0:0:0:
283,343,205371,2,0,B|268:244,1,100,2|0,0:0|1:2,0:0:0:0:
90,117,205751,5,2,0:0:0:0:
52,130,205846,1,2,0:0:0:0:
25,159,205941,1,2,1:2:0:0:
14,197,206036,1,2,1:2:0:0:
22,236,206131,1,2,1:2:0:0:
46,267,206226,1,2,1:2:0:0:
82,284,206321,6,0,B|181:272,1,100,2|0,1:2|0:0,0:0:0:0:
401,202,206701,1,2,1:2:0:0:
240,60,206890,2,0,B|250:159,1,100,2|0,0:0|1:2,0:0:0:0:
256,338,207270,1,2,0:0:0:0:
126,245,207460,1,2,1:2:0:0:
345,248,207650,2,0,B|444:259,1,100,2|0,0:0|1:2,0:0:0:0:
356,129,208030,5,2,0:0:0:0:
472,184,208220,1,2,1:2:0:0:
263,288,208409,2,0,P|254:238|266:190,1,100,2|0,0:0|1:2,0:0:0:0:
452,93,208789,1,2,0:0:0:0:
353,225,208979,1,2,1:2:0:0:
267,74,209169,1,2,0:0:0:0:
437,210,209359,6,0,P|404:298|309:301,1,200,2|2,1:2|1:2,0:0:0:0:
74,210,209928,2,0,P|107:298|202:301,2,200,2|2|6,0:0|0:0|1:2,0:0:0:0:
321,106,211068,1,6,1:2:0:0:
321,106,211258,6,0,L|219:114,1,100,2|4,0:0|1:2,0:0:0:0:
77,112,211637,2,0,P|66:160|74:210,1,100,2|6,0:0|1:2,0:0:0:0:
262,315,212017,2,0,P|273:267|268:218,1,100,2|0,1:2|1:2,0:0:0:0:
357,62,212397,6,2,L|309:77,1,50,2|2,0:0|0:0,0:0:0:0:
203,142,212587,2,2,L|250:126,1,50,2|2,0:0|0:0,0:0:0:0:
369,144,212776,2,2,L|321:159,1,50
213,228,212966,2,2,L|260:212,1,50
379,230,213156,2,2,L|331:245,1,50,2|2,0:0|0:0,0:0:0:0:
230,311,213346,2,2,L|277:295,1,50
395,313,213536,2,0,P|456:273|458:201,1,150,2|0,0:0|0:0,0:0:0:0:
441,168,213916,6,0,L|341:165,1,100,14|0,1:2|0:0,0:0:0:0:
258,280,214295,1,2,1:2:0:0:
196,150,214485,2,0,P|187:101|193:51,1,100,2|0,0:0|1:2,0:0:0:0:
189,254,214865,2,0,P|143:274|94:277,1,100,2|0,0:0|1:2,0:0:0:0:
1,149,215245,6,0,P|89:183|94:278,1,200,2|2,0:0|0:0,0:0:0:0:
40,351,215814,1,2,1:2:0:0:
142,348,216004,2,0,L|241:348,1,100,2|0,0:0|1:2,0:0:0:0:
316,212,216384,2,0,P|309:261|321:310,1,100,2|0,0:0|1:2,0:0:0:0:
459,208,216764,6,0,B|396:194|396:194|317:214|317:214|264:199,1,200,2|0,1:2|0:0,0:0:0:0:
186,257,217333,2,0,P|172:163|246:103,1,200,2|0,1:2|1:2,0:0:0:0:
377,50,217903,1,2,0:0:0:0:
469,149,218093,1,2,1:2:0:0:
385,248,218283,6,0,B|186:257,1,200,2|2,0:0|0:0,0:0:0:0:
95,159,218852,1,2,1:2:0:0:
125,314,219042,2,0,P|216:334|266:255,1,200,2|2,0:0|0:0,0:0:0:0:
215,143,219612,1,2,1:2:0:0:
365,179,219802,5,2,1:2:0:0:
365,179,219897,1,2,1:2:0:0:
365,178,219992,2,0,P|409:157|433:114,1,100,2|0,1:2|0:0,0:0:0:0:
275,53,220371,2,0,B|196:65|140:29|140:29|122:59|100:73,1,200,14|0,1:2|1:2,0:0:0:0:
119,260,220941,2,0,P|129:211|120:161,1,100,2|2,0:0|1:2,0:0:0:0:
4,287,221321,5,2,0:0:0:0:
37,132,221511,1,2,1:2:0:0:
205,161,221701,1,2,0:0:0:0:
152,329,221890,1,2,1:2:0:0:
120,162,222080,2,0,P|169:81|261:98,1,200,2|0,0:0|0:0,0:0:0:0:
244,227,222650,2,0,B|248:335,1,100,2|0,1:2|1:2,0:0:0:0:
250,362,222935,1,0,1:2:0:0:
250,362,223030,5,6,1:2:0:0:
160,296,223220,1,2,0:0:0:0:
323,281,223409,1,2,1:2:0:0:
231,210,223599,2,0,B|148:153,1,100,2|0,0:0|1:2,0:0:0:0:
166,17,223979,2,0,B|248:73,1,100,2|0,0:0|1:2,0:0:0:0:
470,136,224359,6,0,P|413:182|411:255,1,150,6|0,1:2|0:0,0:0:0:0:
444,292,224738,2,0,P|373:275|314:318,1,150,6|0,1:2|0:0,0:0:0:0:
295,364,225118,2,0,P|277:293|220:246,1,150,6|0,1:2|0:0,0:0:0:0:
174,267,225498,1,6,1:2:0:0:
174,267,225688,2,0,L|183:168,1,100,4|0,1:2|0:0,0:0:0:0:
207,69,226068,6,0,P|159:79|110:73,1,100,14|0,1:2|0:0,0:0:0:0:
16,35,226447,1,2,0:0:0:0:
16,135,226637,2,0,P|9:184|18:233,1,100,2|0,0:0|0:0,0:0:0:0:
108,279,227017,2,0,P|153:259|203:257,1,100,2|0,0:0|0:0,0:0:0:0:
202,156,227397,6,0,P|286:201|294:296,1,200,2|2,0:0|0:0,0:0:0:0:
221,367,227966,1,2,0:0:0:0:
294,296,228156,2,0,L|393:297,1,100,2|0,0:0|0:0,0:0:0:0:
454,217,228536,2,0,P|442:168|450:119,1,100,2|0,0:0|0:0,0:0:0:0:
373,55,228916,2,0,B|332:109|337:188|337:188|280:170,1,200,2|0,0:0|0:0,0:0:0:0:
180,165,229485,2,0,B|243:179|243:179|322:159|322:159|374:174,1,200,2|0,0:0|0:0,0:0:0:0:
466,214,230055,5,2,0:0:0:0:
380,275,230245,1,2,0:0:0:0:
471,315,230435,2,0,B|421:300|380:272|380:272|335:305|282:316,1,200,2|2,0:0|0:0,0:0:0:0:
207,364,231004,1,2,0:0:0:0:
152,282,231194,2,0,P|201:202|293:222,1,200,2|2,0:0|0:0,0:0:0:0:
360,295,231764,1,2,0:0:0:0:
408,207,231954,5,2,0:0:0:0:
408,207,232049,1,2,0:0:0:0:
408,207,232144,2,0,B|440:112,1,100,2|0,0:0|0:0,0:0:0:0:
360,53,232523,2,0,B|288:87|210:45|210:45|174:69,1,200,14|0,0:0|0:0,0:0:0:0:
82,26,233093,2,0,P|73:74|83:123,1,100,2|2,0:0|0:0,0:0:0:0:
197,214,233473,5,2,0:0:0:0:
91,284,233663,1,2,0:0:0:0:
189,309,233852,1,2,0:0:0:0:
63,275,234042,1,2,0:0:0:0:
191,181,234232,2,0,P|286:173|341:251,1,200,2|0,0:0|0:0,0:0:0:0:
414,318,234802,2,0,B|442:216,1,100,2|0,0:0|0:0,0:0:0:0:
453,183,235087,1,0,0:0:0:0:
453,183,235182,5,6,0:0:0:0:
371,124,235371,1,2,0:0:0:0:
465,92,235561,1,2,0:0:0:0:
371,124,235751,2,0,B|271:111,1,100,2|0,0:0|0:0,0:0:0:0:
187,166,236131,2,0,B|207:263,1,100,2|0,0:0|0:0,0:0:0:0:
229,361,236511,5,6,0:0:0:0:
103,208,236890,5,6,0:0:0:0:
300,250,237270,5,6,0:0:0:0:
114,324,237650,5,6,0:0:0:0:
114,324,237840,1,4,0:0:0:0:
210,163,238220,5,14,0:0:0:0:
