osu file format v14

[General]
AudioFilename: Midnight.mp3
AudioLeadIn: 0
PreviewTime: 95288
Countdown: 0
SampleSet: Soft
StackLeniency: 0.7
Mode: 0
LetterboxInBreaks: 0
WidescreenStoryboard: 0

[Editor]
DistanceSpacing: 1.1
BeatDivisor: 4
GridSize: 4
TimelineZoom: 2

[Metadata]
Title:Junjou Midnight Densetsu
TitleUnicode:純情Midnight伝説
Artist:346 Production
ArtistUnicode:346 Production
Creator:searchingfor
Version:Pro
Source:アイドルマスター シンデレラガールズ
Tags:Mukai Takumi Hara Yuuko Kimura Natsuki Yasuno Kiyono Matsunaga Ryo Chisuga Haruka Fujimoto Rina Kaneko Mayumi Yamato Aki Muranaka Tomo
BeatmapID:1110408
BeatmapSetID:522929

[Difficulty]
HPDrainRate:6
CircleSize:4.5
OverallDifficulty:6
ApproachRate:7.6
SliderMultiplier:1.4
SliderTickRate:1

[Events]
//Background and Video events
//Break Periods
//Storyboard Layer 0 (Background)
//Storyboard Layer 1 (Fail)
//Storyboard Layer 2 (Pass)
//Storyboard Layer 3 (Foreground)
//Storyboard Sound Samples

[TimingPoints]
1429,350.877192982456,4,2,1,70,1,0
12631,-100,4,2,1,75,0,0
23885,-100,4,2,1,68,0,0
47744,-100,4,2,1,75,0,0
50902,-66.6666666666667,4,2,1,75,0,0
51078,-100,4,2,1,75,0,0
51604,-66.6666666666667,4,2,1,75,0,0
51779,-100,4,2,1,75,0,0
58972,-100,4,2,1,88,0,1
70200,-100,4,2,1,75,0,0
73007,-100,4,2,1,78,0,0
81428,-100,4,2,1,82,0,0
84236,-200,4,2,1,50,0,0
92657,-200,4,2,1,60,0,0
94060,-100,4,2,1,65,0,0
95464,-100,4,2,1,88,0,1
106692,-100,4,2,1,83,0,0
108095,-100,4,2,1,91,0,1
119323,-100,4,2,1,65,0,0
123534,350.877192982456,4,2,1,70,1,0

[Colours]
Combo1 : 0,0,255
Combo2 : 0,255,0
Combo3 : 255,64,0
Combo4 : 255,0,0

[HitObjects]
270,323,902,6,0,L|358:325,2,70
210,272,1429,1,0,0:0:0:0:
236,199,1604,1,0,0:0:0:0:
168,168,1779,1,0,0:0:0:0:
168,168,2481,5,0,0:0:0:0:
168,168,3183,1,0,0:0:0:0:
168,168,3709,6,0,L|164:80,2,70
220,228,4236,1,0,0:0:0:0:
292,200,4411,1,0,0:0:0:0:
324,268,4586,1,0,0:0:0:0:
324,268,5288,1,0,0:0:0:0:
324,268,5990,1,0,0:0:0:0:
144,124,6516,6,0,L|88:120,2,35
144,124,7043,2,0,L|148:200,1,70
220,122,7393,2,0,L|224:192,1,70
287,235,7744,2,0,P|320:247|355:244,1,70
220,272,8095,1,0,0:0:0:0:
120,156,8446,6,0,L|116:76,1,70
195,149,8797,2,0,L|192:80,1,70
259,192,9148,2,0,P|293:182|327:188,1,70
196,236,9499,2,0,L|180:276,2,35
260,192,9850,6,0,L|264:116,2,70
336,208,10376,2,0,L|340:132,2,70
288,268,10902,1,0,0:0:0:0:
184,180,11078,1,0,0:0:0:0:
324,120,11428,5,0,0:0:0:0:
364,184,11604,1,0,0:0:0:0:
296,224,11779,1,0,0:0:0:0:
256,156,11955,2,0,P|212:160|180:148,1,70
120,112,12306,1,0,0:0:0:0:
120,112,12481,1,0,0:0:0:0:
187,152,12657,6,0,B|159:176|159:176|163:288,1,140
224,328,13183,1,0,0:0:0:0:
292,292,13358,2,0,P|328:288|372:316,1,70
478,253,13709,2,0,P|443:257|412:244,1,70
356,188,14060,5,0,0:0:0:0:
412,132,14236,1,0,0:0:0:0:
392,60,14411,1,0,0:0:0:0:
336,112,14586,1,0,0:0:0:0:
356,188,14762,2,0,B|308:204|272:160|272:160|252:188|256:224,1,140
244,276,15288,1,0,0:0:0:0:
184,228,15464,6,0,P|136:232|104:220,1,70
124,148,15814,2,0,P|172:144|204:156,1,70
264,128,16165,2,0,L|268:80,3,35
296,120,16516,1,0,0:0:0:0:
296,120,16692,2,0,B|324:144|324:144|320:252,1,140
244,252,17218,6,0,L|249:168,1,70
216,112,17569,1,0,0:0:0:0:
144,144,17744,2,0,P|108:152|72:136,2,70
216,112,18271,2,0,L|220:28,1,70
294,82,18621,2,0,L|296:48,2,35
315,155,18972,2,0,P|349:163|382:152,1,70
244,184,19323,2,0,L|242:218,2,35
196,280,19674,6,0,P|228:296|280:288,1,70
324,252,20025,2,0,L|358:254,2,35
412,196,20376,2,0,L|416:112,1,70
372,64,20727,1,0,0:0:0:0:
300,92,20902,2,0,B|220:108|219:66|132:92,1,140
124,152,21428,6,0,L|120:228,1,70
200,305,21779,2,0,L|204:236,1,70
283,158,22130,2,0,L|280:228,1,70
280,160,22657,6,0,P|316:148|360:152,2,70
212,124,23183,1,0,0:0:0:0:
160,180,23358,1,0,0:0:0:0:
88,152,23534,1,0,0:0:0:0:
88,228,23709,1,0,0:0:0:0:
236,196,23885,6,0,B|216:268|260:268|236:348,1,140
164,344,24411,1,0,0:0:0:0:
120,280,24586,2,0,L|40:268,2,70
180,232,25113,1,0,0:0:0:0:
180,232,25288,2,0,P|224:184|296:200,2,140
108,200,26165,5,0,0:0:0:0:
80,128,26341,1,0,0:0:0:0:
144,88,26516,1,0,0:0:0:0:
176,160,26692,2,0,P|236:168|292:112,1,140
216,92,27218,1,0,0:0:0:0:
276,44,27393,2,0,P|324:48|352:76,1,70
359,135,27744,2,0,P|390:153|424:151,1,70
284,152,28095,6,0,P|264:220|304:296,1,140
348,332,28621,1,0,0:0:0:0:
292,280,28797,2,0,L|222:286,2,70
344,224,29323,1,0,0:0:0:0:
172,228,29499,6,0,P|140:164|168:100,1,140
224,56,30025,1,0,0:0:0:0:
276,116,30200,2,0,P|316:120|352:104,1,70
383,176,30551,2,0,P|416:165|451:169,1,70
324,224,30902,5,0,0:0:0:0:
296,296,31078,1,0,0:0:0:0:
220,292,31253,1,0,0:0:0:0:
248,220,31428,2,0,B|220:192|220:192|228:88,1,140
180,28,31955,1,0,0:0:0:0:
304,116,32130,1,0,0:0:0:0:
304,116,32481,6,0,L|384:112,2,70
232,92,33007,2,0,P|156:76|108:128,1,140
68,176,33534,1,0,0:0:0:0:
144,180,33709,2,0,P|152:220|144:264,1,70
184,316,34060,1,0,0:0:0:0:
184,316,34236,2,0,B|224:296|244:304|244:304|256:344|304:360,1,140
324,284,34762,2,0,L|364:288,3,35
348,252,35113,6,0,B|376:216|372:152|372:152|328:124,1,140
276,92,35639,1,0,0:0:0:0:
204,120,35814,2,0,L|116:128,1,70
144,204,36165,2,0,L|213:197,1,70
280,156,36516,2,0,B|344:136|352:172|418:154,1,140
372,92,37043,2,0,P|340:160|384:224,1,140
436,244,37569,1,0,0:0:0:0:
272,232,37744,5,0,0:0:0:0:
272,232,37920,2,0,P|196:236|156:184,1,140
232,164,38446,1,0,0:0:0:0:
307,164,38621,2,0,P|319:131|317:96,1,70
376,196,38972,2,0,P|364:232|376:288,1,70
292,276,39323,5,0,0:0:0:0:
216,288,39499,1,0,0:0:0:0:
140,300,39674,1,0,0:0:0:0:
164,228,39850,2,0,B|140:120|140:120|180:152,1,140
236,160,40376,2,0,P|284:152|308:128,1,70
360,92,40727,6,0,B|412:108|420:156|420:156|408:204,1,140
384,276,41253,1,0,0:0:0:0:
308,268,41428,2,0,L|239:280,2,70
352,204,41955,1,0,0:0:0:0:
276,192,42130,2,0,B|240:159|240:159|248:43,1,140
320,96,42657,2,0,P|260:136|192:128,1,140
152,64,43183,1,0,0:0:0:0:
308,20,43358,1,0,0:0:0:0:
308,20,43709,6,0,L|312:96,1,70
360,148,44060,1,0,0:0:0:0:
284,160,44236,2,0,B|244:168|244:168|224:224|160:224,1,140
100,188,44762,1,0,0:0:0:0:
168,148,44937,2,0,L|156:72,2,70
100,188,45464,2,0,P|96:260|160:304,1,140
220,284,45990,2,0,B|248:260|248:260|372:276,1,140
290,187,46516,6,0,L|360:196,1,70
400,128,46867,2,0,L|434:132,2,35
352,68,47218,1,0,0:0:0:0:
280,32,47393,1,0,0:0:0:0:
224,84,47569,1,0,0:0:0:0:
344,144,47744,6,0,B|368:176|368:176|360:280,1,140
296,320,48271,1,0,0:0:0:0:
228,284,48446,2,0,P|184:268|144:276,1,70
140,344,48797,1,0,0:0:0:0:
88,288,48973,2,0,B|60:256|60:256|73:159,1,140
148,184,49499,2,0,L|160:104,1,70
216,64,49850,1,0,0:0:0:0:
276,112,50025,6,0,L|364:108,2,70
220,60,50551,1,0,0:0:0:0:
236,176,50727,1,0,0:0:0:0:
176,116,50902,6,0,P|134:135|186:153,1,105.000004005432
316,192,51253,5,0,0:0:0:0:
212,244,51428,1,0,0:0:0:0:
284,268,51604,6,0,P|296:311|251:310,1,105.000004005432
176,312,51955,6,0,P|136:272|156:184,1,140
216,160,52481,2,0,B|264:156|264:156|304:172|304:172|384:164,1,140
427,155,53007,2,0,P|429:190|411:219,1,70
384,92,53358,6,0,P|384:52|412:20,2,70
336,152,53885,1,0,0:0:0:0:
260,140,54060,2,0,L|184:132,1,70
112,124,54411,1,0,0:0:0:0:
168,72,54586,2,0,P|184:124|132:196,1,140
64,184,55113,2,0,P|68:224|96:256,2,70
140,184,55639,5,0,0:0:0:0:
168,256,55814,1,0,0:0:0:0:
216,196,55990,1,0,0:0:0:0:
244,268,56165,2,0,P|304:288|360:240,1,140
332,92,56867,2,0,P|272:72|216:120,1,140
188,188,57393,1,0,0:0:0:0:
264,188,57569,6,0,L|268:272,1,70
195,337,57920,2,0,L|192:268,1,70
120,240,58271,2,0,L|80:244,2,35
172,184,58621,2,0,P|208:156|272:176,1,105
296,188,58972,6,0,L|440:176,2,140
236,236,59850,1,0,0:0:0:0:
172,192,60025,2,0,P|176:128|160:104,1,70
104,160,60376,2,0,P|96:112|156:48,1,140
228,72,60902,2,0,L|372:64,1,140
440,92,61428,5,0,0:0:0:0:
436,168,61604,1,0,0:0:0:0:
364,196,61779,2,0,P|300:196|268:232,1,105
264,260,62130,1,0,0:0:0:0:
172,136,62481,2,0,P|236:136|268:100,1,105
272,72,62832,1,0,0:0:0:0:
340,40,63007,1,0,0:0:0:0:
332,116,63183,6,0,L|336:200,1,70
284,244,63534,1,0,0:0:0:0:
220,200,63709,2,0,B|192:180|192:180|84:188,1,140
156,224,64236,2,0,P|164:184|152:140,1,70
132,84,64586,6,0,B|164:60|164:60|288:64,2,140
76,136,65464,1,0,0:0:0:0:
148,164,65639,2,0,L|148:260,1,70
184,300,65990,5,0,0:0:0:0:
248,256,66165,1,0,0:0:0:0:
244,180,66341,1,0,0:0:0:0:
312,216,66516,2,0,P|320:168|260:104,1,140
244,180,67043,2,0,L|160:188,1,70
100,164,67393,6,0,P|108:232|180:264,1,140
224,316,67920,1,0,0:0:0:0:
272,256,68095,2,0,L|344:248,1,70
332,172,68446,2,0,L|262:179,1,70
200,224,68797,5,0,0:0:0:0:
188,148,68972,1,0,0:0:0:0:
252,104,69148,1,0,0:0:0:0:
262,179,69323,2,0,P|284:216|380:220,1,140
340,156,69850,2,0,P|318:119|222:115,2,140
360,232,70727,5,0,0:0:0:0:
288,263,70902,2,0,P|279:297|286:332,1,70
228,216,71253,2,0,P|236:176|224:136,1,70
160,180,71604,2,0,L|84:184,2,70
160,104,72130,2,0,P|208:68|284:84,1,140
340,136,72657,2,0,L|409:129,1,70
320,208,73007,6,0,L|250:214,1,70
172,208,73358,2,0,P|176:160|160:116,1,70
124,80,73709,1,0,0:0:0:0:
200,72,73885,1,0,0:0:0:0:
276,60,74060,1,0,0:0:0:0:
328,116,74236,6,0,B|352:144|352:144|344:264,1,140
344,324,74762,1,0,0:0:0:0:
276,288,74937,2,0,P|236:284|204:304,1,70
152,348,75288,1,0,0:0:0:0:
140,272,75464,2,0,B|108:248|108:248|124:144,2,140
208,308,76341,5,0,0:0:0:0:
264,256,76516,2,0,L|340:256,2,70
208,308,77043,2,0,P|140:316|88:260,1,140
72,196,77569,2,0,L|-4:192,2,70
144,172,78095,1,0,0:0:0:0:
144,172,78271,2,0,L|228:176,1,70
264,116,78621,5,0,0:0:0:0:
264,116,78797,1,0,0:0:0:0:
284,192,78972,2,0,P|288:232|268:280,1,70
220,308,79323,1,0,0:0:0:0:
176,244,79499,2,0,L|100:248,1,70
60,308,79850,2,0,P|92:240|60:168,1,140
28,120,80376,2,0,L|36:44,1,70
188,60,80902,5,0,0:0:0:0:
264,72,81078,1,0,0:0:0:0:
340,84,81253,1,0,0:0:0:0:
296,144,81428,2,0,B|288:188|296:208|296:208|288:228|288:228|296:252|292:288,2,140
264,72,82306,1,0,0:0:0:0:
200,116,82481,2,0,P|164:132|116:128,1,70
56,136,82832,5,0,0:0:0:0:
72,212,83007,1,0,0:0:0:0:
148,208,83183,1,0,0:0:0:0:
168,284,83358,1,0,0:0:0:0:
228,236,83534,2,0,L|262:243,3,35
232,220,83885,2,0,L|266:213,3,35
216,240,84236,6,0,B|176:232|128:256|128:256|96:240|80:196|96:144,1,210
144,92,85639,2,0,P|216:40|340:72,1,210
392,108,87043,2,0,B|380:144|396:168|384:196|384:196|400:216|400:216|384:252|396:280|392:316,1,210
316,308,88446,2,0,P|256:316|220:280,2,105
284,236,89850,6,0,B|296:188|280:156|280:156|196:172|196:172|144:152,1,210
112,220,91253,2,0,B|100:268|116:300|116:300|200:284|200:284|252:304,1,210
316,292,92657,2,0,P|376:312|428:256,1,140
440,188,93709,1,0,0:0:0:0:
440,188,94060,6,0,L|448:112,1,70
384,72,94411,1,0,0:0:0:0:
316,104,94586,2,0,P|248:144|188:124,1,140
160,104,95025,1,0,0:0:0:0:
160,104,95113,2,0,L|104:104,3,35
148,132,95464,6,0,P|132:200|172:260,1,140
232,300,95990,1,0,0:0:0:0:
292,252,96165,2,0,L|376:260,1,70
372,184,96516,2,0,L|302:177,1,70
228,204,96867,2,0,P|152:216|104:164,1,140
176,140,97393,2,0,P|252:128|300:180,1,140
296,244,97920,5,0,0:0:0:0:
360,204,98095,1,0,0:0:0:0:
292,168,98271,2,0,B|272:144|272:144|192:156,1,105
160,164,98621,1,0,0:0:0:0:
236,296,98972,2,0,B|256:320|256:320|336:308,1,105
368,300,99322,1,0,0:0:0:0:
424,352,99499,1,0,0:0:0:0:
404,232,99674,6,0,L|396:148,1,70
348,104,100025,1,0,0:0:0:0:
280,136,100200,2,0,P|216:152|164:92,1,140
108,56,100727,2,0,L|32:64,1,70
120,168,101078,6,0,P|184:152|236:212,1,140
252,276,101604,1,0,0:0:0:0:
308,224,101779,2,0,P|356:224|384:204,1,70
356,140,102130,2,0,P|308:140|280:160,1,70
232,200,102481,5,0,0:0:0:0:
156,220,102657,1,0,0:0:0:0:
116,156,102832,1,0,0:0:0:0:
188,128,103007,2,0,P|232:112|312:164,1,140
300,232,103534,1,0,0:0:0:0:
368,192,103709,1,0,0:0:0:0:
236,188,103885,6,0,B|212:220|212:220|220:336,1,140
144,344,104411,1,0,0:0:0:0:
88,292,104586,2,0,P|48:292|20:264,1,70
48,200,104937,2,0,P|88:200|116:228,1,70
160,276,105288,6,0,L|236:280,2,70
184,204,105814,2,0,B|212:176|212:176|204:68,1,140
276,44,106341,1,0,0:0:0:0:
276,44,106516,1,0,0:0:0:0:
276,44,106692,6,0,L|280:116,1,70
356,108,107043,2,0,L|360:180,1,70
284,188,107393,1,0,0:0:0:0:
248,256,107569,1,0,0:0:0:0:
208,192,107744,1,0,0:0:0:0:
168,260,107920,1,0,0:0:0:0:
284,188,108095,6,0,L|276:104,1,70
132,176,108446,2,0,L|124:92,1,70
208,192,108797,2,0,L|214:261,1,70
272,312,109148,5,0,0:0:0:0:
312,248,109323,1,0,0:0:0:0:
352,312,109499,2,0,L|348:388,2,70
392,244,110025,2,0,P|428:208|416:112,1,140
348,108,110551,2,0,L|359:38,1,70
276,140,110902,6,0,L|196:128,1,70
268,272,111253,2,0,L|188:260,1,70
94,181,111604,2,0,L|164:192,1,70
240,200,111955,5,0,0:0:0:0:
316,208,112130,1,0,0:0:0:0:
360,144,112306,2,0,P|424:152|440:144,2,70
284,124,112832,2,0,P|236:76|160:84,1,140
46,125,113358,2,0,L|116:136,1,70
156,200,113709,6,0,P|152:248|172:288,1,70
308,232,114060,2,0,P|312:184|292:144,1,70
230,83,114411,2,0,P|222:117|228:152,1,70
200,224,114762,5,0,0:0:0:0:
132,264,114937,1,0,0:0:0:0:
136,188,115113,1,0,0:0:0:0:
68,224,115288,2,0,B|36:204|36:204|44:100,2,140
140,192,116165,2,0,P|188:180|228:192,1,70
348,244,116692,5,0,0:0:0:0:
420,272,116867,1,0,0:0:0:0:
404,196,117043,1,0,0:0:0:0:
336,164,117218,2,0,L|339:94,1,70
276,212,117569,2,0,L|272:281,1,70
208,324,117920,6,0,P|144:336|96:268,1,140
168,256,118446,2,0,B|196:232|196:232|192:120,1,140
116,108,118972,2,0,L|104:72,3,35
84,104,119323,2,0,P|56:168|88:236,1,140
228,280,120025,2,0,P|276:284|304:264,1,70
344,216,120376,2,0,P|376:204|409:211,1,70
328,80,120902,5,0,0:0:0:0:
256,112,121078,1,0,0:0:0:0:
316,160,121253,1,0,0:0:0:0:
256,192,121428,12,0,123183,0:0:0:0:
256,192,123358,6,0,L|296:188,2,35
