osu file format v14

[General]
AudioFilename: audio.mp3
AudioLeadIn: 0
PreviewTime: -1
Countdown: 0
SampleSet: None
StackLeniency: 0.2
Mode: 0
LetterboxInBreaks: 0
WidescreenStoryboard: 0

[Editor]
Bookmarks: 83866
DistanceSpacing: 1
BeatDivisor: 4
GridSize: 32
TimelineZoom: 1.6

[Metadata]
Title:Ascalon
TitleUnicode:Ascaloη
Artist:319.
ArtistUnicode:319.
Creator:Nokris
Version:Aesthetic
Source:
Tags:
BeatmapID:1736832
BeatmapSetID:828994

[Difficulty]
HPDrainRate:6
CircleSize:4
OverallDifficulty:9
ApproachRate:9.3
SliderMultiplier:1.87
SliderTickRate:1

[Events]
//Background and Video events
0,0,"buge.jpg",0,0
//Break Periods
2,20818,43724
//Storyboard Layer 0 (Background)
//Storyboard Layer 1 (Fail)
//Storyboard Layer 2 (Pass)
//Storyboard Layer 3 (Foreground)
//Storyboard Sound Samples

[TimingPoints]
980,309.278350515464,4,2,0,50,1,0
980,-1000,4,2,0,50,0,0
3454,-500,4,2,0,50,0,0
4691,-400,4,2,0,50,0,0
5928,-500,4,2,0,50,0,0
7938,-400,4,2,0,50,0,0
8402,-500,4,2,0,50,0,0
9639,-400,4,2,0,50,0,0
10876,-285.714285714286,4,2,0,50,0,0
13351,-400,4,2,0,50,0,0
14588,-333.333333333333,4,2,0,50,0,0
14820,-333.333333333333,4,2,0,5,0,0
14897,-333.333333333333,4,2,0,50,0,0
15129,-333.333333333333,4,2,0,5,0,0
15206,-333.333333333333,4,2,0,50,0,0
15438,-333.333333333333,4,2,0,5,0,0
15515,-333.333333333333,4,2,0,50,0,0
15748,-333.333333333333,4,2,0,5,0,0
15825,-333.333333333333,4,2,0,50,0,0
19536,-285.714285714286,4,2,0,50,0,0
44278,-80,4,2,0,50,0,0
46289,-100,4,2,0,50,0,0
46753,-133.333333333333,4,2,0,50,0,0
49227,-80,4,2,0,50,0,0
51237,-100,4,2,0,50,0,0
51701,-133.333333333333,4,2,0,50,0,0
54175,-80,4,2,0,50,0,0
56340,-100,4,2,0,50,0,0
56650,-133.333333333333,4,2,0,50,0,0
57268,-200,4,2,0,50,0,0
59124,-80,4,2,0,50,0,0
61289,-100,4,2,0,50,0,0
61598,-133.333333333333,4,2,0,50,0,0
63454,-79.9999999999999,4,2,0,50,0,0
64072,-125,4,2,0,50,0,0
83557,-333.333333333333,4,2,0,50,0,0
83866,-100,4,2,0,50,0,0

[Colours]
Combo1 : 209,209,233
Combo2 : 255,217,255

[HitObjects]
5,91,980,6,0,P|72:83|122:131,1,140.25
96,210,3454,6,0,P|163:218|209:174,1,130.9
276,128,4691,6,0,P|259:99|263:64,1,70.125
341,50,5309,2,0,P|358:79|354:114,1,70.125
207,179,5928,6,0,B|264:150|320:184|295:209|357:251|416:217,1,224.4
495,292,7938,5,0,0:0:0:0:
495,292,8093,2,0,L|485:258,1,35.0625
411,219,8402,6,0,P|361:179|297:186,1,130.9
219,152,9639,6,0,P|190:171|156:174,1,70.125
132,105,10258,2,0,P|160:85|194:82,1,70.125
329,44,10876,6,0,B|297:16|296:-19|296:-19|258:-6|219:38|220:99|230:153|298:186|298:186|316:139|368:106|427:122,1,490.874985019684
402,254,13351,6,0,P|390:198|418:247,1,163.625
277,170,14588,6,0,P|268:189|253:204,1,42.0749987159729
150,144,14897,2,0,P|151:164|158:184,1,42.0749987159729
310,290,15206,6,0,P|290:297|269:298,1,42.0749987159729
73,245,15516,2,0,P|88:259|107:267,1,42.0749987159729
198,375,15825,6,0,B|147:318|190:219|249:267|294:156|222:87|222:87|160:100|149:144,1,420.749987159729
309,289,18299,6,0,P|381:351|471:324,1,196.349994007874
218,168,19536,6,0,P|245:209|238:256,1,98.1749970039369
158,277,20155,2,0,P|130:235|137:188,1,98.1749970039369
78,145,44278,6,0,P|59:201|87:148,1,175.3125,6|0,0:0|0:0,0:0:0:0:
30,308,44588,2,0,P|9:287|0:260,1,58.4375,2|0,0:0|0:0,0:0:0:0:
37,64,44742,6,0,P|97:123|180:109,1,175.3125,2|0,0:0|0:0,0:0:0:0:
265,7,45052,2,0,P|285:27|295:54,1,58.4375,2|0,0:0|0:0,0:0:0:0:
326,283,45206,6,0,P|307:226|335:279,1,175.3125,2|0,0:0|0:0,0:0:0:0:
265,137,45516,2,0,P|244:157|234:184,1,58.4375,2|0,0:0|0:0,0:0:0:0:
273,367,45670,6,0,P|333:307|416:321,1,175.3125,2|0,0:0|0:0,0:0:0:0:
396,187,45980,2,0,P|388:159|369:136,1,58.4375,2|0,0:0|0:0,0:0:0:0:
478,120,46134,2,0,P|490:93|512:75,1,58.4375,2|0,0:0|0:0,0:0:0:0:
404,51,46289,6,0,P|377:104|353:8,1,233.75,2|0,0:0|0:0,0:0:0:0:
396,187,46753,6,4,P|262:39|72:98,1,420.750016050339,4|4,3:0|3:0,3:0:0:0:
71,97,49227,6,0,P|85:178|14:139,1,175.3125,2|0,0:0|0:0,0:0:0:0:
191,14,49536,2,0,P|172:36|165:64,1,58.4375,2|0,0:0|0:0,0:0:0:0:
29,271,49691,6,0,P|90:213|176:231,1,175.3125,2|0,0:0|0:0,0:0:0:0:
245,285,50000,2,0,P|227:308|222:343,1,58.4375,2|0,0:0|0:0,0:0:0:0:
258,204,50155,6,0,P|319:262|402:246,1,175.3125,2|0,0:0|0:0,0:0:0:0:
495,131,50464,2,0,P|472:149|463:176,1,58.4375,2|0,0:0|0:0,0:0:0:0:
478,351,50619,6,0,P|421:304|487:273,1,175.3125,2|0,0:0|0:0,0:0:0:0:
377,163,50928,2,0,P|364:136|367:108,1,58.4375,2|0,0:0|0:0,0:0:0:0:
474,7,51083,2,0,P|451:25|442:52,1,58.4375,2|0,0:0|0:0,0:0:0:0:
487,273,51237,6,0,P|411:189|295:215,1,233.75,2|0,0:0|0:0,0:0:0:0:
288,77,51701,6,4,P|318:258|136:243,1,420.750016050339,4|4,3:0|3:0,3:0:0:0:
64,203,53557,5,2,0:0:0:0:
109,132,53866,5,2,0:0:0:0:
49,79,54175,6,0,P|109:136|188:108,1,175.3125,6|0,0:0|0:0,0:0:0:0:
277,59,54485,2,0,P|259:33|261:-23,1,58.4375,2|0,0:0|0:0,0:0:0:0:
470,212,54639,6,0,P|409:269|330:241,1,175.3125,2|0,0:0|0:0,0:0:0:0:
242,192,54949,2,0,P|260:166|258:110,1,58.4375,2|0,0:0|0:0,0:0:0:0:
250,277,55103,6,0,P|189:219|110:247,1,175.3125,2|0,0:0|0:0,0:0:0:0:
162,355,55412,2,0,P|161:326|173:299,1,58.4375,2|0,0:0|0:0,0:0:0:0:
330,241,55567,6,0,P|390:183|469:211,1,175.3125,2|0,0:0|0:0,0:0:0:0:
418,319,55876,2,0,P|418:290|406:263,1,58.4375,2|0,0:0|0:0,0:0:0:0:
396,48,56031,6,0,P|396:76|384:103,1,58.4375,2|0,0:0|0:0,0:0:0:0:
258,192,56186,2,0,P|237:171|210:161,1,58.4375,2|0,0:0|0:0,0:0:0:0:
270,41,56340,6,0,P|292:84|260:48,1,140.25,2|0,0:0|0:0,0:0:0:0:
334,162,56650,6,0,P|270:83|170:94,1,210.37500802517,4|0,3:0|0:0,0:0:0:0:
94,120,57268,6,0,P|114:161|109:207,1,93.5,2|4,0:0|3:0,0:0:0:0:
162,261,57887,2,0,P|141:302|146:348,1,93.5,2|0,0:0|0:0,0:0:0:0:
69,274,58505,1,2,0:0:0:0:
68,273,59124,6,0,P|131:330|215:316,1,175.3125,2|0,0:0|0:0,0:0:0:0:
298,260,59433,2,0,P|283:227|293:180,1,58.4375,2|0,0:0|0:0,0:0:0:0:
170,153,59588,6,0,P|232:96|316:110,1,175.3125,2|0,0:0|0:0,0:0:0:0:
399,166,59897,2,0,P|384:199|394:246,1,58.4375,2|0,0:0|0:0,0:0:0:0:
425,12,60052,6,0,P|459:59|419:16,1,175.3125,2|0,0:0|0:0,0:0:0:0:
301,55,60361,2,0,P|314:80|315:109,1,58.4375,2|0,0:0|0:0,0:0:0:0:
301,55,60516,2,0,P|302:83|315:109,1,58.4375,2|0,0:0|0:0,0:0:0:0:
220,181,60670,6,0,P|248:186|274:200,1,58.4375
443,116,60825,2,0,P|419:133|402:157,1,58.4375
273,304,60980,6,0,P|296:321|313:344,1,58.4375,2|0,0:0|0:0,0:0:0:0:
478,247,61134,2,0,P|464:272|459:301,1,58.4375,2|0,0:0|0:0,0:0:0:0:
407,383,61289,6,0,L|361:233,1,140.25,2|0,0:0|0:0,0:0:0:0:
387,91,61598,6,4,B|413:69|417:29|417:29|476:89|466:200|363:248|363:248|322:213|270:233,1,420.750016050339,4|4,3:0|3:0,3:0:0:0:
48,254,62835,6,0,P|9:344|104:318,1,245.437509362698,2|0,0:0|0:0,0:0:0:0:
241,294,63454,6,0,P|225:269|221:241,1,58.4375,2|0,0:0|0:0,0:0:0:0:
136,236,63608,2,0,P|141:207|159:184,1,58.4375,2|0,0:0|0:0,0:0:0:0:
280,41,63763,6,0,P|286:70|304:93,1,58.4375,2|0,0:0|0:0,0:0:0:0:
247,157,63917,2,0,P|272:173|300:177,1,58.4375,2|0,0:0|0:0,0:0:0:0:
492,255,64072,6,0,P|508:222|509:184,1,74.8,6|0,0:0|0:0,0:0:0:0:
408,284,64382,1,0,0:0:0:0:
408,284,64536,2,0,P|396:248|370:221,1,74.8,2|0,0:0|0:0,0:0:0:0:
372,365,64845,1,0,0:0:0:0:
372,365,65000,2,0,P|339:348|301:347,1,74.8,2|0,0:0|0:0,0:0:0:0:
116,229,65309,5,2,0:0:0:0:
63,293,65464,2,0,P|95:309|133:310,1,74.8,2|0,0:0|0:0,0:0:0:0:
182,173,65773,5,2,0:0:0:0:
153,95,65928,2,0,P|121:115|102:146,1,74.8,2|0,0:0|0:0,0:0:0:0:
284,272,66237,6,0,P|282:234|264:202,1,74.8,2|0,0:0|0:0,0:0:0:0:
152,94,66547,6,0,P|216:130|286:111,1,149.6,2|0,0:0|0:0,0:0:0:0:
346,173,67010,1,0,0:0:0:0:
346,173,67165,2,0,P|410:137|480:156,1,149.6,2|0,0:0|0:0,0:0:0:0:
372,16,67629,6,0,P|347:60|379:21,2,149.6
512,229,68402,2,0,P|493:259|504:316,1,74.8,2|0,0:0|0:0,0:0:0:0:
440,359,68711,1,2,0:0:0:0:
440,359,68866,1,2,0:0:0:0:
343,138,69021,6,0,P|330:172|303:198,1,74.8,2|0,0:0|0:0,0:0:0:0:
192,135,69330,1,0,0:0:0:0:
117,181,69485,2,0,P|141:208|176:222,1,74.8,2|0,0:0|0:0,0:0:0:0:
361,212,69794,1,0,0:0:0:0:
413,283,69949,2,0,P|379:298|342:298,1,74.8,2|0,0:0|0:0,0:0:0:0:
126,260,70258,1,0,0:0:0:0:
105,343,70412,2,0,P|142:345|176:330,1,74.8,2|0,0:0|0:0,0:0:0:0:
232,169,70722,5,2,0:0:0:0:
218,95,70876,2,0,L|202:-2,1,74.8,2|0,0:0|0:0,0:0:0:0:
294,76,71186,1,2,0:0:0:0:
156,145,71340,1,2,0:0:0:0:
299,231,71495,6,0,P|377:237|427:190,1,149.6,2|0,0:0|0:0,0:0:0:0:
508,23,71959,1,0,0:0:0:0:
508,23,72114,2,0,P|473:91|495:156,1,149.6,2|0,0:0|0:0,0:0:0:0:
433,355,72577,6,0,P|407:311|439:350,2,149.6
299,231,73351,6,0,P|267:250|230:252,1,74.8,2|0,0:0|0:0,0:0:0:0:
171,297,73660,1,2,0:0:0:0:
171,297,73815,1,2,0:0:0:0:
54,94,73969,6,0,L|140:110,1,74.8,2|0,0:0|0:0,0:0:0:0:
2,206,74278,1,2,0:0:0:0:
195,166,74433,6,0,L|281:150,1,74.8,2|0,0:0|0:0,0:0:0:0:
132,24,74742,1,2,0:0:0:0:
326,62,74897,6,0,L|412:78,1,74.8,2|0,0:0|0:0,0:0:0:0:
195,166,75206,1,2,0:0:0:0:
237,0,75361,2,0,P|285:53|275:125,1,149.6,2|0,0:0|0:0,0:0:0:0:
294,286,75825,2,0,P|275:253|274:216,1,74.8,2|0,0:0|0:0,0:0:0:0:
167,353,76134,2,0,P|176:317|202:290,1,74.8,2|0,0:0|0:0,0:0:0:0:
493,153,76443,6,0,P|463:174|426:180,1,74.8,2|0,0:0|0:0,0:0:0:0:
278,57,76753,1,2,0:0:0:0:
382,258,76907,6,0,P|352:236|315:230,1,74.8,2|0,0:0|0:0,0:0:0:0:
167,353,77217,1,2,0:0:0:0:
217,193,77371,6,0,P|187:214|150:220,1,74.8,2|0,0:0|0:0,0:0:0:0:
2,97,77681,1,2,0:0:0:0:
63,266,77835,6,0,P|52:193|98:137,1,149.6,2|0,0:0|0:0,0:0:0:0:
252,67,78299,2,0,P|233:99|232:136,1,74.8,2|0,0:0|0:0,0:0:0:0:
125,0,78608,2,0,P|134:35|160:62,1,74.8,2|0,0:0|0:0,0:0:0:0:
413,238,78918,6,0,L|510:213,1,74.8,2|0,0:0|0:0,0:0:0:0:
301,122,79227,1,2,0:0:0:0:
257,277,79382,2,0,L|228:374,1,74.8,2|0,0:0|0:0,0:0:0:0:
413,238,79691,1,2,0:0:0:0:
301,122,79845,2,0,L|231:44,1,74.8,2|0,0:0|0:0,0:0:0:0:
257,277,80155,5,2,0:0:0:0:
413,238,80309,2,0,L|510:213,1,74.8,2|0,0:0|0:0,0:0:0:0:
301,122,80619,1,2,0:0:0:0:
257,277,80773,1,2,0:0:0:0:
322,208,80928,5,0,0:0:0:0:
164,166,81083,1,2,0:0:0:0:
26,132,81237,1,2,0:0:0:0:
6,294,81392,5,0,0:0:0:0:
31,320,81469,1,0,0:0:0:0:
67,325,81546,1,0,0:0:0:0:
98,305,81623,1,0,0:0:0:0:
109,270,81701,1,0,0:0:0:0:
95,236,81778,1,0,0:0:0:0:
63,219,81856,5,0,0:0:0:0:
78,269,81933,1,0,0:0:0:0:
115,306,82010,1,0,0:0:0:0:
164,322,82087,1,0,0:0:0:0:
215,315,82165,1,0,0:0:0:0:
257,284,82242,1,0,0:0:0:0:
299,255,82319,1,0,0:0:0:0:
350,247,82397,1,0,0:0:0:0:
400,264,82474,1,0,0:0:0:0:
436,301,82551,1,0,0:0:0:0:
451,351,82629,6,0,P|416:257|467:343,1,299.2
438,301,83402,5,2,0:0:0:0:
208,241,83557,2,0,L|156:230,1,42.0749987159729,2|0,0:0|0:0,0:0:0:0:
