osu file format v14

[General]
AudioFilename: audio.mp3
AudioLeadIn: 0
PreviewTime: 0
Countdown: 0
SampleSet: Soft
StackLeniency: 0.7
Mode: 0
LetterboxInBreaks: 0
WidescreenStoryboard: 1

[Editor]
DistanceSpacing: 1
BeatDivisor: 4
GridSize: 8
TimelineZoom: 2.799999

[Metadata]
Title:Reason!! (TV Size)
TitleUnicode:Reason!! (TV Size)
Artist:315 STARS
ArtistUnicode:315 STARS
Creator:-Keitaro
Version:Normal!!
Source:アイドルマスター SideM
Tags:idolmaster idolm@ster side male DRAMATIC STARS Beit S.E.M High x Joker W Jupiter xenon- xehn xen anime japanese
BeatmapID:2180149
BeatmapSetID:1043001

[Difficulty]
HPDrainRate:4
CircleSize:3.5
OverallDifficulty:4
ApproachRate:5
SliderMultiplier:1.1
SliderTickRate:1

[Events]
//Background and Video events
0,0,"sexy anime idol girl beach 1920x1200.jpg",0,0
Video,0,"out.mp4"
//Break Periods
//Storyboard Layer 0 (Background)
//Storyboard Layer 1 (Fail)
//Storyboard Layer 2 (Pass)
//Storyboard Layer 3 (Foreground)
//Storyboard Layer 4 (Overlay)
//Storyboard Sound Samples

[TimingPoints]
1020,315.789473684211,4,2,3,60,1,0
1020,-100,4,2,3,60,0,0
6072,-100,4,2,3,75,0,0
6151,-100,4,2,3,75,0,0
9862,-100,4,2,3,60,0,0
12388,-100,4,2,3,75,0,0
13651,-100,4,2,3,70,0,0
23756,-100,4,2,3,60,0,0
32598,-100,4,2,3,60,0,0
33862,-100,4,2,3,70,0,0
43967,-100,4,2,3,60,0,0
47756,-100,4,2,3,65,0,0
49020,-100,4,2,3,75,0,0
55967,-100,4,2,3,70,0,0
58809,-100,4,2,3,70,0,0
59125,-100,4,2,3,80,0,1
74283,-100,4,2,3,80,0,1
78704,-100,4,2,3,75,0,1
79335,-100,4,2,3,65,0,0
82967,-100,4,2,3,65,0,0
84388,-100,4,2,3,70,0,0
85651,-100,4,2,3,75,0,0
86914,-100,4,2,3,75,0,0
89441,-100,4,2,3,5,0,0

[Colours]
Combo1 : 252,164,84
Combo2 : 207,208,174
Combo3 : 0,102,204
Combo4 : 10,185,252

[HitObjects]
72,77,72,5,2,0:0:0:0:
179,54,388,1,2,0:0:0:0:
142,157,704,1,2,0:0:0:0:
249,133,1020,6,0,P|304:135|353:181,1,110,2|0,0:0|0:0,0:0:0:0:
436,105,1651,2,0,L|448:218,1,110,2|0,0:0|0:0,0:0:0:0:
486,253,2125,2,0,P|426:237|339:285,1,165,2|2,0:0|0:0,0:0:0:0:
249,346,2914,1,2,0:0:0:0:
164,275,3230,1,2,0:0:0:0:
88,354,3546,6,0,B|53:304|53:304|75:185,1,165,2|0,0:0|0:0,0:0:0:0:
77,147,4177,2,0,P|139:172|199:149,1,110,2|0,0:0|0:0,0:0:0:0:
226,134,4651,2,0,P|284:121|389:179,1,165,2|2,0:0|0:0,0:0:0:0:
483,133,5441,1,2,0:0:0:0:
452,238,5756,1,10,0:0:0:0:
421,343,6072,6,0,L|300:316,1,110,4|0,1:2|1:0,0:0:0:0:
206,294,6704,2,0,L|145:312,1,55,0|0,1:0|1:0,0:0:0:0:
100,326,7020,1,0,1:0:0:0:
19,251,7335,2,0,P|0:190|22:141,1,110,4|0,1:2|1:0,0:0:0:0:
81,60,7967,2,0,L|144:69,1,55,0|0,1:0|1:0,0:0:0:0:
170,110,8283,2,0,L|249:96,1,55,0|0,1:0|1:0,0:0:0:0:
270,70,8598,6,0,P|300:119|293:189,1,110,12|0,0:2|1:0,0:0:0:0:
231,257,9230,2,0,L|176:252,2,55,0|0|0,1:0|1:0|3:0,0:0:0:0:
267,298,9704,1,0,3:0:0:0:
267,298,9862,2,0,P|349:297|438:177,1,220,4|0,3:2|0:0,0:0:0:0:
293,30,11125,5,2,0:0:0:0:
293,30,12230,1,0,1:0:0:0:
293,30,12388,2,0,L|181:25,1,110,8|0,0:0|3:0,0:0:0:0:
138,57,12862,2,0,P|121:100|139:175,1,110,8|0,0:0|1:0,0:0:0:0:
165,204,13335,1,8,0:0:0:0:
97,291,13651,6,0,P|145:290|203:330,1,110,4|8,1:2|0:0,0:0:0:0:
291,377,14283,1,0,1:0:0:0:
388,326,14598,1,8,0:0:0:0:
487,372,14914,2,0,P|500:317|477:259,1,110,0|8,1:0|0:0,0:0:0:0:
450,223,15388,2,0,P|435:180|461:110,1,110,0|0,1:0|1:0,0:0:0:0:
491,80,15862,1,8,0:0:0:0:
395,26,16177,6,0,L|284:33,1,110,0|8,1:0|0:0,0:0:0:0:
244,70,16651,2,0,L|133:63,1,110,0|8,1:0|0:0,0:0:0:0:
85,37,17125,1,8,0:0:0:0:
38,136,17441,2,0,L|-23:127,2,55,0|0|8,1:0|1:0|0:0,0:0:0:0:
74,177,17914,2,0,B|141:169|134:219|197:204,1,110,0|0,1:0|1:0,0:0:0:0:
229,187,18388,1,0,3:0:0:0:
317,121,18704,6,0,P|339:174|322:247,1,110,4|8,3:2|0:0,0:0:0:0:
361,331,19335,1,0,1:0:0:0:
254,302,19651,1,8,0:0:0:0:
155,352,19967,2,0,L|37:341,1,110,0|8,1:0|0:0,0:0:0:0:
5,304,20441,2,0,P|37:273|44:152,1,165,0|8,1:0|0:0,0:0:0:0:
9,55,21230,5,0,3:0:0:0:
112,16,21546,1,0,3:0:0:0:
184,98,21862,2,0,L|248:91,1,55,0|0,3:0|3:0,0:0:0:0:
293,83,22177,1,0,3:0:0:0:
378,14,22493,2,0,P|404:63|394:137,1,110,0|4,3:0|0:3,0:0:0:0:
370,161,22967,2,0,B|364:218|364:218|379:256|379:256|370:329,1,165,4|8,0:0|0:0,0:0:0:0:
262,342,23756,6,0,P|185:359|144:331,1,110,2|2,3:2|3:2,0:0:0:0:
50,354,24388,1,2,3:2:0:0:
98,255,24704,1,2,3:2:0:0:
40,161,25020,2,0,P|107:140|161:164,1,110,0|2,3:0|3:2,0:0:0:0:
224,225,25651,1,2,3:2:0:0:
304,150,25967,1,2,3:2:0:0:
404,194,26283,6,0,P|443:170|472:99,1,110,2|0,3:2|3:2,0:0:0:0:
387,43,26914,1,2,3:2:0:0:
276,46,27230,1,2,3:2:0:0:
174,4,27546,2,0,P|159:46|182:113,1,110,2|2,3:2|3:2,0:0:0:0:
204,155,28020,2,0,P|143:130|43:159,1,165,2|0,0:2|3:0,0:0:0:0:
14,257,28809,6,0,L|31:380,1,110,2|2,3:2|3:2,0:0:0:0:
138,351,29441,1,0,3:0:0:0:
245,330,29756,1,0,3:0:0:0:
342,380,30072,2,0,P|361:324|348:272,1,110,2|2,3:2|3:2,0:0:0:0:
315,232,30546,2,0,P|303:175|356:83,1,165,2|2,0:2|3:2,0:0:0:0:
452,44,31335,5,0,3:0:0:0:
472,152,31651,1,0,3:0:0:0:
492,260,31967,2,0,L|433:249,1,55,0|0,1:0|1:0,0:0:0:0:
383,241,32283,1,0,3:0:0:0:
275,218,32598,1,4,3:2:0:0:
70,33,33388,2,0,L|61:105,1,55,0|8,1:0|0:0,0:0:0:0:
21,189,33862,6,0,P|65:227|89:282,1,110,4|8,1:2|0:0,0:0:0:0:
188,315,34493,2,0,P|184:343|179:380,2,55,0|0|8,1:0|1:0|0:0,0:0:0:0:
217,268,34967,2,0,P|257:261|336:300,1,110,0|0,1:0|1:0,0:0:0:0:
351,330,35441,1,8,0:0:0:0:
453,290,35756,1,0,1:0:0:0:
477,182,36072,1,8,0:0:0:0:
415,87,36388,6,0,P|347:90|304:118,1,110,0|8,1:0|0:0,0:0:0:0:
230,184,37020,2,0,P|172:195|153:190,1,55,0|0,1:0|1:0,0:0:0:0:
139,164,37335,1,8,0:0:0:0:
38,211,37651,2,0,B|22:158|22:158|43:108,1,110,4|8,1:2|0:0,0:0:0:0:
76,63,38125,2,0,P|119:57|192:57,1,110,4|0,1:2|1:0,0:0:0:0:
230,87,38598,1,8,0:0:0:0:
315,156,38914,6,0,L|446:151,1,110,4|8,1:2|0:0,0:0:0:0:
473,178,39388,2,0,P|472:232|440:275,1,110,0|0,1:0|1:0,0:0:0:0:
386,287,39862,1,8,0:0:0:0:
291,230,40177,2,0,P|240:209|186:218,1,110,0|8,1:0|0:0,0:0:0:0:
151,260,40651,2,0,P|97:268|44:254,1,110,0|0,1:0|1:0,0:0:0:0:
17,206,41125,1,8,0:0:0:0:
101,135,41441,6,0,L|82:26,1,110,8|8,0:0|0:0,0:0:0:0:
188,56,42072,2,0,L|196:-11,2,55,8|0|0,0:0|1:0|1:0,0:0:0:0:
185,111,42546,1,0,1:0:0:0:
179,220,42862,2,0,L|122:218,2,55,8|8|8,0:0|0:0|0:0,0:0:0:0:
218,258,43335,2,0,P|299:275|337:251,1,110,8|0,0:0|1:0,0:0:0:0:
426,296,43967,6,0,L|414:168,1,110,4|0,1:2|0:0,0:0:0:0:
456,84,44598,1,8,0:0:0:0:
351,109,44914,1,0,0:0:0:0:
351,109,45072,2,0,P|300:126|216:58,1,165,0|0,1:0|1:0,0:0:0:0:
108,77,45862,1,8,0:0:0:0:
121,185,46177,1,4,0:3:0:0:
15,215,46493,6,0,P|52:279|152:286,1,165,0|0,1:0|1:0,0:0:0:0:
184,264,47125,2,0,L|301:274,1,110,8|0,0:0|1:0,0:0:0:0:
403,281,47756,2,0,L|394:347,2,55,12|0|0,0:2|1:0|1:0,0:0:0:0:
449,251,48230,2,0,P|458:201|423:136,1,110,12|0,0:2|1:0,0:0:0:0:
391,110,48704,1,8,0:0:0:0:
312,32,49020,6,0,P|233:53|181:44,1,110,12|8,0:2|0:0,0:0:0:0:
100,18,49651,2,0,P|106:52|108:82,1,55,8|0,0:0|1:0,0:0:0:0:
100,127,49967,1,8,0:0:0:0:
44,222,50283,2,0,P|90:234|147:287,1,110,12|8,0:0|0:0,0:0:0:0:
204,185,50914,2,0,P|239:175|268:174,1,55,8|0,0:0|1:0,0:0:0:0:
309,191,51230,1,8,0:0:0:0:
378,276,51546,6,0,L|503:265,1,110,12|8,0:0|0:0,0:0:0:0:
487,156,52177,2,0,P|447:159|414:166,1,55,8|0,0:0|1:0,0:0:0:0:
387,129,52493,2,0,P|350:134|330:134,1,55,8|0,0:0|1:0,0:0:0:0:
280,113,52809,1,12,0:0:0:0:
244,217,53125,1,8,0:0:0:0:
134,202,53441,1,8,0:0:0:0:
77,296,53756,1,8,0:0:0:0:
147,380,54072,6,0,B|202:376|202:376|217:365|217:365|274:360,1,110,12|0,0:2|1:0,0:0:0:0:
306,348,54546,2,0,P|319:303|295:238,1,110,12|0,0:2|1:0,0:0:0:0:
261,205,55020,1,12,0:2:0:0:
171,267,55335,1,0,1:0:0:0:
171,267,55493,2,0,P|154:207|169:154,1,110,12|0,0:2|1:0,0:0:0:0:
203,121,55967,1,12,0:2:0:0:
162,18,56283,1,12,0:2:0:0:
273,26,56598,6,0,L|382:42,1,110,0|0,1:0|1:0,0:0:0:0:
435,56,57072,1,0,1:0:0:0:
435,56,57230,2,0,L|421:116,1,55,8|8,0:0|0:0,0:0:0:0:
375,139,57546,2,0,L|385:196,1,55,8|8,0:0|0:0,0:0:0:0:
473,258,58020,2,0,L|460:325,1,55,8|8,0:0|0:0,0:0:0:0:
256,235,58809,1,0,3:0:0:0:
165,298,59125,6,0,P|117:314|52:287,1,110,4|8,1:2|0:0,0:0:0:0:
54,186,59756,2,0,L|-16:189,2,55,0|0|8,1:0|1:0|0:0,0:0:0:0:
100,155,60230,2,0,P|120:106|92:49,1,110,0|0,1:0|1:0,0:0:0:0:
69,8,60704,1,8,0:0:0:0:
178,0,61020,1,0,1:0:0:0:
272,55,61335,1,8,0:0:0:0:
386,44,61651,6,0,P|409:100|403:154,1,110,4|8,1:2|0:0,0:0:0:0:
381,198,62125,1,0,0:0:0:0:
441,289,62441,2,0,L|379:298,1,55,0|8,1:0|0:0,0:0:0:0:
344,331,62756,2,0,P|284:320|226:323,1,110,4|0,1:2|1:0,0:0:0:0:
183,341,63230,1,8,0:0:0:0:
79,302,63546,2,0,P|65:254|79:188,1,110,8|8,0:0|0:0,0:0:0:0:
82,140,64020,6,0,P|121:179|232:169,1,165,4|8,1:2|0:0,0:0:0:0:
315,112,64809,2,0,L|326:170,1,55,0|0,1:0|1:0,0:0:0:0:
365,204,65125,1,8,0:0:0:0:
365,204,65283,2,0,P|371:253|335:316,1,110,4|0,0:0|0:0,0:0:0:0:
300,338,65756,2,0,L|237:335,1,55,8|0,0:0|0:0,0:0:0:0:
190,323,66072,1,8,0:0:0:0:
106,251,66388,1,8,0:0:0:0:
76,145,66704,6,0,L|85:24,1,110,12|0,0:0|1:0,0:0:0:0:
128,2,67177,2,0,P|168:12|219:71,1,110,8|8,0:0|0:0,0:0:0:0:
244,166,67809,2,0,P|317:173|386:97,1,165,8|0,0:0|3:0,0:0:0:0:
452,30,68598,1,0,1:0:0:0:
492,132,68914,1,8,0:0:0:0:
479,241,69230,6,0,P|434:259|395:313,1,110,4|8,1:2|0:0,0:0:0:0:
287,296,69862,2,0,L|279:222,2,55,0|0|8,1:0|1:0|0:0,0:0:0:0:
246,333,70335,2,0,P|196:347|122:324,1,110,0|0,1:0|1:0,0:0:0:0:
109,288,70809,1,8,0:0:0:0:
200,226,71125,1,0,1:0:0:0:
107,166,71441,1,8,0:0:0:0:
197,104,71756,6,0,P|263:113|307:158,1,110,0|0,1:0|1:0,0:0:0:0:
389,81,72388,2,0,L|384:17,2,55,8|8|8,0:0|0:0|0:0,0:0:0:0:
435,110,72862,2,0,P|460:160|454:230,1,110,4|0,0:0|1:0,0:0:0:0:
425,256,73335,1,8,0:0:0:0:
330,199,73651,2,0,L|324:128,2,55,0|0|8,1:0|1:0|0:0,0:0:0:0:
255,280,74283,6,0,P|201:271|149:289,1,110,12|8,0:0|0:0,0:0:0:0:
52,341,74914,2,0,L|40:280,1,55,8|0,0:0|1:0,0:0:0:0:
1,248,75230,2,0,L|12:188,1,55,8|0,0:0|1:0,0:0:0:0:
19,139,75546,2,0,P|79:156|134:131,1,110,8|8,0:0|0:0,0:0:0:0:
179,46,76177,1,8,0:0:0:0:
238,138,76493,1,8,0:0:0:0:
319,63,76809,6,0,L|432:50,1,110,8|8,0:0|0:0,0:0:0:0:
446,159,77441,2,0,L|380:167,1,55,8|0,0:0|1:0,0:0:0:0:
340,175,77756,1,8,0:0:0:0:
340,175,77914,2,0,P|363:228|340:288,1,110,4|0,1:0|1:0,0:0:0:0:
301,304,78388,1,8,0:0:0:0:
214,235,78704,1,8,0:0:0:0:
143,319,79020,1,0,1:0:0:0:
34,304,79335,6,0,P|-1:226|35:138,1,165,4|0,1:2|1:0,0:0:0:0:
61,115,79967,2,0,L|189:109,1,110,8|0,0:0|0:0,0:0:0:0:
242,26,80598,2,0,P|276:82|256:184,1,165,8|0,0:0|1:0,0:0:0:0:
226,219,81230,2,0,L|236:281,1,55,8|8,0:0|0:0,0:0:0:0:
317,346,81704,6,0,P|375:356|430:313,1,110,12|0,0:2|3:0,0:0:0:0:
453,290,82177,1,0,3:0:0:0:
424,183,82493,2,0,L|498:180,2,55,0|0|0,3:0|3:0|3:0,0:0:0:0:
371,202,82967,2,0,P|317:199|261:152,1,110,4|8,3:2|0:0,0:0:0:0:
245,119,83441,1,8,0:0:0:0:
142,78,83756,1,8,0:0:0:0:
59,150,84072,1,8,0:0:0:0:
125,237,84388,6,0,L|113:364,1,110,12|8,0:2|0:0,0:0:0:0:
224,358,85020,2,0,L|230:294,1,55,12|0,0:0|1:0,0:0:0:0:
236,248,85335,2,0,L|242:184,1,55,8|0,0:0|1:0,0:0:0:0:
254,139,85651,2,0,P|314:126|381:149,1,110,4|4,3:2|1:2,0:0:0:0:
454,195,86283,2,0,L|446:261,2,55,12|8|12,0:2|0:0|0:0,0:0:0:0:
463,85,86914,1,12,0:0:0:0:
256,192,86993,12,0,89441,0:0:0:0:
