osu file format v14

[General]
AudioFilename: audio.mp3
AudioLeadIn: 0
PreviewTime: 0
Countdown: 0
SampleSet: Soft
StackLeniency: 0.7
Mode: 0
LetterboxInBreaks: 0
WidescreenStoryboard: 0

[Editor]
DistanceSpacing: 1.3
BeatDivisor: 4
GridSize: 8
TimelineZoom: 2.799999

[Metadata]
Title:Reason!! (TV Size)
TitleUnicode:Reason!! (TV Size)
Artist:315 STARS
ArtistUnicode:315 STARS
Creator:-Keitaro
Version:M@ster!!
Source:アイドルマスター SideM
Tags:idolmaster idolm@ster side male DRAMATIC STARS Beit S.E.M High x Joker W Jupiter xenon- xehn xen anime japanese
BeatmapID:2179997
BeatmapSetID:1043001

[Difficulty]
HPDrainRate:5
CircleSize:4.2
OverallDifficulty:9
ApproachRate:9.4
SliderMultiplier:1.8
SliderTickRate:1

[Events]
//Background and Video events
0,0,"sexy anime idol girl beach 1920x1200.jpg",0,0
Video,0,"out.mp4"
//Break Periods
//Storyboard Layer 0 (Background)
//Storyboard Layer 1 (Fail)
//Storyboard Layer 2 (Pass)
//Storyboard Layer 3 (Foreground)
//Storyboard Layer 4 (Overlay)
//Storyboard Sound Samples

[TimingPoints]
1020,315.789473684211,4,2,3,60,1,0
1020,-125,4,2,3,60,0,0
6072,-100,4,2,3,75,0,0
6151,-100,4,2,3,75,0,0
9862,-200,4,2,3,60,0,0
12388,-133.333333333333,4,2,3,75,0,0
13651,-100,4,2,3,70,0,0
23756,-133.333333333333,4,2,3,60,0,0
32598,-200,4,2,3,60,0,0
33862,-111.111111111111,4,2,3,70,0,0
43967,-133.333333333333,4,2,3,60,0,0
47756,-111.111111111111,4,2,3,65,0,0
49020,-100,4,2,3,75,0,0
55967,-90.9090909090908,4,2,3,70,0,0
58809,-50,4,2,3,70,0,0
59125,-100,4,2,3,80,0,1
74283,-83.3333333333333,4,2,3,80,0,1
78704,-100,4,2,3,75,0,1
79335,-125,4,2,3,65,0,0
82967,-100,4,2,3,65,0,0
84388,-100,4,2,3,70,0,0
85651,-83.3333333333333,4,2,3,75,0,0
86914,-128.205128205128,4,2,3,75,0,0
86993,-100,4,2,3,5,0,0

[Colours]
Combo1 : 252,164,84
Combo2 : 207,208,174
Combo3 : 0,102,204
Combo4 : 10,185,252

[HitObjects]
53,37,72,5,2,0:0:0:0:
48,50,388,1,2,0:0:0:0:
45,60,704,1,2,0:0:0:0:
89,127,1020,6,0,P|163:129|201:77,1,144,2|0,0:0|0:0,0:0:0:0:
323,3,1651,2,0,P|298:27|313:137,1,144,2|0,0:0|0:0,0:0:0:0:
367,169,2125,2,0,L|525:159,1,144,2|0,0:0|0:0,0:0:0:0:
491,241,2598,1,2,0:0:0:0:
409,88,2914,1,2,0:0:0:0:
367,169,3230,1,2,0:0:0:0:
216,71,3546,6,0,P|149:69|102:129,1,144,2|0,0:0|0:0,0:0:0:0:
29,119,4020,1,0,0:0:0:0:
29,119,4177,2,0,P|55:155|56:258,1,144,2|0,0:0|0:0,0:0:0:0:
2,305,4651,2,0,B|125:274|76:364|218:323,1,216,2|2,0:0|0:0,0:0:0:0:
208,325,5441,2,0,L|196:254,1,72,2|0,0:0|1:0,0:0:0:0:
150,193,5756,2,0,L|162:122,1,72,10|0,0:0|0:0,0:0:0:0:
398,10,6072,1,4,1:2:0:0:
402,14,6388,5,0,1:0:0:0:
329,52,6546,1,0,1:0:0:0:
397,104,6704,1,0,1:0:0:0:
275,117,6862,1,0,1:0:0:0:
429,186,7020,1,0,1:0:0:0:
321,33,7177,1,0,1:0:0:0:
360,254,7335,5,4,1:2:0:0:
360,254,7651,1,0,1:0:0:0:
437,181,7809,1,0,1:0:0:0:
283,220,7967,1,0,1:0:0:0:
413,90,8125,1,0,1:0:0:0:
360,288,8283,1,0,1:0:0:0:
262,99,8441,1,0,1:0:0:0:
208,335,8598,5,12,0:2:0:0:
267,49,8756,1,0,1:0:0:0:
378,299,8914,1,0,1:0:0:0:
109,170,9072,1,12,0:2:0:0:
384,294,9231,5,0,1:0:0:0:
402,264,9309,1,0,1:0:0:0:
408,230,9388,1,0,1:0:0:0:
402,196,9467,1,0,1:0:0:0:
383,167,9546,1,0,3:0:0:0:
364,130,9624,1,0,3:0:0:0:
369,88,9703,1,0,3:0:0:0:
396,56,9782,1,0,3:0:0:0:
435,44,9862,6,0,P|461:111|310:143,1,270,4|0,3:2|0:0,0:0:0:0:
282,78,11125,1,2,0:0:0:0:
282,78,12230,1,0,1:0:0:0:
218,168,12388,5,8,0:0:0:0:
200,173,12466,1,0,3:0:0:0:
184,176,12545,1,0,3:0:0:0:
167,175,12624,1,0,3:0:0:0:
149,169,12704,2,0,L|156:122,1,33.7500012874604,0|0,3:0|3:0,0:0:0:0:
59,68,12862,5,8,0:0:0:0:
59,68,12941,1,0,3:0:0:0:
59,68,13020,2,0,L|61:113,1,33.7500012874604,0|0,3:0|3:0,0:0:0:0:
65,246,13177,1,0,1:0:0:0:
149,68,13335,2,0,L|154:141,1,67.5000025749208,8|0,0:0|0:0,0:0:0:0:
174,285,13651,6,0,P|230:299|320:220,1,180,4|8,1:2|0:0,0:0:0:0:
371,25,14125,1,0,1:0:0:0:
371,25,14204,1,0,1:0:0:0:
371,25,14283,1,0,1:0:0:0:
253,114,14441,1,0,0:0:0:0:
424,154,14598,2,0,L|539:176,1,90,8|0,0:0|0:0,0:0:0:0:
237,110,14914,6,0,B|230:183|230:183|245:212|245:212|238:316,1,180,0|8,1:0|0:0,0:0:0:0:
14,326,15388,2,0,P|42:255|164:263,1,180,0|0,1:0|1:0,0:0:0:0:
300,379,15862,1,8,0:0:0:0:
103,322,16020,1,0,0:0:0:0:
209,122,16177,6,0,B|252:173|252:173|237:322,1,180,0|8,1:0|0:0,0:0:0:0:
404,114,16651,2,0,P|354:99|310:114,1,90,0|0,1:0|0:0,0:0:0:0:
145,225,16967,1,8,0:0:0:0:
145,225,17046,1,8,0:0:0:0:
145,225,17125,1,8,0:0:0:0:
367,269,17283,1,0,1:0:0:0:
362,238,17362,1,0,1:0:0:0:
355,208,17441,5,0,1:0:0:0:
220,384,17598,1,0,1:0:0:0:
98,137,17756,1,8,0:0:0:0:
294,326,17914,2,0,B|366:319|366:319|399:346|399:346|490:339,1,180,0|0,1:0|1:0,0:0:0:0:
496,311,18309,1,0,1:0:0:0:
507,267,18387,1,0,3:0:0:0:
496,224,18466,1,0,3:0:0:0:
465,192,18545,1,0,3:0:0:0:
422,179,18624,1,0,3:0:0:0:
379,188,18704,6,0,P|335:137|381:25,1,180,4|8,3:2|0:0,0:0:0:0:
450,68,19177,1,0,0:0:0:0:
263,177,19335,1,0,1:0:0:0:
263,177,19493,1,0,1:0:0:0:
185,25,19651,2,0,P|170:77|185:124,1,90,8|0,0:0|0:0,0:0:0:0:
252,267,19967,6,0,B|201:228|201:228|134:225|62:278,1,180,0|8,1:0|0:0,0:0:0:0:
317,364,20441,2,0,P|368:296|334:200,1,180,0|0,1:0|1:0,0:0:0:0:
250,78,20914,1,8,0:0:0:0:
252,267,21072,1,0,0:0:0:0:
417,17,21230,5,0,3:0:0:0:
250,78,21388,1,0,3:0:0:0:
412,189,21546,1,0,3:0:0:0:
330,13,21704,1,0,3:0:0:0:
288,193,21862,5,0,3:0:0:0:
461,90,22020,1,0,3:0:0:0:
231,73,22177,1,0,3:0:0:0:
420,202,22335,1,0,3:0:0:0:
352,0,22493,5,0,3:0:0:0:
270,230,22651,1,4,0:3:0:0:
512,184,22809,1,4,0:3:0:0:
197,170,22967,6,0,P|174:222|246:325,1,180,4|8,0:0|0:0,0:0:0:0:
231,320,23362,1,8,0:0:0:0:
231,320,23441,1,8,0:0:0:0:
270,230,23598,1,0,1:0:0:0:
129,122,23756,6,0,B|68:125|68:125|51:147|51:147|-14:148,1,135.000005149842,2|2,3:2|3:2,0:0:0:0:
36,230,24230,1,0,0:0:0:0:
36,230,24388,2,0,P|60:257|69:294,1,67.5000025749208,2|0,3:2|0:0,0:0:0:0:
24,352,24704,1,2,3:2:0:0:
24,352,24862,2,0,P|83:323|175:332,1,135.000005149842,2|0,0:2|0:0,0:0:0:0:
237,311,25335,2,0,L|226:385,1,67.5000025749208,2|0,3:2|0:0,0:0:0:0:
322,301,25651,2,0,L|311:375,1,67.5000025749208,2|0,3:2|0:0,0:0:0:0:
406,290,25967,2,0,L|395:364,1,67.5000025749208,2|0,3:2|0:0,0:0:0:0:
491,273,26283,6,0,B|494:216|494:216|481:189|481:189|487:121,1,135.000005149842,2|0,3:2|3:2,0:0:0:0:
439,65,26756,1,0,0:0:0:0:
439,65,26914,2,0,P|398:91|361:98,1,67.5000025749208,2|0,3:2|0:0,0:0:0:0:
318,155,27230,2,0,P|279:143|246:124,1,67.5000025749208,2|0,3:2|0:0,0:0:0:0:
224,32,27546,2,0,B|156:48|179:100|91:94,1,135.000005149842,2|2,3:2|3:2,0:0:0:0:
36,56,28020,2,0,P|77:102|82:181,1,135.000005149842,2|0,0:2|0:0,0:0:0:0:
68,200,28414,1,0,0:0:0:0:
68,200,28493,2,0,P|53:240|52:285,1,67.5000025749208,0|0,3:0|0:0,0:0:0:0:
113,349,28809,6,0,B|194:370|170:312|257:326,1,135.000005149842,2|2,3:2|3:2,0:0:0:0:
310,366,29283,1,2,0:2:0:0:
310,366,29441,2,0,P|354:362|376:342,1,67.5000025749208,0|0,3:0|0:0,0:0:0:0:
444,324,29756,2,0,P|450:293|436:257,1,67.5000025749208,0|0,3:0|0:0,0:0:0:0:
459,175,30072,2,0,P|418:221|338:225,1,135.000005149842,2|2,3:2|3:2,0:0:0:0:
282,180,30546,2,0,L|297:34,1,135.000005149842,2|0,0:2|0:0,0:0:0:0:
156,8,31020,2,0,L|162:85,1,67.5000025749208,2|0,3:2|0:0,0:0:0:0:
174,241,31335,5,0,3:0:0:0:
282,180,31493,1,0,3:0:0:0:
90,156,31651,1,0,3:0:0:0:
269,280,31809,1,0,3:0:0:0:
74,381,31967,1,0,1:0:0:0:
57,351,32045,1,0,1:0:0:0:
50,318,32124,1,0,1:0:0:0:
54,285,32203,1,0,1:0:0:0:
69,255,32282,1,0,1:0:0:0:
174,241,32441,1,0,3:0:0:0:
6,152,32598,6,0,P|54:142|104:169,1,90,4|0,3:2|0:0,0:0:0:0:
149,100,33072,1,0,0:0:0:0:
149,100,33388,5,0,1:0:0:0:
138,318,33546,1,8,0:0:0:0:
138,318,33862,6,0,P|224:305|316:329,1,161.999995056153,4|8,1:2|0:0,0:0:0:0:
380,368,34335,1,0,0:0:0:0:
471,276,34493,2,0,P|478:233|471:193,1,80.9999975280763,0|0,1:0|1:0,0:0:0:0:
489,85,34809,1,8,0:0:0:0:
489,85,34967,6,0,P|437:121|328:120,1,161.999995056153,0|0,1:0|1:0,0:0:0:0:
213,19,35441,2,0,P|221:65|225:129,1,80.9999975280763,8|0,0:0|0:0,0:0:0:0:
86,186,35756,2,0,P|89:145|97:105,1,80.9999975280763,0|0,1:0|1:0,0:0:0:0:
229,11,36072,2,0,P|237:57|241:121,1,80.9999975280763,8|0,0:0|0:0,0:0:0:0:
160,233,36388,6,0,B|257:209|228:284|336:251,1,161.999995056153,0|8,1:0|0:0,0:0:0:0:
428,192,36862,1,0,0:0:0:0:
368,335,37020,1,0,1:0:0:0:
294,175,37177,1,0,1:0:0:0:
291,154,37255,1,0,1:0:0:0:
289,134,37334,1,8,0:0:0:0:
428,192,37493,1,0,1:0:0:0:
325,263,37651,6,0,P|268:264|210:164,1,161.999995056153,4|8,1:2|0:0,0:0:0:0:
280,43,38125,2,0,P|201:69|110:52,1,161.999995056153,4|0,1:2|1:0,0:0:0:0:
22,203,38598,1,8,0:0:0:0:
22,203,38914,6,0,P|96:223|177:288,1,161.999995056153,4|8,1:2|0:0,0:0:0:0:
210,340,39388,2,0,P|194:277|206:170,1,161.999995056153,0|0,1:0|1:0,0:0:0:0:
244,89,39862,1,8,0:0:0:0:
244,89,40177,6,0,L|338:104,1,80.9999975280763,0|0,1:0|1:0,0:0:0:0:
512,129,40493,1,8,0:0:0:0:
446,59,40651,2,0,P|420:110|483:215,1,161.999995056153,0|0,1:0|1:0,0:0:0:0:
367,336,41125,1,8,0:0:0:0:
499,301,41283,1,0,1:0:0:0:
305,176,41441,5,8,0:0:0:0:
283,382,41598,1,0,1:0:0:0:
217,218,41756,1,8,0:0:0:0:
367,336,41914,1,0,1:0:0:0:
164,384,42072,1,8,0:0:0:0:
217,218,42230,1,0,1:0:0:0:
213,198,42308,1,0,1:0:0:0:
209,178,42387,1,0,1:0:0:0:
42,260,42546,5,0,1:0:0:0:
42,260,42862,1,8,0:0:0:0:
266,316,43020,1,8,0:0:0:0:
26,170,43177,1,8,0:0:0:0:
287,97,43335,1,8,0:0:0:0:
121,1,43493,1,0,1:0:0:0:
119,21,43571,1,0,1:0:0:0:
118,41,43650,1,0,1:0:0:0:
112,199,43809,1,4,0:3:0:0:
287,97,43967,6,0,P|339:117|350:256,1,202.500007724762,4|0,1:2|1:0,0:0:0:0:
296,302,44598,2,0,B|345:289|345:289|437:328,1,135.000005149842,8|0,0:0|0:0,0:0:0:0:
507,350,45072,2,0,L|495:194,1,135.000005149842,0|0,1:0|1:0,0:0:0:0:
485,134,45546,2,0,L|407:142,1,67.5000025749208,0|0,1:0|1:0,0:0:0:0:
302,48,45862,1,8,0:0:0:0:
387,55,46020,1,4,0:3:0:0:
417,140,46177,2,0,L|406:219,1,67.5000025749208,4|0,0:3|0:0,0:0:0:0:
390,343,46493,6,0,B|311:370|322:305|234:329,1,135.000005149842,0|0,1:0|0:0,0:0:0:0:
185,361,46967,1,0,1:0:0:0:
185,361,47125,2,0,P|160:293|178:204,1,135.000005149842,8|0,0:0|1:0,0:0:0:0:
166,231,47756,5,12,0:2:0:0:
12,262,47914,1,0,1:0:0:0:
244,152,48072,1,0,1:0:0:0:
75,8,48230,2,0,B|72:74|72:74|89:96|89:96|87:181,1,161.999995056153,12|0,0:2|1:0,0:0:0:0:
86,373,48704,1,8,0:0:0:0:
244,152,48862,1,0,1:0:0:0:
12,262,49020,6,0,L|138:273,1,90,12|0,0:2|0:0,0:0:0:0:
202,64,49335,5,8,0:0:0:0:
180,278,49493,1,0,1:0:0:0:
279,27,49651,5,8,0:0:0:0:
310,253,49809,1,0,1:0:0:0:
416,25,49967,5,8,0:0:0:0:
393,296,50125,1,0,1:0:0:0:
278,13,50283,6,0,L|274:118,1,90,12|0,0:0|0:0,0:0:0:0:
270,361,50598,5,8,0:0:0:0:
482,245,50756,1,0,1:0:0:0:
174,196,50914,5,8,0:0:0:0:
393,296,51072,1,0,1:0:0:0:
111,327,51230,5,8,0:0:0:0:
310,253,51388,1,0,1:0:0:0:
93,137,51546,6,0,P|76:177|101:256,1,90,12|0,0:0|0:0,0:0:0:0:
203,370,51862,1,8,0:0:0:0:
174,196,52020,1,0,1:0:0:0:
0,384,52177,2,0,L|117:372,1,90,8|0,0:0|0:0,0:0:0:0:
263,207,52493,2,0,L|161:194,1,90,8|0,0:0|0:0,0:0:0:0:
441,361,52809,6,0,L|426:250,1,90,12|0,0:0|0:0,0:0:0:0:
253,117,53125,2,0,L|265:227,1,90,8|0,0:0|0:0,0:0:0:0:
282,384,53441,1,8,0:0:0:0:
309,39,53598,1,0,1:0:0:0:
272,22,53676,1,0,1:0:0:0:
232,23,53756,1,8,0:0:0:0:
196,42,53834,1,0,1:0:0:0:
173,74,53913,1,0,1:0:0:0:
275,287,54072,5,12,0:2:0:0:
403,185,54230,1,0,1:0:0:0:
253,117,54388,1,0,1:0:0:0:
387,343,54546,5,12,0:2:0:0:
394,50,54704,1,0,1:0:0:0:
132,205,54862,1,0,1:0:0:0:
426,188,55020,5,12,0:2:0:0:
233,314,55177,1,0,1:0:0:0:
503,358,55335,1,0,1:0:0:0:
240,100,55493,5,12,0:2:0:0:
221,346,55651,1,0,1:0:0:0:
453,262,55809,1,0,1:0:0:0:
221,77,55967,6,0,L|120:89,1,99.0000030212403,12|0,0:2|1:0,0:0:0:0:
319,333,56283,2,0,L|420:345,1,99.0000030212403,12|0,0:2|1:0,0:0:0:0:
307,21,56598,6,0,L|299:81,3,49.5000015106202,2|2|2|2,0:0|0:0|0:0|0:0,0:0:0:0:
221,77,56914,2,0,L|231:143,1,49.5000015106202,2|2,0:0|0:0,0:0:0:0:
349,229,57072,2,0,L|353:155,1,49.5000015106202,2|2,0:0|0:0,0:0:0:0:
392,40,57230,5,8,0:0:0:0:
158,16,57388,1,8,0:0:0:0:
434,195,57546,1,8,0:0:0:0:
120,302,57704,1,8,0:0:0:0:
120,302,58020,5,8,0:0:0:0:
422,0,58177,1,8,0:0:0:0:
429,6,58651,5,0,3:0:0:0:
429,6,58730,1,0,3:0:0:0:
429,6,58809,2,0,P|494:28|387:80,1,270,0|0,3:0|0:0,0:0:0:0:
287,36,59125,6,0,P|320:123|318:153,1,90,4|0,1:2|0:0,0:0:0:0:
94,311,59441,2,0,P|100:247|127:188,1,90,8|0,0:0|0:0,0:0:0:0:
379,305,59756,1,0,1:0:0:0:
379,305,59914,2,0,P|300:315|249:301,1,90,0|8,1:0|0:0,0:0:0:0:
137,108,60230,6,0,B|183:122|183:122|196:210|196:210|242:225,1,180,0|0,1:0|0:0,0:0:0:0:
303,108,60704,2,0,P|272:59|269:8,1,90,8|0,0:0|0:0,0:0:0:0:
118,193,61020,2,0,P|110:237|86:274,1,90,0|0,1:0|0:0,0:0:0:0:
3,34,61335,2,0,L|102:48,1,90,8|0,0:0|0:0,0:0:0:0:
277,181,61651,6,0,P|350:176|371:76,1,180,4|8,1:2|0:0,0:0:0:0:
201,197,62125,1,0,0:0:0:0:
82,41,62283,1,0,1:0:0:0:
303,108,62441,1,0,1:0:0:0:
138,284,62598,1,8,0:0:0:0:
187,21,62756,6,0,L|201:215,1,180,4|0,1:2|1:0,0:0:0:0:
221,367,63230,1,8,0:0:0:0:
303,108,63388,1,0,1:0:0:0:
392,295,63546,2,0,L|276:274,1,90,8|0,0:0|1:0,0:0:0:0:
276,270,63783,1,0,1:0:0:0:
276,270,63862,1,8,0:0:0:0:
364,29,64020,6,0,P|405:97|360:191,1,180,4|0,1:2|0:0,0:0:0:0:
216,112,64493,2,0,L|329:106,1,90,8|0,0:0|0:0,0:0:0:0:
75,38,64809,1,0,1:0:0:0:
151,170,64967,2,0,P|168:228|163:290,1,90,0|8,1:0|0:0,0:0:0:0:
6,302,65283,6,0,P|56:262|205:277,1,180,4|0,0:0|0:0,0:0:0:0:
256,368,65756,1,8,0:0:0:0:
34,163,65914,1,0,1:0:0:0:
34,163,65993,1,0,1:0:0:0:
34,163,66072,1,8,0:0:0:0:
289,189,66230,1,0,0:0:0:0:
65,329,66388,2,0,P|49:272|65:223,1,90,8|0,0:0|0:0,0:0:0:0:
182,134,66704,5,12,0:0:0:0:
60,31,66862,1,0,1:0:0:0:
147,224,67020,1,0,1:0:0:0:
250,0,67177,2,0,L|260:110,1,90,8|0,0:0|1:0,0:0:0:0:
264,120,67414,1,0,1:0:0:0:
264,120,67493,1,8,0:0:0:0:
483,129,67651,1,0,1:0:0:0:
483,129,67730,1,0,1:0:0:0:
483,129,67809,6,0,B|480:64|480:64|417:7|333:35,1,180,8|0,0:0|1:0,0:0:0:0:
264,120,68283,1,0,3:0:0:0:
237,155,68361,1,0,3:0:0:0:
231,200,68440,1,0,3:0:0:0:
247,241,68519,1,0,3:0:0:0:
259,268,68598,1,0,1:0:0:0:
253,302,68677,1,0,1:0:0:0:
230,328,68756,1,0,1:0:0:0:
196,336,68835,1,0,1:0:0:0:
163,325,68914,2,0,L|149:273,1,45,8|8,0:0|0:0,0:0:0:0:
68,338,69072,2,0,L|57:396,1,45,8|8,0:0|0:0,0:0:0:0:
0,163,69230,6,0,P|54:160|103:201,1,90,4|0,1:2|0:0,0:0:0:0:
343,281,69546,2,0,P|289:284|240:243,1,90,8|0,0:0|0:0,0:0:0:0:
110,84,69862,1,0,1:0:0:0:
110,84,70020,2,0,L|205:73,1,90,0|8,1:0|0:0,0:0:0:0:
390,48,70335,6,0,P|440:113|398:217,1,180,0|0,1:0|0:0,0:0:0:0:
256,291,70809,2,0,P|305:275|357:288,1,90,8|0,0:0|0:0,0:0:0:0:
502,191,71125,2,0,P|453:207|401:194,1,90,0|0,1:0|0:0,0:0:0:0:
242,145,71441,2,0,P|291:129|343:142,1,90,8|0,0:0|0:0,0:0:0:0:
408,361,71756,5,0,1:0:0:0:
169,328,71914,1,0,3:0:0:0:
426,287,72072,1,0,1:0:0:0:
146,331,72230,1,0,3:0:0:0:
290,42,72388,1,8,0:0:0:0:
288,88,72466,1,8,0:0:0:0:
285,133,72545,1,8,0:0:0:0:
282,178,72624,1,8,0:0:0:0:
280,223,72703,1,8,0:0:0:0:
67,38,72862,6,0,P|148:55|201:168,1,180,4|0,0:0|1:0,0:0:0:0:
56,370,73335,1,8,0:0:0:0:
33,331,73413,1,8,0:0:0:0:
34,287,73492,1,8,0:0:0:0:
59,249,73571,1,8,0:0:0:0:
99,230,73651,1,0,1:0:0:0:
117,244,73729,1,0,1:0:0:0:
131,261,73808,1,0,1:0:0:0:
140,281,73887,1,0,1:0:0:0:
144,305,73967,2,0,P|201:321|260:295,1,90,8|0,0:0|0:0,0:0:0:0:
413,70,74283,5,12,0:0:0:0:
266,233,74441,1,0,1:0:0:0:
427,336,74598,2,0,L|420:209,1,107.999996704102,8|0,0:0|1:0,0:0:0:0:
302,12,74914,5,8,0:0:0:0:
265,254,75072,1,0,1:0:0:0:
435,70,75230,1,8,0:0:0:0:
130,129,75388,1,0,1:0:0:0:
360,296,75546,6,0,P|370:244|334:177,1,107.999996704102,8|0,0:0|1:0,0:0:0:0:
120,26,75862,2,0,P|110:78|146:145,1,107.999996704102,8|0,0:0|1:0,0:0:0:0:
265,254,76177,1,8,0:0:0:0:
27,219,76335,1,0,1:0:0:0:
285,257,76493,1,8,0:0:0:0:
0,327,76651,1,0,1:0:0:0:
198,75,76809,6,0,L|182:219,1,107.999996704102,8|0,0:0|1:0,0:0:0:0:
381,299,77125,2,0,L|369:191,1,107.999996704102,8|0,0:0|1:0,0:0:0:0:
345,0,77441,1,8,0:0:0:0:
262,251,77598,1,0,1:0:0:0:
476,88,77756,1,8,0:0:0:0:
171,69,77914,6,0,B|272:76|272:76|292:100|292:100|405:109,1,215.999993408203,4|0,1:0|1:0,0:0:0:0:
204,182,78388,1,8,0:0:0:0:
345,0,78546,1,0,1:0:0:0:
397,280,78704,5,8,0:0:0:0:
360,326,78809,5,8,0:0:0:0:
304,344,78914,5,8,0:0:0:0:
247,327,79020,6,0,L|254:242,2,60,0|0|0,1:0|1:0|1:0,0:0:0:0:
160,380,79335,6,0,L|148:222,1,144,4|0,1:2|0:0,0:0:0:0:
188,160,79809,1,0,1:0:0:0:
188,160,79967,2,0,P|132:202|53:188,1,144,8|0,0:0|0:0,0:0:0:0:
14,124,80441,1,0,1:0:0:0:
109,5,80598,1,8,0:0:0:0:
109,5,80756,2,0,B|175:20|175:20|187:46|187:46|245:57,1,144,8|0,0:0|1:0,0:0:0:0:
339,34,81230,5,8,0:0:0:0:
263,272,81388,1,8,0:0:0:0:
263,272,81704,6,0,P|331:297|406:244,1,144,12|0,0:2|3:0,0:0:0:0:
339,34,82177,1,0,3:0:0:0:
307,168,82335,1,0,3:0:0:0:
224,56,82493,1,0,3:0:0:0:
263,272,82651,1,0,3:0:0:0:
141,8,82809,1,0,3:0:0:0:
8,164,82967,6,0,P|70:183|172:133,1,180,4|8,3:2|0:0,0:0:0:0:
141,8,83441,1,8,0:0:0:0:
66,277,83598,1,8,0:0:0:0:
224,56,83756,1,8,0:0:0:0:
224,56,83835,1,0,1:0:0:0:
224,56,83914,1,0,1:0:0:0:
8,164,84072,1,8,0:0:0:0:
215,285,84230,1,0,1:0:0:0:
215,285,84309,1,0,1:0:0:0:
215,285,84388,5,12,0:2:0:0:
141,8,84546,1,0,1:0:0:0:
297,242,84704,1,8,0:0:0:0:
325,0,84862,1,0,1:0:0:0:
405,308,85020,5,12,0:0:0:0:
156,140,85177,1,0,1:0:0:0:
467,96,85335,1,8,0:0:0:0:
215,285,85493,1,0,1:0:0:0:
325,0,85651,5,4,3:2:0:0:
344,32,85729,1,0,3:0:0:0:
353,68,85808,1,0,3:0:0:0:
349,106,85887,1,0,3:0:0:0:
334,140,85967,1,4,1:2:0:0:
315,189,86045,1,0,1:0:0:0:
330,240,86124,1,0,1:0:0:0:
373,271,86203,1,0,1:0:0:0:
426,269,86282,1,12,0:2:0:0:
472,215,86361,1,8,0:0:0:0:
464,145,86440,1,8,0:0:0:0:
400,114,86519,1,8,0:0:0:0:
334,140,86598,1,12,0:0:0:0:
271,188,86676,1,8,0:0:0:0:
192,186,86755,1,8,0:0:0:0:
132,134,86834,1,8,0:0:0:0:
118,56,86914,6,0,B|154:15|235:-6|297:66|297:120|248:182|192:185|192:185|255:215|304:260|328:320|337:357|337:357|336:309|357:256|389:214|389:214|426:166|497:183|498:273|455:310|385:335|294:180|407:40,1,1123.20003770508,12|0,0:0|0:0,0:0:0:0:
