osu file format v14

[General]
AudioFilename: audio.mp3
AudioLeadIn: 0
PreviewTime: 0
Countdown: 0
SampleSet: Soft
StackLeniency: 0.7
Mode: 0
LetterboxInBreaks: 0
WidescreenStoryboard: 1

[Editor]
DistanceSpacing: 1
BeatDivisor: 4
GridSize: 8
TimelineZoom: 2.799999

[Metadata]
Title:Reason!! (TV Size)
TitleUnicode:Reason!! (TV Size)
Artist:315 STARS
ArtistUnicode:315 STARS
Creator:-Keitaro
Version:Extra!!
Source:アイドルマスター SideM
Tags:idolmaster idolm@ster side male DRAMATIC STARS Beit S.E.M High x Joker W Jupiter xenon- xehn xen anime japanese
BeatmapID:2180733
BeatmapSetID:1043001

[Difficulty]
HPDrainRate:5.5
CircleSize:3.5
OverallDifficulty:8.7
ApproachRate:9.2
SliderMultiplier:1.6
SliderTickRate:1

[Events]
//Background and Video events
0,0,"sexy anime idol girl beach 1920x1200.jpg",0,0
Video,0,"out.mp4"
//Break Periods
//Storyboard Layer 0 (Background)
//Storyboard Layer 1 (Fail)
//Storyboard Layer 2 (Pass)
//Storyboard Layer 3 (Foreground)
//Storyboard Layer 4 (Overlay)
//Storyboard Sound Samples

[TimingPoints]
1020,315.789473684211,4,2,3,60,1,0
1020,-125,4,2,3,60,0,0
6072,-100,4,2,3,75,0,0
6151,-100,4,2,3,75,0,0
9862,-200,4,2,3,60,0,0
12388,-133.333333333333,4,2,3,75,0,0
13651,-100,4,2,3,70,0,0
23756,-133.333333333333,4,2,3,60,0,0
32598,-200,4,2,3,60,0,0
33862,-111.111111111111,4,2,3,70,0,0
43967,-133.333333333333,4,2,3,60,0,0
47756,-111.111111111111,4,2,3,65,0,0
49020,-100,4,2,3,75,0,0
55967,-90.9090909090908,4,2,3,70,0,0
58809,-50,4,2,3,70,0,0
59125,-100,4,2,3,80,0,1
74283,-83.3333333333333,4,2,3,80,0,1
78704,-100,4,2,3,75,0,1
79335,-125,4,2,3,65,0,0
82967,-100,4,2,3,65,0,0
84388,-100,4,2,3,70,0,0
85651,-83.3333333333333,4,2,3,75,0,0
86914,-128.205128205128,4,2,3,75,0,0
86993,-100,4,2,3,5,0,0

[Colours]
Combo1 : 252,164,84
Combo2 : 207,208,174
Combo3 : 0,102,204
Combo4 : 10,185,252

[HitObjects]
223,50,72,5,2,0:0:0:0:
223,50,388,1,2,0:0:0:0:
223,50,704,1,2,0:0:0:0:
197,130,1020,6,0,P|238:136|302:57,1,128,2|0,0:0|0:0,0:0:0:0:
412,15,1651,2,0,B|396:45|396:45|410:162,1,128,2|0,0:0|0:0,0:0:0:0:
469,188,2125,2,0,P|416:165|351:210,1,128,2|0,0:0|0:0,0:0:0:0:
319,272,2598,2,0,B|250:295|261:242|190:267,2,128,2|2|2,0:0|0:0|0:0,0:0:0:0:
495,384,3546,6,0,B|506:341|506:341|491:251,1,128,2|0,0:0|0:0,0:0:0:0:
420,225,4020,1,0,0:0:0:0:
420,225,4177,2,0,L|425:89,1,128,2|0,0:0|0:0,0:0:0:0:
466,35,4651,2,0,P|411:72|329:56,1,128,2|0,0:0|0:0,0:0:0:0:
260,21,5125,2,0,L|269:107,1,64,2|0,0:0|0:0,0:0:0:0:
178,148,5441,2,0,L|184:84,1,64,2|0,0:0|1:0,0:0:0:0:
35,16,5756,1,10,0:0:0:0:
35,16,6072,6,0,P|66:70|58:181,1,160,4|0,1:2|1:0,0:0:0:0:
20,251,6546,1,0,1:0:0:0:
178,148,6704,1,0,1:0:0:0:
64,165,6862,1,0,1:0:0:0:
240,254,7020,1,0,1:0:0:0:
126,234,7177,1,0,1:0:0:0:
295,132,7335,6,0,P|338:193|357:279,1,160,4|0,1:2|1:0,0:0:0:0:
433,351,7809,1,0,1:0:0:0:
421,189,7967,1,0,1:0:0:0:
356,275,8125,1,0,1:0:0:0:
410,99,8283,1,0,1:0:0:0:
505,252,8441,1,0,1:0:0:0:
472,19,8598,5,12,0:2:0:0:
421,189,8756,1,0,1:0:0:0:
304,46,8914,1,0,1:0:0:0:
488,132,9072,1,12,0:2:0:0:
280,37,9230,6,0,L|271:99,3,40,0|0|0|0,1:0|1:0|1:0|1:0,0:0:0:0:
197,58,9546,1,0,3:0:0:0:
169,62,9624,1,0,3:0:0:0:
141,59,9703,1,0,3:0:0:0:
116,47,9782,1,0,3:0:0:0:
96,32,9862,6,0,B|74:80|108:130|108:130|87:159|87:159|122:208|101:262,1,240,4|0,3:2|0:0,0:0:0:0:
29,221,11125,5,2,0:0:0:0:
29,221,12230,1,0,1:0:0:0:
103,254,12388,1,8,0:0:0:0:
100,274,12466,1,0,3:0:0:0:
98,295,12545,1,0,3:0:0:0:
95,316,12624,1,0,3:0:0:0:
93,337,12703,1,0,3:0:0:0:
167,196,12862,1,8,0:0:0:0:
167,196,12941,1,0,3:0:0:0:
167,196,13020,1,0,3:0:0:0:
234,280,13177,1,0,1:0:0:0:
306,196,13335,2,0,L|313:84,1,90.0000034332277,8|0,0:0|0:0,0:0:0:0:
322,83,13651,6,0,P|265:120|162:70,1,160,4|8,1:2|0:0,0:0:0:0:
17,73,14125,1,0,1:0:0:0:
17,73,14204,1,0,1:0:0:0:
17,73,14283,1,0,1:0:0:0:
101,21,14441,1,0,0:0:0:0:
86,143,14598,2,0,L|74:232,1,80,8|0,0:0|0:0,0:0:0:0:
23,320,14914,6,0,P|68:270|182:279,1,160,0|8,1:0|0:0,0:0:0:0:
247,342,15388,2,0,L|233:164,1,160,0|0,1:0|1:0,0:0:0:0:
338,55,15862,1,8,0:0:0:0:
318,209,16020,1,0,0:0:0:0:
185,109,16177,2,0,B|105:114|105:114|88:130|88:130|17:133,1,160,0|8,1:0|0:0,0:0:0:0:
248,32,16651,2,0,P|274:77|247:182,1,160,0|8,1:0|0:0,0:0:0:0:
237,186,17046,1,8,0:0:0:0:
237,186,17125,1,8,0:0:0:0:
185,109,17283,1,0,1:0:0:0:
156,318,17441,5,0,1:0:0:0:
337,261,17598,1,0,1:0:0:0:
142,189,17756,1,8,0:0:0:0:
375,346,17914,2,0,P|421:298|386:187,1,160,0|0,1:0|1:0,0:0:0:0:
237,186,18388,2,0,L|252:296,1,80,0|0,3:0|3:0,0:0:0:0:
295,76,18704,6,0,P|224:58|142:127,1,160,4|8,3:2|0:0,0:0:0:0:
53,250,19177,1,0,0:0:0:0:
155,194,19335,1,0,1:0:0:0:
155,194,19493,1,0,1:0:0:0:
20,85,19651,2,0,L|17:181,1,80,8|0,0:0|0:0,0:0:0:0:
0,360,19967,2,0,P|49:319|159:334,1,160,0|8,1:0|0:0,0:0:0:0:
296,156,20441,2,0,P|247:197|137:182,1,160,0|0,1:0|1:0,0:0:0:0:
217,12,20914,2,0,L|211:120,1,80,8|0,0:0|0:0,0:0:0:0:
211,295,21230,5,0,3:0:0:0:
296,156,21388,1,0,3:0:0:0:
330,342,21546,1,0,3:0:0:0:
296,132,21704,1,0,3:0:0:0:
393,279,21862,5,0,3:0:0:0:
198,200,22020,1,0,3:0:0:0:
404,94,22177,1,0,3:0:0:0:
289,255,22335,1,0,3:0:0:0:
209,43,22493,5,0,3:0:0:0:
362,184,22651,1,4,0:3:0:0:
362,184,22809,1,4,0:3:0:0:
198,288,22967,2,0,B|120:301|120:301|106:295|106:295|17:309,1,160,4|8,0:0|0:0,0:0:0:0:
16,311,23362,1,8,0:0:0:0:
16,311,23441,1,8,0:0:0:0:
115,198,23598,1,0,1:0:0:0:
27,20,23756,6,0,L|14:164,1,120.000004577637,2|2,3:2|3:2,0:0:0:0:
115,198,24230,1,0,0:0:0:0:
115,198,24388,2,0,L|108:72,1,120.000004577637,2|2,3:2|3:2,0:0:0:0:
183,18,24862,2,0,P|216:68|281:81,1,120.000004577637,2|0,0:2|0:0,0:0:0:0:
350,56,25335,2,0,L|346:130,1,60.0000022888184,2|0,3:2|0:0,0:0:0:0:
431,46,25651,2,0,L|427:120,1,60.0000022888184,2|0,3:2|0:0,0:0:0:0:
512,33,25967,2,0,L|508:107,1,60.0000022888184,2|0,3:2|0:0,0:0:0:0:
503,221,26283,6,0,P|451:196|383:221,1,120.000004577637,2|0,3:2|3:2,0:0:0:0:
367,288,26756,1,0,0:0:0:0:
367,288,26914,2,0,P|322:297|288:281,1,60.0000022888184,2|0,3:2|0:0,0:0:0:0:
238,330,27230,2,0,P|214:299|216:252,1,60.0000022888184,2|0,3:2|0:0,0:0:0:0:
249,167,27546,6,0,P|205:184|120:153,1,120.000004577637,2|2,3:2|3:2,0:0:0:0:
64,122,28020,2,0,P|93:166|100:260,1,120.000004577637,2|0,0:2|0:0,0:0:0:0:
61,304,28493,2,0,P|78:337|85:365,1,60.0000022888184,0|0,3:0|0:0,0:0:0:0:
216,384,28809,6,0,P|206:315|207:238,1,120.000004577637,2|2,3:2|3:2,0:0:0:0:
264,198,29283,1,2,0:2:0:0:
264,198,29441,2,0,P|304:195|331:204,1,60.0000022888184,0|0,3:0|0:0,0:0:0:0:
394,242,29756,2,0,P|426:245|454:230,1,60.0000022888184,0|0,3:0|0:0,0:0:0:0:
488,163,30072,2,0,L|466:42,1,120.000004577637,2|2,3:2|3:2,0:0:0:0:
379,10,30546,2,0,P|354:68|300:81,1,120.000004577637,2|0,0:2|0:0,0:0:0:0:
212,33,31020,2,0,P|175:32|144:49,1,60.0000022888184,2|0,3:2|0:0,0:0:0:0:
48,7,31335,6,0,P|78:72|87:140,1,120.000004577637,0|0,3:0|3:0,0:0:0:0:
42,225,31809,1,0,3:0:0:0:
149,201,31967,1,0,1:0:0:0:
163,199,32045,1,0,1:0:0:0:
178,199,32124,1,0,1:0:0:0:
193,203,32203,1,0,1:0:0:0:
209,209,32283,2,0,P|219:241|217:286,1,60.0000022888184,0|0,1:0|3:0,0:0:0:0:
164,368,32598,6,0,P|201:352|246:352,1,80,4|0,3:2|0:0,0:0:0:0:
316,377,33072,1,0,0:0:0:0:
316,377,33388,5,0,1:0:0:0:
300,195,33546,1,8,0:0:0:0:
300,195,33862,6,0,P|364:207|444:142,1,143.999995605469,4|8,1:2|0:0,0:0:0:0:
476,70,34335,1,0,0:0:0:0:
359,16,34493,1,0,1:0:0:0:
359,16,34651,1,0,1:0:0:0:
305,114,34809,1,8,0:0:0:0:
183,14,34967,2,0,B|120:22|120:22|101:41|101:41|17:49,1,143.999995605469,0|0,1:0|1:0,0:0:0:0:
170,166,35441,2,0,P|175:119|154:83,1,71.9999978027344,8|0,0:0|0:0,0:0:0:0:
77,212,35756,2,0,P|72:259|93:295,1,71.9999978027344,0|0,1:0|1:0,0:0:0:0:
185,377,36072,2,0,P|190:330|169:294,1,71.9999978027344,8|0,0:0|0:0,0:0:0:0:
250,198,36388,6,0,P|266:247|373:269,1,143.999995605469,0|8,1:0|0:0,0:0:0:0:
415,179,36862,1,0,0:0:0:0:
277,93,37020,2,0,L|270:-6,1,71.9999978027344,0|0,1:0|1:0,0:0:0:0:
420,107,37335,2,0,L|414:178,1,71.9999978027344,8|0,0:0|1:0,0:0:0:0:
226,330,37651,2,0,P|272:282|354:282,1,143.999995605469,4|8,1:2|0:0,0:0:0:0:
497,365,38125,2,0,B|465:342|465:342|456:209,1,143.999995605469,4|0,1:2|1:0,0:0:0:0:
491,101,38598,2,0,L|405:108,1,71.9999978027344,8|0,0:0|0:0,0:0:0:0:
223,28,38914,6,0,P|274:32|320:121,1,143.999995605469,4|8,1:2|0:0,0:0:0:0:
255,168,39388,2,0,B|174:186|195:126|108:151,1,143.999995605469,0|0,1:0|1:0,0:0:0:0:
111,297,39862,2,0,P|138:258|144:227,1,71.9999978027344,8|0,0:0|0:0,0:0:0:0:
65,83,40177,2,0,P|28:143|61:212,1,143.999995605469,0|8,1:0|0:0,0:0:0:0:
257,290,40651,2,0,P|228:246|130:240,1,143.999995605469,0|0,1:0|1:0,0:0:0:0:
34,364,41125,1,8,0:0:0:0:
172,331,41283,1,0,1:0:0:0:
339,384,41441,6,0,L|348:278,1,71.9999978027344,8|0,0:0|1:0,0:0:0:0:
322,103,41756,1,8,0:0:0:0:
257,290,41914,1,0,1:0:0:0:
237,74,42072,1,8,0:0:0:0:
418,138,42230,2,0,L|461:134,2,35.9999989013672,0|0|0,1:0|1:0|1:0,0:0:0:0:
239,175,42546,5,0,1:0:0:0:
239,175,42862,1,8,0:0:0:0:
426,42,43020,1,8,0:0:0:0:
362,279,43177,1,8,0:0:0:0:
237,74,43335,1,8,0:0:0:0:
160,128,43493,2,0,L|149:162,2,35.9999989013672,0|0|0,1:0|1:0|1:0,0:0:0:0:
115,55,43809,1,4,0:3:0:0:
115,55,43967,6,0,P|53:54|13:107,1,120.000004577637,4|0,1:2|0:0,0:0:0:0:
9,171,44441,1,0,1:0:0:0:
9,171,44598,2,0,P|56:224|77:279,1,120.000004577637,8|0,0:0|0:0,0:0:0:0:
48,344,45072,2,0,P|93:314|169:309,1,120.000004577637,0|0,1:0|1:0,0:0:0:0:
243,290,45546,2,0,L|231:355,1,60.0000022888184,0|0,1:0|1:0,0:0:0:0:
335,366,45862,1,8,0:0:0:0:
325,281,46020,1,4,0:3:0:0:
312,197,46177,2,0,L|302:116,1,60.0000022888184,4|0,0:3|0:0,0:0:0:0:
390,71,46493,6,0,P|356:125|291:134,1,120.000004577637,0|0,1:0|0:0,0:0:0:0:
241,87,46967,1,0,1:0:0:0:
241,87,47125,2,0,B|169:84|189:135|111:128,1,120.000004577637,8|0,0:0|1:0,0:0:0:0:
131,126,47756,1,12,0:2:0:0:
96,323,47914,1,0,1:0:0:0:
141,105,48072,1,0,1:0:0:0:
265,251,48230,2,0,B|352:271|327:204|430:210,1,143.999995605469,12|0,0:2|1:0,0:0:0:0:
483,313,48704,2,0,P|429:310|396:278,1,71.9999978027344,8|0,0:0|1:0,0:0:0:0:
281,166,49020,6,0,P|225:154|174:169,1,80,12|0,0:2|1:0,0:0:0:0:
38,324,49335,1,8,0:0:0:0:
49,160,49493,1,0,1:0:0:0:
111,357,49651,1,8,0:0:0:0:
127,155,49809,1,0,1:0:0:0:
187,384,49967,1,8,0:0:0:0:
203,157,50125,1,0,1:0:0:0:
281,352,50283,6,0,P|322:360|371:341,1,80,12|0,0:0|1:0,0:0:0:0:
453,169,50598,1,8,0:0:0:0:
277,197,50756,1,0,1:0:0:0:
468,168,50914,1,8,0:0:0:0:
253,86,51072,1,0,1:0:0:0:
494,61,51230,1,8,0:0:0:0:
268,196,51388,1,0,1:0:0:0:
368,5,51546,6,0,L|376:121,1,80,12|0,0:0|1:0,0:0:0:0:
333,310,51862,1,8,0:0:0:0:
468,168,52020,1,0,1:0:0:0:
249,272,52177,2,0,P|239:315|258:367,1,80,8|0,0:0|1:0,0:0:0:0:
371,161,52493,2,0,P|381:118|362:66,1,80,8|0,0:0|1:0,0:0:0:0:
180,25,52809,6,0,B|95:12|112:76|21:59,1,160,12|8,0:0|0:0,0:0:0:0:
161,121,53283,1,0,1:0:0:0:
42,250,53441,2,0,P|33:304|54:338,1,80,8|0,0:0|1:0,0:0:0:0:
161,196,53756,2,0,P|170:142|149:108,1,80,8|0,0:0|1:0,0:0:0:0:
114,286,54072,5,12,0:2:0:0:
320,202,54230,1,0,1:0:0:0:
320,202,54388,1,0,1:0:0:0:
160,120,54546,5,12,0:2:0:0:
412,236,54704,1,0,1:0:0:0:
412,236,54862,1,0,1:0:0:0:
228,37,55020,5,12,0:2:0:0:
186,282,55177,1,0,1:0:0:0:
186,282,55335,1,0,1:0:0:0:
346,60,55493,5,12,0:2:0:0:
82,28,55651,1,0,1:0:0:0:
82,28,55809,1,0,1:0:0:0:
306,285,55967,6,0,L|315:189,1,88.000002685547,12|0,0:2|1:0,0:0:0:0:
53,130,56283,2,0,L|61:217,1,88.000002685547,12|0,0:2|1:0,0:0:0:0:
186,323,56598,6,0,L|265:328,3,44.0000013427735,2|2|2|2,0:0|0:0|0:0|0:0,0:0:0:0:
306,285,56914,2,0,L|312:359,1,44.0000013427735,2|2,0:0|0:0,0:0:0:0:
138,243,57072,2,0,L|148:170,1,44.0000013427735,2|2,0:0|0:0,0:0:0:0:
236,83,57230,5,8,0:0:0:0:
186,323,57388,1,8,0:0:0:0:
375,126,57546,1,8,0:0:0:0:
125,70,57704,1,8,0:0:0:0:
125,70,58020,5,8,0:0:0:0:
290,256,58177,1,8,0:0:0:0:
296,264,58651,1,0,3:0:0:0:
296,264,58730,1,0,3:0:0:0:
296,264,58809,2,0,B|372:304|440:249|440:249|412:195|345:204,1,240,0|0,3:0|0:0,0:0:0:0:
215,220,59125,6,0,P|207:287|233:327,1,80,4|0,1:2|0:0,0:0:0:0:
372,203,59441,2,0,P|380:136|354:96,1,80,8|0,0:0|0:0,0:0:0:0:
238,9,59756,1,0,1:0:0:0:
238,9,59914,2,0,L|147:16,1,80,0|8,1:0|0:0,0:0:0:0:
20,114,60230,6,0,B|21:185|21:185|36:208|36:208|39:274,1,160,0|0,1:0|0:0,0:0:0:0:
111,135,60704,2,0,B|153:146|153:146|199:125,1,80,8|0,0:0|0:0,0:0:0:0:
311,3,61020,2,0,B|274:-10|274:-10|238:7,1,80,0|0,1:0|0:0,0:0:0:0:
394,116,61335,2,0,B|433:127|433:127|482:106,1,80,8|0,0:0|0:0,0:0:0:0:
270,239,61651,6,0,L|280:62,1,160,4|8,1:2|0:0,0:0:0:0:
349,13,62125,1,0,0:0:0:0:
175,157,62283,1,0,1:0:0:0:
360,125,62441,1,0,1:0:0:0:
159,39,62598,1,8,0:0:0:0:
389,213,62756,6,0,P|449:156|425:67,1,160,4|0,1:2|1:0,0:0:0:0:
257,14,63230,1,8,0:0:0:0:
360,125,63388,1,0,1:0:0:0:
152,198,63546,1,8,0:0:0:0:
152,198,63862,1,8,0:0:0:0:
159,39,64020,6,0,L|152:214,1,160,4|0,1:2|0:0,0:0:0:0:
142,384,64493,2,0,P|103:345|53:337,1,80,8|0,0:0|0:0,0:0:0:0:
236,262,64809,1,0,1:0:0:0:
236,262,64967,2,0,P|272:289|336:283,1,80,0|8,1:0|0:0,0:0:0:0:
329,114,65283,6,0,B|289:90|289:90|298:231,1,160,4|0,0:0|0:0,0:0:0:0:
296,0,65756,2,0,P|236:12|216:44,1,80,8|0,0:0|0:0,0:0:0:0:
460,239,66072,2,0,L|475:143,1,80,8|0,0:0|0:0,0:0:0:0:
289,90,66388,2,0,L|293:172,1,80,8|0,0:0|0:0,0:0:0:0:
430,0,66704,5,12,0:0:0:0:
373,200,66862,1,0,1:0:0:0:
296,0,67020,1,0,1:0:0:0:
512,72,67177,1,8,0:0:0:0:
380,312,67493,1,8,0:0:0:0:
100,237,67809,6,0,B|91:162|91:162|96:143|96:143|84:69,1,160,8|0,0:0|1:0,0:0:0:0:
171,0,68283,2,0,L|165:50,3,40,0|0|0|0,3:0|3:0|3:0|3:0,0:0:0:0:
255,65,68598,1,0,1:0:0:0:
282,64,68676,1,0,1:0:0:0:
309,55,68755,1,0,1:0:0:0:
330,37,68834,1,0,1:0:0:0:
347,14,68914,2,0,P|400:18|436:56,1,80,8|8,0:0|0:0,0:0:0:0:
496,121,69230,6,0,P|440:127|385:228,1,160,4|8,1:2|0:0,0:0:0:0:
381,370,69704,1,0,0:0:0:0:
248,219,69862,1,0,1:0:0:0:
469,299,70020,2,0,L|367:289,1,80,0|8,1:0|0:0,0:0:0:0:
193,306,70335,6,0,P|155:244|192:137,1,160,0|0,1:0|0:0,0:0:0:0:
256,125,70809,2,0,L|352:134,1,80,8|0,0:0|0:0,0:0:0:0:
512,0,71125,2,0,L|416:9,1,80,0|0,1:0|0:0,0:0:0:0:
260,113,71441,2,0,L|356:122,1,80,8|0,0:0|0:0,0:0:0:0:
510,160,71756,5,0,1:0:0:0:
365,247,71914,1,0,3:0:0:0:
414,90,72072,1,0,1:0:0:0:
471,279,72230,1,0,3:0:0:0:
260,208,72388,2,0,P|206:212|162:307,1,160,8|8,0:0|0:0,0:0:0:0:
345,384,72862,6,0,L|350:192,1,160,4|0,0:0|1:0,0:0:0:0:
289,47,73335,2,0,L|284:-3,1,40,8|8,0:0|0:0,0:0:0:0:
180,143,73493,2,0,L|174:196,1,40,8|8,0:0|0:0,0:0:0:0:
130,21,73651,1,0,1:0:0:0:
102,14,73729,1,0,1:0:0:0:
75,18,73808,1,0,1:0:0:0:
51,33,73887,1,0,1:0:0:0:
33,55,73967,2,0,L|24:171,1,80,8|0,0:0|0:0,0:0:0:0:
26,304,74283,6,0,L|126:313,1,95.9999970703126,12|0,0:0|1:0,0:0:0:0:
312,145,74598,5,8,0:0:0:0:
209,377,74756,1,0,1:0:0:0:
182,61,74914,5,8,0:0:0:0:
282,298,75072,1,0,1:0:0:0:
333,32,75230,5,8,0:0:0:0:
173,209,75388,1,0,1:0:0:0:
405,107,75546,6,0,L|509:118,1,95.9999970703126,8|0,0:0|1:0,0:0:0:0:
282,298,75862,2,0,L|178:309,1,95.9999970703126,8|0,0:0|1:0,0:0:0:0:
408,89,76177,6,0,L|512:100,1,95.9999970703126,8|0,0:0|1:0,0:0:0:0:
285,280,76493,2,0,L|181:291,1,95.9999970703126,8|0,0:0|1:0,0:0:0:0:
48,67,76809,5,8,0:0:0:0:
189,290,76967,1,0,1:0:0:0:
205,1,77125,5,8,0:0:0:0:
82,251,77283,1,0,1:0:0:0:
280,58,77441,5,8,0:0:0:0:
0,151,77598,1,0,1:0:0:0:
215,381,77756,1,8,0:0:0:0:
105,60,77914,6,0,L|79:269,1,191.999994140625,4|0,1:0|1:0,0:0:0:0:
345,355,78388,2,0,L|322:240,1,95.9999970703126,8|0,0:0|1:0,0:0:0:0:
178,109,78704,2,0,L|167:224,1,80,8|0,0:0|0:0,0:0:0:0:
264,371,79020,2,0,L|245:262,1,80,0|0,1:0|0:0,0:0:0:0:
339,217,79335,6,0,P|283:287|222:285,1,128,4|0,1:2|0:0,0:0:0:0:
180,246,79809,1,0,1:0:0:0:
180,246,79967,2,0,B|151:165|196:192|173:98,1,128,8|0,0:0|0:0,0:0:0:0:
114,65,80441,1,0,1:0:0:0:
4,124,80598,1,8,0:0:0:0:
4,124,80756,2,0,B|21:162|21:162|52:171|104:148,1,128,8|0,0:0|1:0,0:0:0:0:
222,19,81230,5,8,0:0:0:0:
142,321,81388,1,8,0:0:0:0:
142,321,81704,6,0,P|195:297|273:319,1,128,12|0,0:2|3:0,0:0:0:0:
335,364,82177,2,0,L|341:281,1,64,0|0,3:0|3:0,0:0:0:0:
443,185,82493,2,0,L|453:278,1,64,0|0,3:0|3:0,0:0:0:0:
362,117,82809,1,0,3:0:0:0:
503,114,82967,6,0,P|436:147|346:95,1,160,4|8,3:2|0:0,0:0:0:0:
226,16,83441,1,8,0:0:0:0:
315,212,83598,1,8,0:0:0:0:
429,53,83756,1,8,0:0:0:0:
429,53,83835,1,0,1:0:0:0:
429,53,83914,1,0,1:0:0:0:
419,311,84072,1,8,0:0:0:0:
254,146,84230,2,0,L|245:89,1,40,0|0,1:0|1:0,0:0:0:0:
156,338,84388,5,12,0:2:0:0:
397,229,84546,1,0,1:0:0:0:
139,149,84704,1,8,0:0:0:0:
254,384,84862,1,0,1:0:0:0:
334,64,85020,5,12,0:0:0:0:
156,338,85177,1,0,1:0:0:0:
189,54,85335,1,8,0:0:0:0:
314,304,85493,1,0,1:0:0:0:
96,130,85651,6,0,L|-9:121,1,95.9999970703126,4|0,3:2|3:0,0:0:0:0:
314,304,85967,2,0,L|419:295,1,95.9999970703126,4|0,1:2|1:0,0:0:0:0:
197,67,86283,6,0,L|190:6,1,47.9999985351563,12|8,0:2|0:0,0:0:0:0:
138,126,86441,2,0,L|132:173,1,47.9999985351563,8|8,0:0|0:0,0:0:0:0:
279,100,86598,6,0,L|272:39,1,47.9999985351563,12|8,0:0|0:0,0:0:0:0:
214,183,86756,2,0,L|208:230,1,47.9999985351563,8|8,0:0|0:0,0:0:0:0:
362,117,86914,6,0,B|361:29|478:26|487:88|504:134|485:181|449:203|416:239|406:301|428:354|428:354|401:317|335:304|279:342|279:342|232:372|171:354|131:318|131:318|162:340|213:348|289:313|305:268|292:190,1,998.400033515626,12|0,0:0|0:0,0:0:0:0:
