osu file format v14

[General]
AudioFilename: audio.mp3
AudioLeadIn: 0
PreviewTime: 61956
Countdown: 0
SampleSet: None
StackLeniency: 0.6
Mode: 0
LetterboxInBreaks: 0
WidescreenStoryboard: 0

[Editor]
DistanceSpacing: 0.5
BeatDivisor: 4
GridSize: 4
TimelineZoom: 2.2

[Metadata]
Title:Reason!!
TitleUnicode:Reason!!
Artist:315 STARS
ArtistUnicode:315 STARS
Creator:Glaceon
Version:blob
Source:アイドルマスター SideM
Tags:THE IDOLM@STER SideM idolmaster side m short cut ver version
BeatmapID:1932719
BeatmapSetID:925231

[Difficulty]
HPDrainRate:5
CircleSize:4
OverallDifficulty:8.8
ApproachRate:9.3
SliderMultiplier:2
SliderTickRate:1

[Events]
//Background and Video events
0,0,"pierre.jpg",0,0
//Break Periods
//Storyboard Layer 0 (Background)
//Storyboard Layer 1 (Fail)
//Storyboard Layer 2 (Pass)
//Storyboard Layer 3 (Foreground)
//Storyboard Sound Samples

[TimingPoints]
-494,315.789473684211,4,2,0,70,1,0
690,-100,4,2,0,70,0,0
769,-133.333333333333,4,2,0,45,0,0
3295,-133.333333333333,4,2,0,50,0,0
3611,-133.333333333333,4,2,0,60,0,0
4558,-166.666666666667,4,2,0,45,0,0
9137,-166.666666666667,4,2,0,60,0,0
9611,-133.333333333333,4,2,0,60,0,0
9848,-133.333333333333,4,2,0,5,0,0
9927,-133.333333333333,4,2,0,60,0,0
11111,-133.333333333333,4,2,0,5,0,0
11190,-133.333333333333,4,2,0,60,0,0
17190,-117.647058823529,4,2,0,60,0,0
27295,-133.333333333333,4,2,0,45,0,0
32269,-133.333333333333,4,2,0,5,0,0
32348,-133.333333333333,4,2,0,45,0,0
34874,-133.333333333333,4,2,0,60,0,0
36137,-200,4,2,0,45,0,0
37321,-133.333333333333,4,2,0,5,0,0
37400,-133.333333333333,4,2,0,55,0,0
42137,-166.666666666667,4,2,0,55,0,0
42374,-133.333333333333,4,2,0,5,0,0
42453,-133.333333333333,4,2,0,55,0,0
47506,-166.666666666667,4,2,0,40,0,0
51295,-133.333333333333,4,2,0,55,0,0
52558,-117.647058823529,4,2,0,65,0,0
62348,-166.666666666667,4,2,0,65,0,0
62584,-166.666666666667,4,2,0,5,0,0
62663,-117.647058823529,4,2,0,80,0,1
62900,-117.647058823529,4,2,0,5,0,1
62982,-117.647058823529,4,2,0,80,0,1
69848,-117.647058823529,4,2,0,5,0,1
69930,-117.647058823529,4,2,0,80,0,1
70163,-117.647058823529,4,2,0,5,0,1
70245,-117.647058823529,4,2,0,80,0,1
73006,-117.647058823529,4,2,0,5,0,1
73088,-117.647058823529,4,2,0,80,0,1
77506,-117.647058823529,4,2,0,80,0,0
77821,-117.647058823529,4,2,0,80,0,1
82874,-133.333333333333,4,2,0,70,0,0
85242,-100,4,2,0,80,0,1
85479,-117.647058823529,4,2,0,5,0,1
85561,-117.647058823529,4,2,0,80,0,1
86742,-117.647058823529,4,2,0,5,0,1
86824,-117.647058823529,4,2,0,80,0,1
87611,-117.647058823529,4,2,0,80,0,0
87927,-117.647058823529,4,2,0,80,0,1
92900,-117.647058823529,4,2,0,5,0,1
92979,-117.647058823529,4,2,0,80,0,0
93216,-117.647058823529,4,2,0,5,0,0
93295,-117.647058823529,4,2,0,80,0,0
103084,-200,4,2,0,50,0,0
104348,-200,4,2,0,5,0,0
104427,-200,4,2,0,50,0,0

[Colours]
Combo1 : 255,155,205
Combo2 : 217,217,0
Combo3 : 128,0,255
Combo4 : 0,223,0

[HitObjects]
49,149,769,6,0,L|56:236,7,75.0000028610231
191,105,2032,6,0,L|197:30,7,75.0000028610231
287,192,3295,6,0,P|252:217|190:235,1,75.0000028610231
303,92,3611,2,0,P|342:109|401:191,1,112.500004291535
431,223,3927,2,0,P|426:180|467:88,1,112.500004291535
503,65,4242,1,0,0:0:0:0:
367,358,4558,6,0,B|394:294|339:251|339:251|293:278|300:336|300:336|217:315|230:223,1,359.999989013672
255,143,5663,6,0,P|220:119|134:109,1,119.999996337891
59,229,6137,2,0,P|102:212|131:191,1,59.9999981689454
15,132,6453,2,0,P|60:138|96:135,1,59.9999981689454
25,25,6769,2,0,P|61:53|93:68,1,59.9999981689454
259,30,7084,6,0,B|205:24|161:40|161:40|211:103|297:76|297:76|298:140|233:173,1,359.999989013672
191,243,8190,2,0,P|225:228|328:223,1,119.999996337891
404,318,8663,2,0,P|372:295|352:270,1,59.9999981689454
359,159,8979,1,0,0:0:0:0:
272,312,9137,1,0,0:0:0:0:
272,312,9216,1,0,0:0:0:0:
272,312,9295,2,0,P|251:333|226:350,1,59.9999981689454
125,369,9532,1,0,0:0:0:0:
125,369,9611,6,0,L|123:246,1,112.500004291535
120,180,9927,1,0,0:0:0:0:
204,256,10084,1,0,0:0:0:0:
197,105,10242,1,0,0:0:0:0:
52,260,10400,1,0,0:0:0:0:
276,205,10558,1,0,0:0:0:0:
110,76,10716,1,0,0:0:0:0:
290,109,10874,6,0,L|426:117,1,112.500004291535
478,121,11190,1,0,0:0:0:0:
363,24,11348,1,0,0:0:0:0:
378,227,11506,1,0,0:0:0:0:
500,40,11663,1,0,0:0:0:0:
255,105,11821,1,0,0:0:0:0:
493,246,11979,1,0,0:0:0:0:
284,26,12137,5,0,0:0:0:0:
297,271,12295,1,0,0:0:0:0:
429,58,12453,1,0,0:0:0:0:
378,323,12611,1,0,0:0:0:0:
183,110,12769,2,0,L|256:104,1,37.5000014305115
415,230,12927,2,0,L|342:224,1,37.5000014305115
83,347,13084,1,0,0:0:0:0:
120,344,13162,1,0,0:0:0:0:
157,342,13241,1,0,0:0:0:0:
195,340,13320,1,0,0:0:0:0:
232,338,13399,5,0,0:0:0:0:
256,192,13479,12,0,14663,0:0:0:0:
442,330,15769,5,0,0:0:0:0:
325,188,15927,5,0,0:0:0:0:
327,212,16005,1,0,0:0:0:0:
329,237,16084,1,0,0:0:0:0:
331,262,16163,1,0,0:0:0:0:
334,287,16242,1,0,0:0:0:0:
336,312,16321,1,0,0:0:0:0:
338,338,16400,6,0,L|343:385,1,37.5000014305115
227,362,16558,1,0,0:0:0:0:
200,344,16636,1,0,0:0:0:0:
172,332,16715,1,0,0:0:0:0:
141,325,16794,1,0,0:0:0:0:
110,323,16874,6,0,L|47:330,1,37.5000014305115
211,182,17032,2,0,L|274:188,1,37.5000014305115
166,19,17190,6,0,P|124:63|102:136,1,127.50000243187
80,198,17506,2,0,P|58:153|24:126,1,85.0000016212464
43,327,17821,1,0,0:0:0:0:
159,248,17979,1,0,0:0:0:0:
0,204,18137,1,0,0:0:0:0:
153,361,18295,1,0,0:0:0:0:
153,361,18374,1,0,0:0:0:0:
153,361,18453,6,0,L|292:351,1,127.50000243187
358,347,18769,1,0,0:0:0:0:
290,178,18927,2,0,L|285:286,1,85.0000016212464
397,173,19242,1,0,0:0:0:0:
215,96,19400,1,0,0:0:0:0:
375,68,19558,1,0,0:0:0:0:
166,271,19716,6,0,L|162:186,1,85.0000016212464
286,26,20032,1,0,0:0:0:0:
413,259,20190,2,0,P|352:242|309:206,1,85.0000016212464
459,112,20506,1,0,0:0:0:0:
459,112,20584,1,0,0:0:0:0:
459,112,20663,1,0,0:0:0:0:
505,299,20821,1,0,0:0:0:0:
505,299,20900,1,0,0:0:0:0:
505,299,20979,5,0,0:0:0:0:
326,140,21137,1,0,0:0:0:0:
502,37,21295,1,0,0:0:0:0:
413,259,21453,2,0,L|406:369,1,85.0000016212464
181,274,21769,1,0,0:0:0:0:
203,251,21847,1,0,0:0:0:0:
230,234,21926,1,0,0:0:0:0:
260,223,22005,1,0,0:0:0:0:
291,217,22084,2,0,L|359:225,1,42.5000008106232
140,361,22242,6,0,P|111:330|88:269,1,85.0000016212464
160,133,22558,2,0,P|147:173|106:224,1,85.0000016212464
0,287,22874,1,0,0:0:0:0:
60,133,23032,1,0,0:0:0:0:
208,216,23190,2,0,L|89:204,1,85.0000016212464
271,152,23506,6,0,B|302:202|293:262|293:262|303:228|333:202,1,170.000003242493
202,50,23979,2,0,P|192:108|169:145,1,85.0000016212464
68,260,24295,1,0,0:0:0:0:
87,243,24373,1,0,0:0:0:0:
108,229,24452,1,0,0:0:0:0:
132,220,24531,1,0,0:0:0:0:
157,215,24610,1,0,0:0:0:0:
182,214,24689,1,0,0:0:0:0:
208,216,24769,5,0,0:0:0:0:
170,330,24927,1,0,0:0:0:0:
305,206,25084,1,0,0:0:0:0:
340,343,25242,1,0,0:0:0:0:
252,138,25400,1,0,0:0:0:0:
157,358,25558,1,0,0:0:0:0:
378,263,25716,1,0,0:0:0:0:
132,220,25874,1,0,0:0:0:0:
394,172,26032,5,0,0:0:0:0:
244,292,26190,1,0,0:0:0:0:
249,108,26348,1,0,0:0:0:0:
338,337,26506,5,0,0:0:0:0:
310,359,26584,1,0,0:0:0:0:
278,373,26663,1,0,0:0:0:0:
243,376,26742,1,0,0:0:0:0:
208,370,26821,1,0,0:0:0:0:
177,354,26900,1,0,0:0:0:0:
151,329,26979,5,0,0:0:0:0:
153,308,27057,1,0,0:0:0:0:
156,287,27136,1,0,0:0:0:0:
158,266,27215,1,0,0:0:0:0:
160,246,27295,6,0,L|70:252,1,75.0000028610231
194,166,27611,2,0,L|104:172,1,75.0000028610231
228,86,27927,2,0,L|138:92,1,75.0000028610231
52,98,28242,1,0,0:0:0:0:
99,22,28400,1,0,0:0:0:0:
284,18,28558,6,0,P|315:63|321:97,1,75.0000028610231
240,222,28874,2,0,P|263:172|289:150,1,75.0000028610231
323,308,29190,2,0,P|318:253|330:221,1,75.0000028610231
437,340,29506,2,0,P|405:295|400:261,1,75.0000028610231
421,117,29821,5,0,0:0:0:0:
472,207,29979,1,0,0:0:0:0:
472,207,30058,1,0,0:0:0:0:
472,207,30137,1,0,0:0:0:0:
345,165,30295,1,0,0:0:0:0:
424,42,30453,2,0,L|419:136,1,75.0000028610231
345,7,30769,2,0,L|340:101,1,75.0000028610231
260,249,31084,6,0,L|256:174,1,75.0000028610231
250,61,31400,1,0,0:0:0:0:
120,118,31558,2,0,L|225:122,1,75.0000028610231
329,155,31874,1,0,0:0:0:0:
298,287,32032,2,0,P|254:246|200:228,1,112.500004291535
130,238,32348,6,0,L|48:233,1,75.0000028610231
174,304,32663,1,0,0:0:0:0:
158,170,32821,1,0,0:0:0:0:
19,317,32979,2,0,L|101:312,1,75.0000028610231
246,384,33295,2,0,L|164:379,1,75.0000028610231
290,301,33611,6,0,P|327:339|349:385,1,75.0000028610231
375,263,33927,1,0,0:0:0:0:
499,231,34084,2,0,P|458:272|428:371,1,150.000005722046
375,263,34558,2,0,P|354:231|326:206,1,75.0000028610231
206,168,34874,5,0,0:0:0:0:
278,286,35032,1,0,0:0:0:0:
328,110,35190,1,0,0:0:0:0:
193,274,35348,1,0,0:0:0:0:
211,55,35506,1,0,0:0:0:0:
209,83,35584,1,0,0:0:0:0:
208,111,35663,1,0,0:0:0:0:
206,139,35742,1,0,0:0:0:0:
205,167,35821,1,0,0:0:0:0:
229,349,35979,1,0,0:0:0:0:
36,309,36137,6,0,P|142:286|134:353,1,200
24,197,36927,1,0,0:0:0:0:
24,197,37006,1,0,0:0:0:0:
24,197,37084,2,0,P|65:184|120:181,1,75
173,183,37400,6,0,L|165:99,1,75.0000028610231
286,201,37716,2,0,L|278:275,1,75.0000028610231
102,348,38032,1,0,0:0:0:0:
191,269,38190,1,0,0:0:0:0:
43,251,38348,1,0,0:0:0:0:
203,364,38506,6,0,L|353:358,1,150.000005722046
451,243,38979,2,0,P|429:203|400:174,1,75.0000028610231
258,138,39295,1,0,0:0:0:0:
363,257,39453,1,0,0:0:0:0:
353,94,39611,1,0,0:0:0:0:
254,249,39769,1,0,0:0:0:0:
254,249,39848,1,0,0:0:0:0:
254,249,39927,6,0,L|161:243,1,75.0000028610231
74,107,40242,2,0,L|167:101,1,75.0000028610231
84,242,40558,1,0,0:0:0:0:
258,138,40716,1,0,0:0:0:0:
258,138,40795,1,0,0:0:0:0:
258,138,40874,1,0,0:0:0:0:
158,28,41032,1,0,0:0:0:0:
158,28,41111,1,0,0:0:0:0:
158,28,41190,5,0,0:0:0:0:
185,204,41348,1,0,0:0:0:0:
297,52,41506,1,0,0:0:0:0:
271,291,41663,2,0,P|233:265|127:258,1,150.000005722046
54,280,42058,1,0,0:0:0:0:
54,280,42137,2,0,L|64:162,1,89.9999972534181
125,136,42453,6,0,L|117:46,1,75.0000028610231
265,78,42769,1,0,0:0:0:0:
176,196,42927,1,0,0:0:0:0:
192,43,43084,1,0,0:0:0:0:
333,126,43242,1,0,0:0:0:0:
266,0,43400,2,0,L|175:7,1,75.0000028610231
31,16,43716,5,0,0:0:0:0:
201,123,43874,1,0,0:0:0:0:
114,0,44032,1,0,0:0:0:0:
29,204,44190,2,0,B|30:155|53:115|53:115|77:136|82:184,1,150.000005722046
78,347,44663,1,0,0:0:0:0:
163,202,44821,1,0,0:0:0:0:
259,363,44979,5,0,0:0:0:0:
241,145,45137,1,0,0:0:0:0:
89,260,45295,5,0,0:0:0:0:
329,293,45453,1,0,0:0:0:0:
160,90,45611,5,0,0:0:0:0:
160,118,45689,1,0,0:0:0:0:
161,146,45768,1,0,0:0:0:0:
162,174,45847,1,0,0:0:0:0:
163,202,45926,1,0,0:0:0:0:
313,81,46084,1,0,0:0:0:0:
45,30,46400,5,0,0:0:0:0:
313,81,46558,1,0,0:0:0:0:
41,186,46716,1,0,0:0:0:0:
198,4,46874,1,0,0:0:0:0:
250,256,47032,1,0,0:0:0:0:
250,256,47111,1,0,0:0:0:0:
250,256,47190,1,0,0:0:0:0:
161,146,47348,1,0,0:0:0:0:
70,289,47506,6,0,P|107:252|177:223,1,119.999996337891
165,328,47979,1,0,0:0:0:0:
285,283,48137,2,0,L|278:207,1,59.9999981689454
265,120,48453,1,0,0:0:0:0:
394,170,48611,6,0,L|318:166,1,59.9999981689454
189,153,48927,1,0,0:0:0:0:
279,223,49084,1,0,0:0:0:0:
341,96,49242,1,0,0:0:0:0:
190,176,49400,2,0,L|194:257,1,59.9999981689454
265,120,49716,2,0,L|267:60,1,59.9999981689454
103,264,50032,6,0,P|127:302|217:338,1,119.999996337891
192,235,50506,1,0,0:0:0:0:
276,316,50663,2,0,L|270:386,1,59.9999981689454
192,235,50979,2,0,L|186:175,1,59.9999981689454
353,114,51295,5,0,0:0:0:0:
278,231,51453,1,0,0:0:0:0:
239,61,51611,1,0,0:0:0:0:
427,236,51769,2,0,L|274:229,1,150.000005722046
85,219,52242,1,0,0:0:0:0:
276,133,52400,1,0,0:0:0:0:
173,340,52558,6,0,L|179:243,1,85.0000016212464
125,97,52874,5,0,0:0:0:0:
249,300,53032,1,0,0:0:0:0:
218,60,53190,5,0,0:0:0:0:
85,219,53348,1,0,0:0:0:0:
306,181,53506,5,0,0:0:0:0:
102,81,53663,1,0,0:0:0:0:
64,337,53821,6,0,L|170:327,1,85.0000016212464
306,181,54137,5,0,0:0:0:0:
215,372,54295,1,0,0:0:0:0:
194,148,54453,5,0,0:0:0:0:
402,250,54611,1,0,0:0:0:0:
148,329,54769,5,0,0:0:0:0:
271,102,54927,1,0,0:0:0:0:
386,358,55084,6,0,L|289:355,1,85.0000016212464
76,380,55400,5,0,0:0:0:0:
270,188,55558,1,0,0:0:0:0:
35,244,55716,5,0,0:0:0:0:
221,384,55874,1,0,0:0:0:0:
192,118,56032,5,0,0:0:0:0:
7,328,56190,1,0,0:0:0:0:
312,270,56348,6,0,L|304:168,1,85.0000016212464
365,45,56663,5,0,0:0:0:0:
214,213,56821,1,0,0:0:0:0:
228,11,56979,5,0,0:0:0:0:
432,145,57137,2,0,L|366:139,1,42.5000008106232
139,153,57295,1,0,0:0:0:0:
163,133,57373,1,0,0:0:0:0:
192,118,57452,1,0,0:0:0:0:
223,111,57531,1,0,0:0:0:0:
254,110,57610,5,0,0:0:0:0:
187,230,57769,1,0,0:0:0:0:
102,58,57927,1,0,0:0:0:0:
81,274,58084,5,0,0:0:0:0:
281,185,58242,1,0,0:0:0:0:
224,330,58400,1,0,0:0:0:0:
83,173,58558,5,0,0:0:0:0:
287,267,58716,1,0,0:0:0:0:
139,345,58874,1,0,0:0:0:0:
199,116,59032,5,0,0:0:0:0:
239,359,59190,1,0,0:0:0:0:
81,274,59348,1,0,0:0:0:0:
317,267,59506,5,0,0:0:0:0:
126,196,59663,1,0,0:0:0:0:
362,179,59821,5,0,0:0:0:0:
153,325,59979,1,0,0:0:0:0:
233,119,60137,6,0,L|229:172,1,42.5000008106232
351,309,60295,2,0,L|347:266,1,42.5000008106232
193,130,60453,6,0,L|202:182,1,42.5000008106232
405,300,60611,2,0,L|390:259,1,42.5000008106232
154,152,60769,5,0,0:0:0:0:
438,286,60927,1,0,0:0:0:0:
153,353,61084,1,0,0:0:0:0:
322,84,61242,5,0,0:0:0:0:
153,353,61558,1,0,0:0:0:0:
322,84,61716,1,0,0:0:0:0:
14,247,62190,5,0,0:0:0:0:
14,247,62269,1,0,0:0:0:0:
14,247,62348,2,0,P|52:233|113:231,1,89.9999972534181
185,243,62663,6,0,L|178:102,1,127.50000243187
174,30,62979,2,0,P|224:37|272:34,1,85.0000016212464
428,15,63295,1,0,0:0:0:0:
308,170,63453,1,0,0:0:0:0:
326,0,63611,1,0,0:0:0:0:
493,92,63769,1,0,0:0:0:0:
300,254,63927,6,0,L|309:156,1,85.0000016212464
303,353,64242,2,0,P|276:349|219:308,1,85.0000016212464
145,210,64558,2,0,P|186:214|227:201,1,85.0000016212464
67,142,64874,2,0,P|42:176|32:217,1,85.0000016212464
130,345,65190,6,0,B|192:357|227:319|227:319|196:292|141:296,1,170.000003242493
50,314,65663,1,0,0:0:0:0:
121,74,65821,1,0,0:0:0:0:
170,225,65979,1,0,0:0:0:0:
0,94,66137,1,0,0:0:0:0:
215,19,66295,6,0,P|317:8|402:36,1,170.000003242493
425,234,66769,1,0,0:0:0:0:
292,110,66927,1,0,0:0:0:0:
484,69,67084,2,0,L|473:178,1,85.0000016212464
451,342,67400,1,0,0:0:0:0:
236,200,67558,6,0,B|287:184|330:213|330:213|298:245|249:233,1,170.000003242493
55,326,68032,2,0,P|95:302|166:295,1,85.0000016212464
277,341,68348,1,0,0:0:0:0:
151,173,68506,1,0,0:0:0:0:
122,377,68663,1,0,0:0:0:0:
283,164,68821,6,0,P|256:113|141:53,1,170.000003242493
248,278,69295,1,0,0:0:0:0:
375,94,69453,1,0,0:0:0:0:
23,164,69611,2,0,L|173:174,1,127.50000243187
220,205,69927,2,0,L|70:215,1,127.50000243187
32,269,70242,5,0,0:0:0:0:
97,98,70400,1,0,0:0:0:0:
173,325,70558,1,0,0:0:0:0:
187,120,70716,5,0,0:0:0:0:
92,213,70874,1,0,0:0:0:0:
269,85,71032,5,0,0:0:0:0:
305,264,71190,1,0,0:0:0:0:
108,20,71348,6,0,L|218:24,1,85.0000016212464
430,104,71663,1,0,0:0:0:0:
393,82,71741,1,0,0:0:0:0:
352,71,71820,1,0,0:0:0:0:
310,72,71899,1,0,0:0:0:0:
269,85,71978,1,0,0:0:0:0:
234,108,72057,1,0,0:0:0:0:
207,141,72137,5,0,0:0:0:0:
206,156,72215,1,0,0:0:0:0:
205,172,72294,1,0,0:0:0:0:
204,188,72373,1,0,0:0:0:0:
203,204,72453,6,0,L|199:281,1,42.5000008106232
360,355,72611,2,0,L|357:312,1,42.5000008106232
114,316,72769,6,0,P|158:344|257:351,1,127.50000243187
282,287,73084,2,0,L|284:184,1,85.0000016212464
421,52,73400,1,0,0:0:0:0:
365,201,73558,1,0,0:0:0:0:
279,0,73716,1,0,0:0:0:0:
497,126,73874,1,0,0:0:0:0:
208,195,74032,6,0,L|84:187,1,85.0000016212464
228,289,74348,2,0,P|276:256|299:222,1,85.0000016212464
260,71,74663,2,0,P|264:129|282:165,1,85.0000016212464
432,207,74979,2,0,P|379:181|338:179,1,85.0000016212464
390,371,75295,6,0,B|412:312|370:262|370:262|369:301|342:348,1,170.000003242493
216,384,75769,2,0,L|284:378,1,42.5000008106232
140,259,75927,1,0,0:0:0:0:
110,271,76005,1,0,0:0:0:0:
84,290,76084,1,0,0:0:0:0:
64,314,76163,1,0,0:0:0:0:
49,342,76242,1,0,0:0:0:0:
224,312,76400,6,0,P|243:268|237:194,1,85.0000016212464
152,107,76716,1,0,0:0:0:0:
152,107,76795,1,0,0:0:0:0:
152,107,76874,1,0,0:0:0:0:
289,48,77032,1,0,0:0:0:0:
307,57,77110,1,0,0:0:0:0:
327,65,77189,1,0,0:0:0:0:
348,70,77268,1,0,0:0:0:0:
369,74,77347,1,0,0:0:0:0:
390,75,77426,1,0,0:0:0:0:
413,72,77506,5,0,0:0:0:0:
385,88,77584,1,0,0:0:0:0:
363,111,77663,1,0,0:0:0:0:
347,139,77742,1,0,0:0:0:0:
339,169,77821,5,0,0:0:0:0:
341,327,77979,1,0,0:0:0:0:
461,187,78137,5,0,0:0:0:0:
227,259,78295,1,0,0:0:0:0:
439,372,78453,5,0,0:0:0:0:
264,127,78611,1,0,0:0:0:0:
241,371,78769,5,0,0:0:0:0:
474,282,78927,1,0,0:0:0:0:
188,174,79084,5,0,0:0:0:0:
341,364,79242,1,0,0:0:0:0:
340,105,79400,5,0,0:0:0:0:
157,313,79558,1,0,0:0:0:0:
417,200,79716,5,0,0:0:0:0:
157,85,79874,1,0,0:0:0:0:
485,90,80032,5,0,0:0:0:0:
231,293,80190,1,0,0:0:0:0:
364,26,80348,5,0,0:0:0:0:
460,322,80506,1,0,0:0:0:0:
145,205,80663,5,0,0:0:0:0:
480,59,80821,1,0,0:0:0:0:
296,369,80979,5,0,0:0:0:0:
223,23,81137,1,0,0:0:0:0:
507,195,81295,1,0,0:0:0:0:
108,337,81453,6,0,B|62:358|11:329|11:329|43:300|103:295,1,170.000003242493
298,178,81927,2,0,P|244:162|208:133,1,85.0000016212464
408,104,82242,1,0,0:0:0:0:
420,144,82320,1,0,0:0:0:0:
422,186,82399,1,0,0:0:0:0:
415,228,82478,1,0,0:0:0:0:
402,258,82558,5,0,0:0:0:0:
394,278,82636,1,0,0:0:0:0:
387,298,82715,1,0,0:0:0:0:
381,318,82794,1,0,0:0:0:0:
377,341,82874,6,0,P|322:320|214:334,1,150.000005722046
128,356,83348,1,0,0:0:0:0:
223,224,83506,6,0,P|168:245|60:231,1,150.000005722046
21,146,83979,1,0,0:0:0:0:
50,53,84137,1,0,0:0:0:0:
142,163,84295,1,0,0:0:0:0:
134,57,84453,1,0,0:0:0:0:
21,146,84611,1,0,0:0:0:0:
240,58,84769,5,0,0:0:0:0:
159,269,84927,1,0,0:0:0:0:
506,142,85242,6,0,P|446:113|347:113,1,150
283,140,85558,1,0,0:0:0:0:
273,305,85716,1,0,0:0:0:0:
385,205,85874,1,0,0:0:0:0:
407,371,86032,1,0,0:0:0:0:
225,214,86190,1,0,0:0:0:0:
506,142,86348,1,0,0:0:0:0:
265,384,86506,6,0,L|117:376,1,127.50000243187
53,371,86821,1,0,0:0:0:0:
88,199,86979,1,0,0:0:0:0:
148,294,87137,1,0,0:0:0:0:
236,134,87295,1,0,0:0:0:0:
236,134,87374,1,0,0:0:0:0:
236,134,87453,1,0,0:0:0:0:
24,128,87611,1,0,0:0:0:0:
255,296,87769,1,0,0:0:0:0:
255,296,87848,1,0,0:0:0:0:
255,296,87927,6,0,L|369:293,1,85.0000016212464
489,192,88242,5,0,0:0:0:0:
389,373,88400,1,0,0:0:0:0:
338,125,88558,5,0,0:0:0:0:
507,309,88716,1,0,0:0:0:0:
175,296,88874,5,0,0:0:0:0:
407,80,89032,1,0,0:0:0:0:
435,368,89190,5,0,0:0:0:0:
222,125,89348,1,0,0:0:0:0:
485,106,89506,5,0,0:0:0:0:
301,318,89663,1,0,0:0:0:0:
308,21,89821,5,0,0:0:0:0:
512,205,89979,1,0,0:0:0:0:
186,257,90137,5,0,0:0:0:0:
407,42,90295,1,0,0:0:0:0:
411,328,90453,5,0,0:0:0:0:
221,85,90611,1,0,0:0:0:0:
210,362,90769,1,0,0:0:0:0:
389,192,90927,5,0,0:0:0:0:
118,156,91084,1,0,0:0:0:0:
317,365,91242,1,0,0:0:0:0:
300,101,91400,5,0,0:0:0:0:
52,333,91558,2,0,P|94:300|148:285,1,85.0000016212464
297,229,91874,1,0,0:0:0:0:
271,241,91952,1,0,0:0:0:0:
249,259,92031,1,0,0:0:0:0:
232,281,92110,1,0,0:0:0:0:
219,306,92189,1,0,0:0:0:0:
212,334,92268,1,0,0:0:0:0:
210,362,92348,6,0,L|289:354,1,42.5000008106232
397,293,92506,2,0,L|318:285,1,42.5000008106232
467,381,92663,2,0,P|498:338|500:244,1,127.50000243187
451,205,92979,6,0,L|447:75,1,127.50000243187
383,26,93295,2,0,P|339:48|282:56,1,85.0000016212464
119,41,93611,1,0,0:0:0:0:
216,1,93769,1,0,0:0:0:0:
261,135,93927,2,0,L|249:249,1,85.0000016212464
89,129,94242,6,0,L|80:44,1,85.0000016212464
167,178,94558,1,0,0:0:0:0:
25,262,94716,2,0,P|90:223|198:231,1,170.000003242493
293,334,95190,1,0,0:0:0:0:
110,384,95348,1,0,0:0:0:0:
110,384,95427,1,0,0:0:0:0:
110,384,95506,6,0,L|120:286,1,85.0000016212464
135,108,95821,1,0,0:0:0:0:
266,233,95979,2,0,L|156:222,1,85.0000016212464
239,35,96295,1,0,0:0:0:0:
239,35,96374,1,0,0:0:0:0:
239,35,96453,1,0,0:0:0:0:
340,169,96611,1,0,0:0:0:0:
340,169,96690,1,0,0:0:0:0:
340,169,96769,5,0,0:0:0:0:
133,143,96927,1,0,0:0:0:0:
324,17,97084,1,0,0:0:0:0:
266,233,97242,2,0,L|254:343,1,85.0000016212464
43,226,97558,1,0,0:0:0:0:
56,197,97636,1,0,0:0:0:0:
77,173,97715,1,0,0:0:0:0:
103,154,97794,1,0,0:0:0:0:
133,143,97874,2,0,L|200:150,1,42.5000008106232
324,17,98032,6,0,L|223:22,1,85.0000016212464
358,103,98348,2,0,P|404:67|421:22,1,85.0000016212464
269,94,98663,1,0,0:0:0:0:
370,194,98821,1,0,0:0:0:0:
171,196,98979,2,0,L|282:195,1,85.0000016212464
422,275,99295,6,0,B|377:291|317:276|317:276|340:313|388:314,1,170.000003242493
376,109,99769,2,0,L|369:207,1,85.0000016212464
263,358,100084,1,0,0:0:0:0:
246,335,100162,1,0,0:0:0:0:
225,315,100241,1,0,0:0:0:0:
202,299,100320,1,0,0:0:0:0:
177,286,100399,1,0,0:0:0:0:
150,277,100478,1,0,0:0:0:0:
122,273,100557,5,0,0:0:0:0:
40,343,100716,1,0,0:0:0:0:
42,185,100874,1,0,0:0:0:0:
135,366,101032,1,0,0:0:0:0:
181,146,101190,1,0,0:0:0:0:
0,264,101348,1,0,0:0:0:0:
259,219,101506,1,0,0:0:0:0:
86,57,101663,1,0,0:0:0:0:
122,273,101821,5,0,0:0:0:0:
246,41,101979,1,0,0:0:0:0:
367,237,102137,1,0,0:0:0:0:
129,142,102295,1,0,0:0:0:0:
129,142,102374,1,0,0:0:0:0:
129,142,102453,1,0,0:0:0:0:
167,123,102531,1,0,0:0:0:0:
208,114,102610,1,0,0:0:0:0:
250,113,102689,1,0,0:0:0:0:
292,123,102769,5,0,0:0:0:0:
343,138,102848,1,0,0:0:0:0:
395,143,102927,1,0,0:0:0:0:
448,137,103006,1,0,0:0:0:0:
496,117,103084,6,0,P|438:98|406:326,1,400
473,344,104427,2,0,B|421:371|337:336|371:314|278:301|216:348,1,250
46,49,106084,5,0,0:0:0:0:
256,192,106163,12,0,111058,0:0:0:0:
