osu file format v14

[General]
AudioFilename: audio.mp3
AudioLeadIn: 0
PreviewTime: 58568
Countdown: 0
SampleSet: Soft
StackLeniency: 0.7
Mode: 0
LetterboxInBreaks: 0
WidescreenStoryboard: 1

[Editor]
DistanceSpacing: 1.1
BeatDivisor: 2
GridSize: 4
TimelineZoom: 1

[Metadata]
Title:Reason!!
TitleUnicode:Reason!!
Artist:315 STARS (DRAMATIC STARS, Beit, S.E.M, High x Joker, W, Jupiter)
ArtistUnicode:315 STARS(DRAMATIC STARS、Beit、S.E.M、High✕Joker、W、Jupiter)
Creator:Amamiya Kanade
Version:HS
Source:アイドルマスター SideM
Tags:DRAMATIC STARS 天道輝 仲村宗悟 桜庭薫 内田雄馬 柏木翼 八代拓 Beit 鷹城恭二 梅原裕一郎 ピエール 堀江瞬 渡辺みのり 高塚智人 S.E.M 硲道夫 伊東健人 舞田類 榎木淳弥 山下次郎 中島ヨシキ High×Joker 伊瀬谷四季 野上翔 秋山隼人 千葉翔也 若里春名 白井悠介 冬美旬 永塚拓馬 榊夏来 渡辺紘 W 蒼井享介 山谷祥生 蒼井悠介 菊池勇成 Jupiter 天ヶ瀬冬馬 寺島拓篤 御手洗翔太 松岡禎丞 伊集院北斗 神原大地 EFFY SHINTA-LOW Arte Refact 佐々木裕 ランティス 松井洋平 真崎エリカ 結城アイラ 脇眞富 Lobelia [ Abhor ] Sandrew _Star Ryuusei Aika
BeatmapID:2490193
BeatmapSetID:683384

[Difficulty]
HPDrainRate:6
CircleSize:4
OverallDifficulty:8.7
ApproachRate:9.3
SliderMultiplier:1.8
SliderTickRate:1

[Events]
//Background and Video events
0,0,"bg6.png",0,0
//Break Periods
//Storyboard Layer 0 (Background)
//Storyboard Layer 1 (Fail)
//Storyboard Layer 2 (Pass)
//Storyboard Layer 3 (Foreground)
//Storyboard Layer 4 (Overlay)
//Storyboard Sound Samples

[TimingPoints]
-10,315.789473684211,4,2,1,100,1,0

[HitObjects]
199,167,1253,5,2,0:0:0:0:
199,167,2358,1,2,0:0:0:0:
199,167,3779,1,2,0:0:0:0:
199,167,4884,1,2,0:0:0:0:
355,45,5358,1,2,3:0:0:0:
355,45,5674,1,2,3:0:0:0:
355,45,5990,1,2,3:0:0:0:
426,229,6305,1,4,2:0:0:0:
426,229,7568,1,4,2:0:0:0:
388,140,8832,1,4,2:0:0:0:
388,140,9147,1,2,0:0:0:0:
388,140,9463,1,2,0:0:0:0:
388,140,9621,1,2,0:0:0:0:
388,140,9778,1,2,0:0:0:0:
388,140,9936,1,2,0:0:0:0:
300,187,10095,5,4,0:0:0:0:
246,144,11358,1,2,3:0:0:0:
181,173,12463,1,0,3:0:0:0:
266,200,12621,1,8,3:0:0:0:
266,200,13095,1,8,3:0:0:0:
266,200,13568,1,8,3:0:0:0:
181,173,13884,1,4,2:0:0:0:
266,200,14200,1,8,3:0:0:0:
181,173,14516,1,0,3:0:0:0:
181,173,14674,1,0,3:0:0:0:
266,200,14832,1,8,3:0:0:0:
181,173,15147,1,4,2:0:0:0:
181,173,15305,1,0,3:0:0:0:
266,200,15463,1,8,3:0:0:0:
181,173,15621,1,0,3:0:0:0:
181,173,15937,1,0,3:0:0:0:
266,200,16095,1,8,3:0:0:0:
181,173,16411,1,4,2:0:0:0:
181,173,16569,1,0,3:0:0:0:
266,200,16727,1,8,3:0:0:0:
181,173,16885,1,0,3:0:0:0:
181,173,17200,1,0,3:0:0:0:
266,200,17358,1,8,3:0:0:0:
181,173,17674,1,4,2:0:0:0:
181,173,17832,1,0,3:0:0:0:
286,198,17990,1,8,3:0:0:0:
286,198,18147,1,8,3:0:0:0:
235,112,18463,1,0,3:0:0:0:
413,197,18621,1,8,3:0:0:0:
363,5,18937,5,4,2:0:0:0:
302,193,19253,1,8,3:0:0:0:
465,81,19568,1,0,3:0:0:0:
465,81,19726,1,0,3:0:0:0:
302,193,19884,1,8,3:0:0:0:
181,173,20200,1,4,2:0:0:0:
181,173,20358,1,0,3:0:0:0:
266,200,20516,1,8,3:0:0:0:
181,173,20674,1,0,3:0:0:0:
181,173,20989,1,0,3:0:0:0:
266,200,21147,1,8,3:0:0:0:
292,57,21463,1,4,2:0:0:0:
365,142,21779,1,8,3:0:0:0:
365,142,22095,1,8,3:0:0:0:
365,142,22411,1,8,3:0:0:0:
167,142,22726,1,8,3:0:0:0:
167,142,22884,1,8,3:0:0:0:
167,142,23042,1,0,3:0:0:0:
167,142,23200,1,8,3:0:0:0:
167,142,23516,1,0,3:0:0:0:
167,142,23674,1,8,3:0:0:0:
345,101,23990,5,4,2:0:0:0:
338,298,24305,5,8,1:0:0:0:
338,298,24937,5,8,1:0:0:0:
338,298,25568,5,8,1:0:0:0:
338,298,26200,5,8,1:0:0:0:
345,101,26516,5,4,2:0:0:0:
338,298,26832,5,8,1:0:0:0:
338,298,27464,5,8,1:0:0:0:
338,298,28095,5,8,1:0:0:0:
338,298,28727,5,8,1:0:0:0:
345,101,29042,5,4,2:0:0:0:
338,298,29358,5,8,1:0:0:0:
338,298,29990,5,8,1:0:0:0:
338,298,30621,5,8,1:0:0:0:
338,298,31253,5,8,1:0:0:0:
345,101,31568,5,4,2:0:0:0:
338,298,31884,5,8,1:0:0:0:
338,298,32200,5,8,1:0:0:0:
338,298,32516,5,8,1:0:0:0:
345,101,32832,5,4,2:0:0:0:
181,173,33621,1,0,3:0:0:0:
266,200,33779,1,8,3:0:0:0:
181,173,34095,1,4,2:0:0:0:
266,200,34411,1,8,3:0:0:0:
181,173,34726,1,0,3:0:0:0:
181,173,34884,1,0,3:0:0:0:
266,200,35042,1,8,3:0:0:0:
181,173,35358,1,0,3:0:0:0:
266,200,35674,1,8,3:0:0:0:
181,173,35990,1,0,3:0:0:0:
181,173,36147,1,0,3:0:0:0:
266,200,36305,1,8,3:0:0:0:
391,46,36621,5,4,2:0:0:0:
266,200,36937,1,8,3:0:0:0:
181,173,37253,1,0,3:0:0:0:
181,173,37411,1,0,3:0:0:0:
266,200,37568,1,8,3:0:0:0:
266,200,37884,1,8,3:0:0:0:
266,200,38358,1,8,3:0:0:0:
266,200,38832,1,8,3:0:0:0:
435,98,39147,5,4,2:0:0:0:
244,151,39463,1,8,3:0:0:0:
181,173,39779,1,0,3:0:0:0:
181,173,39937,1,0,3:0:0:0:
244,151,40095,1,8,3:0:0:0:
435,98,40411,5,0,3:0:0:0:
244,151,40726,1,8,3:0:0:0:
181,173,41042,1,0,3:0:0:0:
181,173,41200,1,0,3:0:0:0:
244,151,41358,1,8,3:0:0:0:
419,58,41674,1,4,2:0:0:0:
419,58,41990,1,8,3:0:0:0:
419,58,42305,1,8,3:0:0:0:
419,58,42621,1,8,3:0:0:0:
244,151,42779,1,8,3:0:0:0:
273,153,43095,5,8,3:0:0:0:
273,153,43253,1,8,3:0:0:0:
273,153,43411,1,8,3:0:0:0:
273,153,43568,1,8,3:0:0:0:
117,240,44200,5,4,2:0:0:0:
286,137,44832,1,8,1:0:0:0:
248,188,45463,1,8,1:0:0:0:
248,188,45779,1,8,1:0:0:0:
248,188,46095,1,8,1:0:0:0:
117,240,46726,5,4,2:0:0:0:
286,137,47358,1,8,1:0:0:0:
248,188,47989,1,8,1:0:0:0:
248,188,48305,1,8,1:0:0:0:
248,188,48621,1,8,1:0:0:0:
99,56,49253,1,2,3:0:0:0:
490,114,49568,1,8,3:0:0:0:
295,78,49884,1,8,3:0:0:0:
489,113,50200,1,8,3:0:0:0:
99,56,50516,1,2,3:0:0:0:
490,114,50831,1,8,3:0:0:0:
295,78,51147,1,8,3:0:0:0:
489,113,51463,1,8,3:0:0:0:
311,200,51779,5,2,3:0:0:0:
489,113,52095,1,8,3:0:0:0:
181,173,52411,1,2,3:0:0:0:
181,173,52568,1,2,3:0:0:0:
489,113,52726,1,8,3:0:0:0:
181,173,53042,1,2,3:0:0:0:
489,113,53358,1,8,3:0:0:0:
181,173,53674,1,2,3:0:0:0:
181,173,53832,1,2,3:0:0:0:
489,113,53990,1,8,3:0:0:0:
292,130,54305,5,2,3:0:0:0:
292,130,54779,5,2,3:0:0:0:
292,130,55253,5,2,3:0:0:0:
292,130,55726,5,2,3:0:0:0:
292,130,56200,5,2,3:0:0:0:
292,130,56516,5,2,3:0:0:0:
292,130,56832,5,4,2:0:0:0:
292,130,57147,5,0,3:0:0:0:
292,130,57463,5,0,3:0:0:0:
292,130,57779,5,0,3:0:0:0:
292,130,57937,1,8,3:0:0:0:
292,130,58253,1,8,3:0:0:0:
292,130,58411,1,8,3:0:0:0:
292,130,58884,5,0,3:0:0:0:
292,130,59042,1,8,3:0:0:0:
488,185,59358,5,4,2:0:0:0:
292,130,59674,1,8,3:0:0:0:
98,89,59990,1,2,3:0:0:0:
98,89,60147,1,2,3:0:0:0:
292,130,60305,1,8,3:0:0:0:
98,89,60621,1,2,3:0:0:0:
292,130,60937,1,8,3:0:0:0:
98,89,61253,1,2,3:0:0:0:
98,89,61411,1,2,3:0:0:0:
292,130,61568,1,8,3:0:0:0:
488,185,61884,5,4,2:0:0:0:
292,130,62200,1,8,3:0:0:0:
97,166,62516,1,2,3:0:0:0:
97,166,62674,1,2,3:0:0:0:
97,166,62832,1,2,3:0:0:0:
97,166,62990,1,8,3:0:0:0:
292,130,63305,5,0,3:0:0:0:
292,130,63463,1,8,3:0:0:0:
292,130,63779,1,4,2:0:0:0:
245,135,64253,1,4,2:0:0:0:
313,136,64726,1,8,3:0:0:0:
292,130,65042,5,2,3:0:0:0:
292,130,65200,5,2,3:0:0:0:
313,136,65358,1,8,3:0:0:0:
292,130,65674,5,2,3:0:0:0:
313,136,65990,1,8,3:0:0:0:
98,89,66305,1,2,3:0:0:0:
98,89,66463,1,2,3:0:0:0:
184,284,66621,1,8,3:0:0:0:
147,89,66937,1,4,2:0:0:0:
147,89,67411,1,4,2:0:0:0:
292,130,67726,5,0,3:0:0:0:
184,284,67884,1,4,2:0:0:0:
292,130,68200,5,2,3:0:0:0:
184,284,68358,1,2,3:0:0:0:
184,284,68516,1,8,3:0:0:0:
292,130,68832,5,2,3:0:0:0:
184,284,68990,1,2,3:0:0:0:
184,284,69148,1,8,3:0:0:0:
326,147,69463,5,4,2:0:0:0:
184,284,69779,1,8,3:0:0:0:
292,130,70095,5,2,3:0:0:0:
184,284,70253,1,2,3:0:0:0:
184,284,70411,1,8,3:0:0:0:
292,130,70726,5,2,3:0:0:0:
184,284,71042,1,8,3:0:0:0:
292,130,71358,5,0,3:0:0:0:
292,130,71516,5,0,3:0:0:0:
184,284,71674,1,8,3:0:0:0:
202,86,71990,1,4,2:0:0:0:
184,284,72305,1,8,3:0:0:0:
184,284,72621,1,8,3:0:0:0:
184,284,72779,1,8,3:0:0:0:
184,284,72937,1,8,3:0:0:0:
202,86,73095,1,4,2:0:0:0:
202,86,73411,1,0,3:0:0:0:
184,284,73569,1,8,3:0:0:0:
184,284,73884,1,8,3:0:0:0:
184,284,74042,1,8,3:0:0:0:
184,284,74200,1,8,3:0:0:0:
333,153,74516,5,4,2:0:0:0:
169,40,74832,1,8,3:0:0:0:
292,130,75147,5,2,3:0:0:0:
292,130,75305,5,2,3:0:0:0:
169,40,75463,1,8,3:0:0:0:
292,130,75779,5,0,3:0:0:0:
169,40,76095,1,8,3:0:0:0:
104,223,76411,1,2,3:0:0:0:
104,223,76568,1,2,3:0:0:0:
169,40,76726,1,8,3:0:0:0:
333,153,77042,5,4,2:0:0:0:
169,40,77358,1,8,3:0:0:0:
292,130,77674,5,0,3:0:0:0:
292,130,77832,5,0,3:0:0:0:
169,40,77989,1,8,3:0:0:0:
292,130,78147,5,4,2:0:0:0:
169,40,78621,1,8,3:0:0:0:
104,223,78937,1,2,3:0:0:0:
104,223,79094,1,2,3:0:0:0:
169,40,79252,1,8,3:0:0:0:
104,223,79568,5,4,2:0:0:0:
104,223,80042,1,2,3:0:0:0:
201,203,80200,1,8,3:0:0:0:
104,223,80674,1,2,3:0:0:0:
104,223,80832,1,2,3:0:0:0:
104,223,81463,1,0,3:0:0:0:
104,223,81621,1,0,3:0:0:0:
248,87,81937,1,4,2:0:0:0:
34,293,82411,1,8,3:0:0:0:
34,293,82726,1,8,3:0:0:0:
34,293,83042,1,8,3:0:0:0:
34,293,83358,1,8,3:0:0:0:
34,293,83674,1,8,3:0:0:0:
34,293,83990,1,2,3:0:0:0:
34,293,84147,1,2,3:0:0:0:
34,293,84305,1,8,3:0:0:0:
248,87,84621,1,4,2:0:0:0:
34,293,84937,1,8,3:0:0:0:
34,293,85252,1,8,3:0:0:0:
34,293,85568,1,8,3:0:0:0:
34,293,85884,1,8,3:0:0:0:
34,293,86200,1,8,3:0:0:0:
34,293,86516,1,2,2:0:0:0:
34,293,86673,1,2,2:0:0:0:
34,293,86831,1,8,3:0:0:0:
196,180,87147,5,4,2:0:0:0:
