osu file format v14

[General]
AudioFilename: audio.mp3
AudioLeadIn: 0
PreviewTime: 205388
Countdown: 1
SampleSet: Soft
StackLeniency: 0.7
Mode: 0
LetterboxInBreaks: 0
WidescreenStoryboard: 0

[Editor]
DistanceSpacing: 1.5
BeatDivisor: 4
GridSize: 8
TimelineZoom: 1

[Metadata]
Title:Tabidachi no Uta
TitleUnicode:Tabidachi no Uta
Artist:3-nen E-gumi Utatan
ArtistUnicode:3-nen E-gumi Utatan
Creator:Dron4ik_G
Version:Arigatou
Source:暗殺教室
Tags:Ansatsu Kyoushitsu, 暗殺教室, Assassination Classroom, Tabidachi no Uta, 3-nen E-gumi Utatan
BeatmapID:1175412
BeatmapSetID:555348

[Difficulty]
HPDrainRate:4
CircleSize:4
OverallDifficulty:3
ApproachRate:5
SliderMultiplier:1
SliderTickRate:2

[Events]
//Background and Video events
0,0,"Class-3-E-ansatsu-kyoushitsu-39753087-1000-703.jpg",0,0
//Break Periods
2,138388,140188
2,259988,280988
//Storyboard Layer 0 (Background)
//Storyboard Layer 1 (Fail)
//Storyboard Layer 2 (Pass)
//Storyboard Layer 3 (Foreground)
//Storyboard Sound Samples

[TimingPoints]
588.499356269836,800,4,2,0,50,1,0
77388,-83.3333333333333,4,2,0,70,0,0
141388,-66.6666666666667,4,2,0,70,0,0
205388,-66.6666666666667,4,2,0,88,0,1
256588,-83.3333333333333,4,2,0,70,0,0
282188,-66.6666666666667,4,2,0,88,0,1
333388,-83.3333333333333,4,2,0,70,0,0

[Colours]
Combo1 : 207,194,35
Combo2 : 255,128,0
Combo3 : 255,168,211
Combo4 : 207,46,50

[HitObjects]
128,96,588,6,0,P|128:128|144:160,1,50
133,144,1388,1,0,0:0:0:0:
176,232,2188,1,2,0:0:0:0:
248,168,2988,1,0,0:0:0:0:
352,192,3788,6,0,B|360:216|360:216|360:256,1,50
360,240,4588,1,0,0:0:0:0:
360,344,5388,1,2,0:0:0:0:
280,288,6188,1,0,0:0:0:0:
184,336,6988,5,0,0:0:0:0:
160,328,7388,1,0,0:0:0:0:
144,304,7788,1,0,0:0:0:0:
112,192,8588,2,0,B|136:152|168:192|221:167,1,100,2|0,0:0|0:0,0:0:0:0:
305,108,10188,6,0,L|256:56,2,50
386,189,11788,1,2,0:0:0:0:
328,280,12588,2,0,P|288:304|233:281,1,100
151,229,14188,1,0,0:0:0:0:
261,210,14988,1,2,0:0:0:0:
173,143,15788,1,0,0:0:0:0:
248,69,16588,1,2,0:0:0:0:
256,192,16788,12,0,19388,0:0:0:0:
192,64,19788,5,0,0:0:0:0:
280,64,20188,1,0,0:0:0:0:
368,64,20588,1,0,0:0:0:0:
368,144,20988,2,0,L|368:176,1,25
368,192,21388,1,0,0:0:0:0:
448,192,21788,2,0,P|440:224|440:256,1,50
416,312,22588,2,0,L|384:296,1,25
393,300,22988,5,0,0:0:0:0:
312,280,23388,1,0,0:0:0:0:
256,216,23788,1,0,0:0:0:0:
180,200,24188,1,0,0:0:0:0:
145,130,24588,2,0,P|105:186|105:226,1,100
103,215,26188,5,0,0:0:0:0:
176,248,26588,2,0,B|200:264|240:264,1,50
320,240,27388,1,0,0:0:0:0:
416,256,27788,1,0,0:0:0:0:
424,96,28588,2,0,P|416:48|360:48,1,100
294,70,29788,5,0,0:0:0:0:
217,114,30188,1,0,0:0:0:0:
176,184,30588,1,0,0:0:0:0:
127,252,30988,2,0,P|95:204|103:156,1,100
152,56,32588,6,0,L|207:63,1,50
192,152,33388,2,0,L|255:132,1,50
328,107,34188,2,0,L|336:64,2,25
304,184,34988,1,0,0:0:0:0:
382,216,35388,1,0,0:0:0:0:
352,304,35788,2,0,L|304:283,1,50
240,240,36588,1,0,0:0:0:0:
216,168,36988,1,0,0:0:0:0:
216,168,37388,6,0,P|184:184|168:208,1,50
240,240,38188,2,0,P|216:264|192:272,1,50
128,280,38988,2,0,P|104:256|96:224,1,50
170,200,39788,1,0,0:0:0:0:
178,117,40188,1,0,0:0:0:0:
232,56,40588,5,0,0:0:0:0:
315,63,40988,1,0,0:0:0:0:
268,135,41388,1,0,0:0:0:0:
347,143,41788,1,0,0:0:0:0:
417,185,42188,2,0,P|425:225|409:281,1,100
352,232,43388,1,0,0:0:0:0:
352,232,43588,2,0,P|320:272|248:288,1,125
256,152,45388,6,0,P|200:152|152:184,1,100
136,200,46388,1,0,0:0:0:0:
96,216,46588,1,0,0:0:0:0:
56,216,46788,1,0,0:0:0:0:
18,209,46988,2,0,P|2:185|10:151,1,50
22,79,47788,1,0,0:0:0:0:
115,74,48188,1,0,0:0:0:0:
192,120,48588,6,0,P|248:160|328:128,1,150
288,112,49988,1,0,0:0:0:0:
264,80,50188,2,0,P|312:56|368:72,1,100
352,147,51388,1,0,0:0:0:0:
432,184,51788,6,0,P|440:240|408:272,1,100
344,304,52988,2,0,L|320:264,1,25
331,282,53388,1,0,0:0:0:0:
288,184,53788,1,0,0:0:0:0:
207,233,54188,1,0,0:0:0:0:
136,176,54588,1,0,0:0:0:0:
136,176,54988,6,0,B|104:224|128:288,1,100
200,304,56188,2,0,L|227:315,2,25
122,271,56988,1,0,0:0:0:0:
64,200,57388,1,0,0:0:0:0:
96,120,57788,1,0,0:0:0:0:
184,80,58188,6,0,L|208:144,1,50
272,96,58988,2,0,L|296:152,1,50
360,112,59788,2,0,L|381:166,1,50
416,240,60588,1,0,0:0:0:0:
416,240,61388,6,0,P|408:270|386:286,1,50
320,320,62188,1,0,0:0:0:0:
248,280,62588,1,0,0:0:0:0:
179,333,62988,2,0,B|144:288|144:288|144:224,1,100
152,64,64588,38,0,B|176:64|176:64|209:68,1,50
288,80,65388,1,0,0:0:0:0:
288,168,65788,1,0,0:0:0:0:
368,192,66188,1,0,0:0:0:0:
368,280,66588,2,0,B|312:320,1,50
264,352,67388,1,0,0:0:0:0:
208,296,67788,2,0,B|184:232|64:272|48:184,1,200
96,72,70188,21,0,0:0:0:0:
184,88,70588,1,0,0:0:0:0:
272,104,70988,1,0,0:0:0:0:
160,232,71788,1,0,0:0:0:0:
192,152,72188,1,0,0:0:0:0:
224,80,72588,1,0,0:0:0:0:
192,304,73388,1,0,0:0:0:0:
128,248,73788,1,0,0:0:0:0:
64,192,74188,1,0,0:0:0:0:
64,192,74588,5,0,0:0:0:0:
142,148,74988,1,0,0:0:0:0:
200,216,75388,1,0,0:0:0:0:
240,224,75588,1,0,0:0:0:0:
264,248,75788,2,0,P|304:280|360:280,1,100
351,282,77388,1,0,0:0:0:0:
256,192,77588,12,0,82188,0:0:0:0:
304,232,82988,5,0,0:0:0:0:
296,192,83188,1,0,0:0:0:0:
272,160,83388,1,0,0:0:0:0:
200,112,83788,6,0,P|168:160|168:224,1,119.999996337891
192,312,84988,1,0,0:0:0:0:
192,312,85188,1,0,0:0:0:0:
192,312,85388,1,0,0:0:0:0:
248,248,85788,1,0,0:0:0:0:
304,312,86188,1,0,0:0:0:0:
336,224,86588,1,0,0:0:0:0:
336,224,86788,2,0,B|392:240|456:200|456:200|424:172,1,149.999995422363
344,96,88588,5,0,0:0:0:0:
265,108,88988,2,0,B|217:116|217:116|241:140,1,59.9999981689454
272,184,89788,1,0,0:0:0:0:
225,124,90188,2,0,B|190:153|152:144,1,59.9999981689454
88,152,90988,1,0,0:0:0:0:
56,264,91788,2,0,P|96:304|160:304,1,119.999996337891
248,256,93388,1,0,0:0:0:0:
280,280,93588,1,0,0:0:0:0:
320,288,93788,2,0,B|368:272|416:192|416:192|352:192,1,179.999994506836
256,192,95788,5,0,0:0:0:0:
176,152,96188,1,0,0:0:0:0:
104,192,96588,1,0,0:0:0:0:
104,192,97388,1,0,0:0:0:0:
176,152,97788,1,0,0:0:0:0:
256,192,98188,2,0,P|264:240|288:264,1,59.9999981689454
320,312,98988,1,0,0:0:0:0:
400,200,99788,5,0,0:0:0:0:
368,56,100588,1,0,0:0:0:0:
296,112,100988,1,0,0:0:0:0:
224,56,101388,1,0,0:0:0:0:
176,128,101788,2,0,B|152:152|112:136|96:160,1,59.9999981689454
119,146,102988,6,0,L|127:210,1,59.9999981689454
80,280,103788,2,0,P|136:296|200:256,1,119.999996337891
248,208,104988,1,0,0:0:0:0:
312,264,105388,1,0,0:0:0:0:
384,216,105788,1,0,0:0:0:0:
464,184,106188,6,0,B|384:80|336:184|312:104,1,179.999994506836
272,48,107788,2,0,P|240:88|272:168,1,119.999996337891
252,151,108788,1,0,0:0:0:0:
252,151,108988,1,0,0:0:0:0:
312,226,109388,6,0,P|240:242|192:202,1,119.999996337891
152,138,110588,1,0,0:0:0:0:
152,138,110788,1,0,0:0:0:0:
152,138,110988,1,0,0:0:0:0:
64,112,111388,1,0,0:0:0:0:
80,200,111788,2,0,P|96:240|128:256,1,59.9999981689454
136,264,112388,1,0,0:0:0:0:
168,280,112588,2,0,P|248:280|288:240,1,119.999996337891
384,112,114188,5,0,0:0:0:0:
304,80,114588,1,0,0:0:0:0:
244,145,114988,1,0,0:0:0:0:
159,134,115388,1,0,0:0:0:0:
104,192,115788,2,0,B|128:208|128:232|152:256,1,59.9999981689454
80,200,116588,2,0,B|112:216|96:256|152:296,1,119.999996337891
248,350,118188,1,0,0:0:0:0:
312,272,118988,5,0,0:0:0:0:
288,240,119188,1,0,0:0:0:0:
256,216,119388,2,0,B|144:144|280:128|288:224|160:176,1,179.999994506836
48,128,121388,6,0,P|40:160|16:200,1,59.9999981689454
27,183,122188,1,0,0:0:0:0:
192,104,122988,2,0,P|160:128|136:152,1,59.9999981689454
176,152,123788,2,0,P|160:192|152:224,1,59.9999981689454
155,208,124588,1,0,0:0:0:0:
400,112,125388,6,0,P|408:176|408:232,1,119.999996337891
336,272,126588,1,0,0:0:0:0:
408,328,126988,1,0,0:0:0:0:
408,328,127388,1,0,0:0:0:0:
408,328,127788,2,0,P|376:352|336:352,1,59.9999981689454
264,328,128588,2,0,P|248:272|280:192,1,119.999996337891
263,213,129788,1,0,0:0:0:0:
296,136,130988,5,0,0:0:0:0:
263,213,131388,1,0,0:0:0:0:
192,256,131788,2,0,P|136:280|72:280,1,119.999996337891
88,160,133388,2,0,P|152:120|200:96,1,119.999996337891
280,64,134588,1,0,0:0:0:0:
280,64,134788,1,0,0:0:0:0:
256,192,134988,12,0,138188,0:0:0:0:
128,64,141388,6,0,P|96:144|88:216,1,150.000005722046
80,320,142588,1,0,0:0:0:0:
80,320,142788,1,0,0:0:0:0:
408,136,143388,6,0,P|416:184|400:224,2,75.0000028610231
392,104,144388,1,0,0:0:0:0:
360,80,144588,2,0,B|304:48|304:48|328:112|304:232,1,225.000008583069
288,304,146188,1,0,0:0:0:0:
232,176,146988,1,0,0:0:0:0:
137,77,147788,5,0,0:0:0:0:
96,152,148188,1,0,0:0:0:0:
131,235,148588,1,0,0:0:0:0:
224,232,148988,1,0,0:0:0:0:
296,288,149388,2,0,P|368:304|424:256,3,150.000005722046
352,224,152188,1,0,0:0:0:0:
352,224,152588,2,0,P|288:200|216:264,1,150.000005722046
224,241,154188,6,0,P|264:168|328:104,1,150.000005722046
384,56,155788,1,0,0:0:0:0:
309,119,156188,1,0,0:0:0:0:
216,88,156588,1,0,0:0:0:0:
152,176,156988,1,0,0:0:0:0:
256,216,157388,2,0,B|288:248|352:264|344:336,1,150.000005722046
240,320,158588,1,0,0:0:0:0:
256,216,158988,5,0,0:0:0:0:
288,80,159388,1,0,0:0:0:0:
256,216,159788,1,0,0:0:0:0:
176,128,160188,1,0,0:0:0:0:
144,224,160588,2,0,B|88:200|88:200|152:288,1,150.000005722046
208,344,161788,1,0,0:0:0:0:
288,288,162188,5,0,0:0:0:0:
392,296,162588,1,0,0:0:0:0:
384,192,162988,1,0,0:0:0:0:
272,170,163388,1,0,0:0:0:0:
160,144,163788,2,0,B|176:304|72:88|128:256,1,150.000005722046
264,304,164988,1,0,0:0:0:0:
264,304,165188,2,0,B|312:304|312:304|272:168,1,187.500007152558
272,170,166988,5,0,0:0:0:0:
272,170,167788,1,0,0:0:0:0:
208,240,168188,1,0,0:0:0:0:
208,240,168388,1,0,0:0:0:0:
376,216,168988,1,0,0:0:0:0:
248,88,169388,1,0,0:0:0:0:
96,176,169788,1,0,0:0:0:0:
64,96,170188,6,0,P|136:88|216:136,1,150.000005722046
296,168,171388,1,0,0:0:0:0:
296,168,171588,2,0,B|320:120|320:120|272:176|216:216,1,187.500007152558
52,215,173388,6,0,L|132:215,1,75.0000028610231
128,320,174188,2,0,L|232:320,1,75.0000028610231
203,320,174788,1,0,0:0:0:0:
203,320,174988,1,0,0:0:0:0:
314,327,175388,2,0,L|314:239,1,75.0000028610231
312,176,176188,1,0,0:0:0:0:
185,25,176588,6,0,B|249:129|249:129|209:185|257:241,1,225.000008583069
280,200,177988,1,0,0:0:0:0:
312,176,178188,2,0,B|328:152|328:152|384:264,1,150.000005722046
382,260,179788,5,0,0:0:0:0:
416,184,180188,1,0,0:0:0:0:
328,168,180588,1,0,0:0:0:0:
384,104,180988,1,0,0:0:0:0:
304,80,181388,1,0,0:0:0:0:
240,136,181788,1,0,0:0:0:0:
224,56,182188,1,0,0:0:0:0:
112,144,182988,5,0,0:0:0:0:
136,224,183388,1,0,0:0:0:0:
216,256,183788,1,0,0:0:0:0:
200,168,184188,1,0,0:0:0:0:
248,96,184588,2,0,P|320:104|352:168,1,150.000005722046
344,248,186188,5,0,0:0:0:0:
400,312,186588,1,0,0:0:0:0:
424,232,186988,2,0,P|392:184|296:184,1,150.000005722046
224,144,188188,1,0,0:0:0:0:
144,176,188588,1,0,0:0:0:0:
64,152,188988,1,0,0:0:0:0:
88,240,189388,2,0,B|128:320|128:320|208:224|312:320,1,300.000011444092
216,352,191788,5,0,0:0:0:0:
328,232,192188,1,0,0:0:0:0:
360,88,192588,1,0,0:0:0:0:
293,336,193388,1,0,0:0:0:0:
338,190,193788,1,0,0:0:0:0:
294,49,194188,1,0,0:0:0:0:
360,298,194988,1,0,0:0:0:0:
326,149,195388,1,0,0:0:0:0:
217,49,195788,2,0,P|200:120|128:168,1,150.000005722046
108,82,196988,5,0,0:0:0:0:
58,130,197188,1,0,0:0:0:0:
48,200,197388,1,0,0:0:0:0:
48,200,198188,2,0,L|184:264,1,150.000005722046
280,304,199788,5,0,0:0:0:0:
304,312,200588,1,0,0:0:0:0:
336,296,201388,1,0,0:0:0:0:
352,264,202188,1,0,0:0:0:0:
352,224,202988,1,0,0:0:0:0:
320,192,203788,1,0,0:0:0:0:
320,192,204588,5,0,0:0:0:0:
312,112,204788,1,0,0:0:0:0:
392,88,204988,1,0,0:0:0:0:
392,88,205388,6,0,P|432:152|392:224,1,150.000005722046
352,160,206588,1,0,0:0:0:0:
288,208,206788,1,0,0:0:0:0:
216,176,206988,1,0,0:0:0:0:
88,96,207388,5,0,0:0:0:0:
80,216,207788,1,0,0:0:0:0:
184,304,208188,1,0,0:0:0:0:
184,304,208388,1,0,0:0:0:0:
184,304,208588,2,0,B|208:272|208:272|208:232,1,75.0000028610231
208,144,209388,1,0,0:0:0:0:
208,144,210188,5,0,0:0:0:0:
298,230,210588,1,0,0:0:0:0:
400,168,210988,1,0,0:0:0:0:
357,277,211388,1,0,0:0:0:0:
357,277,211788,2,0,L|280:216,1,75.0000028610231
144,104,212588,2,0,P|88:128|48:208,1,150.000005722046
136,192,214188,2,0,P|216:176|264:216,1,150.000005722046
192,256,215188,1,0,0:0:0:0:
251,300,215388,2,0,P|339:268|307:148,1,225.000008583069
80,48,217388,5,0,0:0:0:0:
96,144,217788,1,0,0:0:0:0:
200,88,218188,2,0,P|184:160|224:240,1,150.000005722046
200,88,219388,5,0,0:0:0:0:
272,152,219788,1,0,0:0:0:0:
328,72,220188,2,0,P|368:136|347:227,1,150.000005722046
424,256,221388,6,0,P|352:288|288:240,1,150.000005722046
216,192,222588,1,0,0:0:0:0:
192,288,222988,1,0,0:0:0:0:
295,254,223388,2,0,P|335:190|336:112,1,150.000005722046
337,117,224588,5,0,0:0:0:0:
208,152,224988,1,0,0:0:0:0:
112,72,225388,2,0,P|64:144|64:216,1,150.000005722046
104,304,226588,1,0,0:0:0:0:
208,240,226988,1,0,0:0:0:0:
296,304,227388,1,0,0:0:0:0:
416,232,227788,6,0,B|368:176|368:88|368:88|328:136|280:136,1,225.000008583069
288,48,229388,2,0,P|232:104|240:176,1,150.000005722046
236,169,230388,1,0,0:0:0:0:
236,169,230588,1,0,0:0:0:0:
88,96,230988,6,0,P|64:136|112:224,1,150.000005722046
208,216,232188,2,0,L|264:184,1,37.5000014305115
240,197,232588,1,0,0:0:0:0:
352,144,232988,1,0,0:0:0:0:
352,144,233388,2,0,P|368:184|368:224,1,75.0000028610231
400,240,233988,2,0,L|440:208,2,37.5000014305115
376,264,234588,1,0,0:0:0:0:
336,280,234788,1,0,0:0:0:0:
296,272,234988,1,0,0:0:0:0:
200,128,235788,5,0,0:0:0:0:
184,208,236188,1,0,0:0:0:0:
104,96,236588,1,0,0:0:0:0:
240,48,236988,1,0,0:0:0:0:
184,208,237388,1,0,0:0:0:0:
96,272,238188,6,0,P|176:304|248:288,1,150.000005722046
384,240,239788,1,0,0:0:0:0:
376,48,240588,1,0,0:0:0:0:
360,88,240788,1,0,0:0:0:0:
336,128,240988,2,0,B|288:96|288:96|248:120|192:120|192:120|224:88|216:48,1,225.000008583069
416,176,242988,6,0,P|424:224|400:280,1,75.0000028610231
384,328,243788,1,0,0:0:0:0:
112,288,244588,1,0,0:0:0:0:
112,288,244988,2,0,P|64:264|48:216,1,75.0000028610231
32,160,245788,1,0,0:0:0:0:
200,80,246988,6,0,P|200:136|224:176,1,75.0000028610231
288,128,247788,2,0,P|304:176|304:208,1,75.0000028610231
224,240,248588,2,0,P|232:280|248:312,1,75.0000028610231
247,310,249388,1,0,0:0:0:0:
224,240,250188,2,0,P|264:216|288:192,1,75.0000028610231
336,128,250988,2,0,P|368:168|376:208,1,75.0000028610231
416,328,252588,5,0,0:0:0:0:
448,224,252988,1,0,0:0:0:0:
400,112,253388,2,0,P|344:64|264:56,1,150.000005722046
168,64,254988,2,0,P|184:112|184:216,1,150.000005722046
168,304,256188,1,0,0:0:0:0:
168,304,256388,1,0,0:0:0:0:
168,304,256588,1,0,0:0:0:0:
256,192,256788,12,0,259788,0:0:0:0:
72,304,282188,6,0,P|128:320|192:248,1,150.000005722046
120,248,283388,2,0,L|120:192,2,37.5000014305115
120,128,284188,1,0,0:0:0:0:
256,56,284588,1,0,0:0:0:0:
368,168,284988,1,0,0:0:0:0:
368,200,285188,1,0,0:0:0:0:
368,232,285388,2,0,L|368:320,1,75.0000028610231
368,307,286188,1,0,0:0:0:0:
288,304,286988,6,0,L|232:328,1,37.5000014305115
216,248,287388,2,0,L|176:240,1,37.5000014305115
88,224,287788,1,0,0:0:0:0:
136,136,288188,1,0,0:0:0:0:
48,96,288588,1,0,0:0:0:0:
168,64,289388,2,0,P|216:120|176:200,1,150.000005722046
128,288,290988,1,0,0:0:0:0:
128,288,291788,6,0,L|184:312,1,37.5000014305115
208,312,292188,2,0,B|256:296|256:296|192:256|336:248|200:208|248:136,1,225.000008583069
336,72,294188,1,0,0:0:0:0:
184,48,294588,1,0,0:0:0:0:
80,152,294988,2,0,P|88:216|152:280,1,150.000005722046
176,184,296188,2,0,L|264:216,1,75.0000028610231
384,256,296988,1,0,0:0:0:0:
320,48,298188,6,0,P|352:80|352:120,1,75.0000028610231
360,216,298988,1,0,0:0:0:0:
264,184,299388,1,0,0:0:0:0:
232,280,299788,1,0,0:0:0:0:
144,200,300188,2,0,B|112:264|64:256|80:136,1,150.000005722046
77,160,301388,5,0,0:0:0:0:
128,64,301788,1,0,0:0:0:0:
240,72,302188,1,0,0:0:0:0:
240,72,303388,1,0,0:0:0:0:
240,192,303788,1,0,0:0:0:0:
363,302,304188,1,0,0:0:0:0:
240,72,304588,2,0,B|432:144|232:264|368:304,1,300.000011444092
424,64,307788,6,0,L|408:112,3,37.5000014305115
384,168,308588,2,0,P|344:144|312:136,1,75.0000028610231
316,136,309188,1,0,0:0:0:0:
316,136,309388,1,0,0:0:0:0:
216,136,309788,1,0,0:0:0:0:
272,248,310188,1,0,0:0:0:0:
136,248,310588,5,0,0:0:0:0:
136,248,310788,1,0,0:0:0:0:
136,248,310988,2,0,P|192:176|272:168,1,150.000005722046
384,152,312588,5,0,0:0:0:0:
245,163,312988,1,0,0:0:0:0:
360,248,313388,1,0,0:0:0:0:
232,272,313788,1,0,0:0:0:0:
344,352,314188,1,0,0:0:0:0:
360,160,314988,6,0,P|384:112|376:72,1,75.0000028610231
304,96,315788,2,0,P|264:64|224:56,1,75.0000028610231
152,32,316588,1,0,0:0:0:0:
136,224,317388,5,0,0:0:0:0:
216,272,317588,1,0,0:0:0:0:
304,240,317788,2,0,B|352:232|280:216|312:168|312:168|384:152|384:64,1,225.000008583069
304,88,319788,5,0,0:0:0:0:
176,128,320188,1,0,0:0:0:0:
64,64,320588,2,0,B|80:120|56:160|88:216,1,150.000005722046
152,312,321788,1,0,0:0:0:0:
232,232,322188,1,0,0:0:0:0:
344,184,322588,2,0,B|384:216|336:224|304:80,1,150.000005722046
306,92,323788,5,0,0:0:0:0:
160,88,324588,2,0,L|128:144,3,37.5000014305115
96,192,325388,1,0,0:0:0:0:
176,304,325788,1,0,0:0:0:0:
248,128,326188,5,0,0:0:0:0:
248,128,326988,2,0,B|280:160|264:216|296:288|296:288|312:240|360:232,1,225.000008583069
376,312,329388,1,0,0:0:0:0:
400,80,329788,1,0,0:0:0:0:
184,128,330188,2,0,L|176:184,3,37.5000014305115
128,224,330988,2,0,B|96:176|112:136|112:136|64:184,1,150.000005722046
0,288,332988,1,0,0:0:0:0:
0,288,333188,1,0,0:0:0:0:
0,288,333388,1,0,0:0:0:0:
256,192,333588,12,0,336588,0:0:0:0:
