osu file format v14

[General]
AudioFilename: Ansatsu - Kyoushitsu.mp3
AudioLeadIn: 0
PreviewTime: 40823
Countdown: 1
SampleSet: Soft
StackLeniency: 0.7
Mode: 0
LetterboxInBreaks: 0
WidescreenStoryboard: 1

[Editor]
DistanceSpacing: 0.5
BeatDivisor: 4
GridSize: 4
TimelineZoom: 1.5

[Metadata]
Title:QUESTION
TitleUnicode:QUESTION
Artist:3-nen E-gumi Utatan
ArtistUnicode:3-nen E-gumi Utatan
Creator:alma nyaruko
Version:ikemen
Source:Ansatsu Kyoushitsu Season 2
Tags:
BeatmapID:911613
BeatmapSetID:402515

[Difficulty]
HPDrainRate:8
CircleSize:4
OverallDifficulty:8
ApproachRate:8
SliderMultiplier:1.6
SliderTickRate:1

[Events]
//Background and Video events
0,0,"dark_hero762.42831.jpg",0,0
//Break Periods
//Storyboard Layer 0 (Background)
//Storyboard Layer 1 (Fail)
//Storyboard Layer 2 (Pass)
//Storyboard Layer 3 (Foreground)
//Storyboard Sound Samples

[TimingPoints]
230.070605112691,338.983050847458,4,2,1,30,1,0
314,-100,4,2,1,30,0,0
314,-100,4,2,1,30,0,0
314,-100,4,2,1,30,0,0
13958,-200,4,2,1,30,0,0
13958,-200,4,2,1,22,0,0
16670,-142.857142857143,4,2,1,22,0,0
19213,-100,4,2,1,22,0,0
21247,-50,4,2,1,22,0,0
21331,-58.8235294117647,4,2,1,37,0,0
21501,-100,4,2,1,22,0,0
32433,-166.666666666667,4,2,1,22,0,0
38365,-166.666666666667,4,2,1,5,0,0
39552,-166.666666666667,4,2,1,24,0,0
40908,-100,4,2,1,22,0,1
62602,-100,4,2,1,22,0,0
70738,-100,4,2,1,22,0,1
88196,-200,4,2,1,22,0,1
88789,-200,4,2,1,5,0,1

[HitObjects]
88,216,230,5,0,0:0:0:0:
156,80,399,1,0,0:0:0:0:
312,112,569,1,0,0:0:0:0:
312,112,908,2,0,L|364:184,1,80
280,368,1247,2,0,L|224:288,1,80
72,204,1586,1,0,0:0:0:0:
136,24,1755,1,0,0:0:0:0:
264,180,1924,1,0,0:0:0:0:
144,120,2094,2,2,P|176:72|280:52,1,160
388,144,2602,6,0,P|420:188|452:212,1,80
304,284,2941,2,0,L|232:320,1,80
136,240,3280,1,8,0:0:0:0:
116,108,3450,1,0,0:0:0:0:
304,112,3619,1,0,0:0:0:0:
108,264,3789,1,0,0:0:0:0:
84,64,3958,1,8,0:0:0:0:
320,104,4128,1,0,0:0:0:0:
172,200,4297,2,0,P|192:240|232:264,1,80
216,104,4636,2,0,P|184:72|64:64,1,160,8|0,0:0|0:0,0:0:0:0:
188,196,5145,5,0,0:0:0:0:
172,236,5230,1,0,0:0:0:0:
160,268,5314,2,0,L|132:344,1,80,8|0,0:0|0:0,0:0:0:0:
420,304,5653,2,0,P|420:256|404:216,1,80
272,40,5992,1,8,0:0:0:0:
220,192,6162,2,0,P|176:200|80:128,1,160
72,108,6586,1,0,0:0:0:0:
64,80,6670,1,8,0:0:0:0:
256,152,6840,5,0,0:0:0:0:
184,16,7009,1,0,0:0:0:0:
176,276,7179,1,0,0:0:0:0:
112,152,7348,1,8,0:0:0:0:
212,76,7518,2,0,P|268:56|384:48,1,160
432,120,8026,1,8,0:0:0:0:
432,212,8196,1,8,0:0:0:0:
400,292,8365,1,0,0:0:0:0:
324,328,8535,1,0,0:0:0:0:
316,224,8704,6,8,P|268:208|216:216,1,80,8|0,0:0|0:0,0:0:0:0:
152,260,9043,1,0,0:0:0:0:
76,324,9213,1,0,0:0:0:0:
32,56,9382,2,0,P|16:104|28:148,1,80,8|0,0:0|0:0,0:0:0:0:
228,132,9721,2,0,P|272:120|308:120,2,80,0|0|8,0:0|0:0|0:0,0:0:0:0:
304,272,10230,2,0,P|360:268|448:208,1,160
460,192,10653,1,0,0:0:0:0:
472,168,10738,1,8,0:0:0:0:
304,148,10908,5,0,0:0:0:0:
284,184,10992,1,0,0:0:0:0:
264,216,11077,1,0,0:0:0:0:
56,160,11247,1,0,0:0:0:0:
68,184,11331,1,0,0:0:0:0:
84,212,11416,1,8,0:0:0:0:
192,316,11586,1,0,0:0:0:0:
292,236,11755,6,0,B|336:224|336:224|372:192|368:196,1,80
368,64,12094,1,8,0:0:0:0:
256,240,12263,1,0,0:0:0:0:
452,152,12433,1,0,0:0:0:0:
264,136,12602,2,0,P|228:160|196:192,1,80,0|8,0:0|0:0,0:0:0:0:
376,240,12941,2,0,P|344:292|236:332,1,160,0|8,0:0|0:0,0:0:0:0:
184,296,13450,1,8,0:0:0:0:
104,108,13619,1,8,0:0:0:0:
256,188,13789,1,10,0:0:0:0:
152,184,13958,5,0,0:0:0:0:
156,200,14128,1,0,0:0:0:0:
140,208,14297,1,0,0:0:0:0:
136,200,14467,1,0,0:0:0:0:
152,196,14636,1,0,0:0:0:0:
144,208,14806,1,0,0:0:0:0:
56,48,14975,2,2,L|28:88,1,40
312,176,15314,2,0,L|336:216,1,40
20,260,15653,2,0,L|0:308,1,40
284,320,15992,2,0,L|316:360,1,40
468,128,16331,2,2,L|424:148,1,40
208,184,16670,5,0,0:0:0:0:
256,108,16839,1,0,0:0:0:0:
296,180,17009,1,0,0:0:0:0:
168,200,17178,1,0,0:0:0:0:
248,60,17348,1,0,0:0:0:0:
320,208,17517,1,0,0:0:0:0:
128,208,17687,1,2,0:0:0:0:
248,28,17857,1,0,0:0:0:0:
352,208,18026,1,0,0:0:0:0:
88,136,18196,6,0,L|48:180,1,55.9999982910157
416,136,18535,2,0,L|456:176,1,55.9999982910157
256,292,18874,2,0,L|256:348,1,55.9999982910157
120,92,19213,6,0,B|120:136|120:136|152:120,1,80,2|0,0:0|0:0,0:0:0:0:
392,248,19552,2,0,B|392:296|392:296|360:280|364:256,1,80
124,272,19891,2,0,P|156:304|128:312,1,80
340,56,20230,2,0,P|336:96|372:108,1,80,0|2,0:0|0:0,0:0:0:0:
412,232,20569,1,2,0:0:0:0:
244,160,20738,2,0,P|176:172|148:188,1,80
248,312,21077,1,0,0:0:0:0:
344,256,21247,5,2,0:0:0:0:
256,48,21416,1,2,0:0:0:0:
260,272,21586,1,2,0:0:0:0:
184,80,21755,1,2,0:0:0:0:
184,176,21924,6,0,P|136:204|100:200,1,80
96,68,22263,1,8,0:0:0:0:
136,336,22433,2,0,P|212:320|284:264,1,160
372,184,22941,2,0,P|412:168|456:164,1,80,8|0,0:0|0:0,0:0:0:0:
448,264,23280,5,0,0:0:0:0:
380,328,23450,1,0,0:0:0:0:
296,340,23619,1,8,0:0:0:0:
328,76,23789,2,0,P|272:48|172:64,1,160
88,200,24297,1,8,0:0:0:0:
260,328,24467,1,0,0:0:0:0:
440,188,24636,1,0,0:0:0:0:
360,104,24806,5,0,0:0:0:0:
220,328,24975,1,8,0:0:0:0:
500,336,25145,1,0,0:0:0:0:
488,164,25314,1,0,0:0:0:0:
288,0,25484,1,0,0:0:0:0:
208,220,25653,1,8,0:0:0:0:
456,96,25823,1,2,0:0:0:0:
244,24,25992,2,0,P|208:68|168:176,1,160,2|8,0:0|0:0,0:0:0:0:
292,284,26501,2,0,B|292:352|292:352|360:332|372:276,1,160
400,212,27009,1,8,0:0:0:0:
400,212,27179,1,0,0:0:0:0:
328,104,27348,5,0,0:0:0:0:
104,16,27518,1,0,0:0:0:0:
176,232,27687,1,8,0:0:0:0:
204,44,27857,1,0,0:0:0:0:
4,120,28026,1,0,0:0:0:0:
176,212,28196,1,0,0:0:0:0:
144,32,28365,2,0,P|108:64|72:112,1,80,8|0,0:0|0:0,0:0:0:0:
104,260,28704,2,2,P|152:280|216:276,1,80
416,148,29043,2,0,P|356:132|312:136,1,80
228,112,29382,5,0,0:0:0:0:
216,220,29552,1,0,0:0:0:0:
152,68,29721,1,8,0:0:0:0:
140,240,29891,1,2,0:0:0:0:
36,140,30060,1,2,0:0:0:0:
64,276,30230,6,0,P|112:308|160:316,1,80,0|8,0:0|0:0,0:0:0:0:
424,296,30569,2,0,P|368:316|320:320,1,80
324,200,30908,1,0,0:0:0:0:
256,108,31077,1,8,0:0:0:0:
160,172,31247,2,0,P|128:208|116:248,1,80
252,284,31586,1,0,0:0:0:0:
352,208,31755,2,0,P|352:148|336:108,1,80,8|0,0:0|0:0,0:0:0:0:
244,52,32094,5,8,0:0:0:0:
192,88,32179,1,8,0:0:0:0:
136,120,32263,1,8,0:0:0:0:
168,244,32433,1,8,0:0:0:0:
432,328,32602,1,8,0:0:0:0:
356,80,32772,2,8,P|312:76|288:80,1,47.9999985351563,8|0,0:0|0:0,0:0:0:0:
144,80,33111,1,0,0:0:0:0:
232,224,33280,2,0,P|248:248|264:268,1,47.9999985351563,0|8,0:0|0:0,0:0:0:0:
436,252,33619,1,2,0:0:0:0:
336,60,33789,5,0,0:0:0:0:
336,60,33874,1,0,0:0:0:0:
336,60,33958,1,8,0:0:0:0:
184,100,34128,2,0,B|180:132|180:132|196:120,1,47.9999985351563
328,196,34467,1,8,0:0:0:0:
328,196,34636,1,0,0:0:0:0:
228,324,34806,2,0,P|156:332|116:332,1,95.9999970703126,8|0,0:0|0:0,0:0:0:0:
80,204,35314,1,0,0:0:0:0:
128,72,35484,1,0,0:0:0:0:
260,28,35653,6,0,P|300:36|360:68,1,95.9999970703126,0|2,0:0|0:0,0:0:0:0:
412,280,36162,2,0,B|376:284|368:308|340:316|304:300,1,95.9999970703126,8|0,0:0|0:0,0:0:0:0:
244,124,36670,1,0,0:0:0:0:
160,288,36840,2,0,P|136:308|112:312,2,47.9999985351563,0|8|0,0:0|0:0|0:0,0:0:0:0:
124,188,37348,1,0,0:0:0:0:
300,72,37518,2,0,P|368:92|392:120,1,95.9999970703126,8|0,0:0|0:0,0:0:0:0:
380,248,38026,1,0,0:0:0:0:
376,276,38111,1,0,0:0:0:0:
368,300,38196,1,4,0:0:0:0:
288,216,38365,6,0,P|256:188|192:172,1,95.9999970703126
48,200,39044,1,0,0:0:0:0:
64,104,39213,2,0,P|112:68|164:56,1,95.9999970703126
392,112,39891,2,0,L|420:128,2,23.9999992675781
172,104,40230,1,8,0:0:0:0:
100,344,40399,1,8,0:0:0:0:
356,264,40569,1,8,0:0:0:0:
172,104,40738,1,8,0:0:0:0:
136,256,40908,5,0,0:0:0:0:
300,340,41077,1,0,0:0:0:0:
324,148,41247,1,8,0:0:0:0:
144,44,41416,2,0,P|108:76|84:112,1,80
324,168,41755,2,0,P|304:232|280:252,1,80,0|8,0:0|0:0,0:0:0:0:
204,148,42094,1,0,0:0:0:0:
80,280,42263,1,0,0:0:0:0:
252,332,42433,1,0,0:0:0:0:
132,152,42602,6,0,P|156:88|184:68,1,80,8|0,0:0|0:0,0:0:0:0:
432,16,42941,2,0,P|444:60|440:104,1,80
284,136,43280,2,8,P|284:180|304:208,1,80,8|0,0:0|0:0,0:0:0:0:
372,320,43619,1,0,0:0:0:0:
184,312,43789,1,0,0:0:0:0:
280,96,43958,1,8,0:0:0:0:
428,336,44128,1,0,0:0:0:0:
168,368,44297,1,2,0:0:0:0:
292,64,44467,1,0,0:0:0:0:
420,192,44636,6,0,P|384:224|344:240,1,80
236,336,44975,1,0,0:0:0:0:
156,224,45145,1,0,0:0:0:0:
368,256,45314,1,8,0:0:0:0:
232,376,45484,1,0,0:0:0:0:
160,184,45653,2,0,P|140:136|92:112,1,80
48,148,45992,5,8,0:0:0:0:
12,220,46162,1,8,0:0:0:0:
260,256,46331,2,8,P|328:228|352:212,1,80,8|0,0:0|0:0,0:0:0:0:
472,32,46670,2,0,P|416:36|384:64,1,80
268,80,47009,1,8,0:0:0:0:
160,220,47179,1,0,0:0:0:0:
356,256,47348,1,0,0:0:0:0:
316,112,47518,1,0,0:0:0:0:
240,340,47687,1,8,0:0:0:0:
460,324,47857,1,0,0:0:0:0:
432,164,48026,6,0,P|384:136|280:136,1,160
388,288,48535,2,0,P|360:320|320:336,2,80,2|8|0,0:0|0:0|0:0,0:0:0:0:
256,52,49043,6,0,P|184:64|160:96,1,80
304,336,49382,2,0,L|372:280,1,80,8|0,0:0|0:0,0:0:0:0:
128,92,49721,2,0,B|128:152|128:152|168:136,1,80
376,276,50060,2,0,B|376:320|376:320|340:304|336:304,1,80,8|0,0:0|0:0,0:0:0:0:
456,248,50399,5,8,0:0:0:0:
252,24,50569,1,8,0:0:0:0:
80,256,50738,1,8,0:0:0:0:
396,72,50908,1,8,0:0:0:0:
92,72,51077,1,8,0:0:0:0:
272,308,51247,1,8,0:0:0:0:
272,216,51416,1,8,0:0:0:0:
272,120,51586,1,8,0:0:0:0:
272,32,51755,1,8,0:0:0:0:
124,88,51924,6,0,P|112:136|132:176,1,80,0|8,0:0|0:0,0:0:0:0:
288,168,52263,1,0,0:0:0:0:
264,304,52433,2,0,P|224:328|168:328,1,80,2|0,0:0|0:0,0:0:0:0:
32,236,52772,2,0,P|72:192|112:176,1,80
228,76,53111,1,2,0:0:0:0:
384,48,53280,2,0,P|376:104|356:144,1,80
248,344,53619,2,0,P|224:296|224:244,1,80
188,152,53958,5,0,0:0:0:0:
0,88,54128,1,8,0:0:0:0:
32,308,54297,1,0,0:0:0:0:
180,304,54467,6,0,P|224:320|276:308,1,80
384,228,54806,1,8,0:0:0:0:
380,16,54975,1,0,0:0:0:0:
272,208,55145,1,0,0:0:0:0:
448,76,55314,1,0,0:0:0:0:
276,48,55484,1,8,0:0:0:0:
392,220,55653,2,0,P|392:272|372:300,1,80
204,244,55992,2,0,P|204:180|216:152,1,80,0|8,0:0|0:0,0:0:0:0:
240,64,56331,1,0,0:0:0:0:
84,96,56501,6,0,P|64:144|72:192,1,80
144,268,56840,1,8,0:0:0:0:
296,280,57009,1,8,0:0:0:0:
292,92,57179,2,0,P|248:128|224:156,2,80,0|0|8,0:0|0:0|0:0,0:0:0:0:
488,56,57687,1,0,0:0:0:0:
432,240,57857,2,0,P|400:272|280:312,1,160,0|8,0:0|0:0,0:0:0:0:
288,160,58365,1,0,0:0:0:0:
164,56,58535,2,0,P|108:96|96:128,1,80
96,272,58874,2,0,B|168:296|168:296|260:252,1,160,8|0,0:0|0:0,0:0:0:0:
356,160,59382,5,8,0:0:0:0:
376,72,59552,1,2,0:0:0:0:
304,24,59721,1,2,0:0:0:0:
176,56,59891,6,0,L|100:108,1,80
120,208,60230,1,8,0:0:0:0:
152,288,60399,1,0,0:0:0:0:
232,324,60569,1,0,0:0:0:0:
324,328,60738,1,0,0:0:0:0:
400,272,60908,1,8,0:0:0:0:
424,176,61077,1,0,0:0:0:0:
348,96,61247,5,8,0:0:0:0:
320,96,61331,1,8,0:0:0:0:
304,96,61416,1,8,0:0:0:0:
288,96,61501,1,8,0:0:0:0:
236,112,61586,1,8,0:0:0:0:
212,148,61670,1,8,0:0:0:0:
200,184,61755,1,8,0:0:0:0:
204,224,61840,1,8,0:0:0:0:
228,252,61924,1,8,0:0:0:0:
272,256,62009,1,8,0:0:0:0:
368,252,62094,6,8,L|344:216,1,40
336,52,62263,2,8,L|368:96,1,40
336,264,62433,2,8,L|312:224,1,40
284,188,62602,6,0,P|248:160|196:152,1,80
100,156,62941,1,8,0:0:0:0:
108,288,63111,1,0,0:0:0:0:
244,288,63280,1,0,0:0:0:0:
88,308,63450,1,0,0:0:0:0:
68,160,63619,1,8,0:0:0:0:
60,336,63789,1,0,0:0:0:0:
248,304,63958,5,0,0:0:0:0:
392,184,64128,2,0,P|372:128|356:100,1,80
128,68,64467,2,0,P|136:120|156:152,1,80
300,200,64806,1,0,0:0:0:0:
424,128,64975,1,8,0:0:0:0:
416,108,65060,1,8,0:0:0:0:
408,84,65145,1,8,0:0:0:0:
396,64,65230,1,8,0:0:0:0:
376,44,65314,2,0,L|276:44,1,80
132,176,65653,5,8,0:0:0:0:
256,328,65823,1,0,0:0:0:0:
392,192,65992,1,0,0:0:0:0:
304,56,66162,2,0,P|260:96|240:128,1,80,0|8,0:0|0:0,0:0:0:0:
300,328,66501,2,0,P|344:284|356:252,1,80
304,160,66840,1,0,0:0:0:0:
204,116,67009,1,8,0:0:0:0:
136,284,67179,2,0,P|124:332|96:380,1,80
88,136,67518,2,0,P|80:80|100:32,1,80,0|8,0:0|0:0,0:0:0:0:
232,28,67857,5,8,0:0:0:0:
372,88,68026,1,0,0:0:0:0:
308,236,68196,2,0,P|264:248|212:240,1,80
212,76,68535,2,0,B|168:76|168:76|180:112|200:100,1,80
336,168,68874,1,0,0:0:0:0:
440,272,69043,1,8,0:0:0:0:
320,296,69213,2,0,P|272:316|220:312,1,80
136,264,69552,1,0,0:0:0:0:
108,120,69721,2,0,P|172:80|196:72,2,80,8|0|0,0:0|0:0|0:0,0:0:0:0:
192,208,70230,5,0,0:0:0:0:
300,144,70399,2,0,P|352:132|456:164,1,160,8|0,0:0|0:0,0:0:0:0:
404,244,70908,1,0,0:0:0:0:
256,352,71077,1,8,0:0:0:0:
224,184,71247,1,0,0:0:0:0:
336,232,71416,1,0,0:0:0:0:
144,304,71586,5,0,0:0:0:0:
144,108,71755,1,8,0:0:0:0:
208,200,71924,1,0,0:0:0:0:
248,104,72094,1,0,0:0:0:0:
336,48,72263,1,0,0:0:0:0:
404,128,72433,1,8,0:0:0:0:
388,236,72602,1,0,0:0:0:0:
280,104,72772,5,8,0:0:0:0:
248,104,72857,1,8,0:0:0:0:
216,104,72941,1,8,0:0:0:0:
168,120,73026,1,8,0:0:0:0:
144,164,73111,1,8,0:0:0:0:
128,200,73196,1,8,0:0:0:0:
136,244,73280,1,8,0:0:0:0:
168,280,73365,1,8,0:0:0:0:
208,288,73450,6,0,L|320:288,1,80
384,200,73789,1,8,0:0:0:0:
448,104,73958,1,0,0:0:0:0:
140,100,74128,2,0,P|136:144|144:200,1,80
200,288,74467,1,8,0:0:0:0:
312,216,74636,1,0,0:0:0:0:
232,80,74806,5,0,0:0:0:0:
40,276,74975,1,0,0:0:0:0:
240,212,75145,2,0,P|304:212|344:216,1,80,8|0,0:0|0:0,0:0:0:0:
212,16,75484,2,0,L|120:16,1,80
88,144,75823,1,8,0:0:0:0:
120,260,75992,5,8,0:0:0:0:
352,104,76162,2,0,P|400:72|504:60,2,160,0|8|0,0:0|0:0|0:0,0:0:0:0:
400,224,77009,2,0,L|412:320,1,80,0|8,0:0|0:0,0:0:0:0:
272,160,77348,2,0,L|180:224,1,80
160,56,77687,2,0,L|68:112,1,80,0|8,0:0|0:0,0:0:0:0:
104,236,78026,1,0,0:0:0:0:
260,344,78196,1,0,0:0:0:0:
408,224,78365,1,0,0:0:0:0:
224,68,78535,2,0,L|156:120,1,80
120,284,78874,5,0,0:0:0:0:
288,344,79043,2,0,L|384:308,1,80,0|8,0:0|0:0,0:0:0:0:
396,132,79382,2,0,P|352:104|304:88,1,80
112,136,79721,2,0,P|144:172|200:172,1,80,0|8,0:0|0:0,0:0:0:0:
326,93,80060,1,0,0:0:0:0:
200,288,80230,2,0,P|152:316|32:328,1,160,4|0,0:0|0:0,0:0:0:0:
120,192,80738,2,0,P|172:148|204:140,1,80
468,184,81077,2,0,P|440:216|396:236,1,80,0|8,0:0|0:0,0:0:0:0:
352,96,81586,5,2,0:0:0:0:
356,188,81755,1,2,0:0:0:0:
260,40,81924,1,2,0:0:0:0:
276,220,82094,1,2,0:0:0:0:
192,0,82263,1,2,0:0:0:0:
224,276,82433,1,2,0:0:0:0:
104,20,82602,1,8,0:0:0:0:
144,296,82772,1,8,0:0:0:0:
324,80,82941,5,8,0:0:0:0:
284,80,83026,1,8,0:0:0:0:
252,80,83111,1,8,0:0:0:0:
220,80,83196,1,8,0:0:0:0:
184,80,83280,1,8,0:0:0:0:
160,80,83365,1,8,0:0:0:0:
128,80,83450,1,8,0:0:0:0:
232,308,83619,5,8,0:0:0:0:
256,304,83704,1,8,0:0:0:0:
272,296,83789,1,8,0:0:0:0:
296,280,83874,1,8,0:0:0:0:
312,264,83958,1,8,0:0:0:0:
320,248,84043,1,8,0:0:0:0:
328,232,84128,1,8,0:0:0:0:
332,212,84213,1,8,0:0:0:0:
256,192,84297,12,0,85992,0:0:0:0:
88,92,86331,5,0,0:0:0:0:
112,264,86501,1,0,0:0:0:0:
240,80,86670,2,0,P|304:84|344:96,1,80,8|0,0:0|0:0,0:0:0:0:
400,288,87009,1,0,0:0:0:0:
384,24,87179,6,0,P|424:44|456:80,1,80,0|8,0:0|0:0,0:0:0:0:
256,344,87518,2,0,P|196:328|160:296,1,80
192,224,87772,1,2,0:0:0:0:
192,224,87857,2,0,P|256:212|288:212,1,80,2|0,0:0|0:0,0:0:0:0:
196,88,88196,2,0,B|180:56|160:76|164:104|176:120|136:140|112:104|72:132|64:204,1,200,4|0,0:0|0:0,0:0:0:0:
