osu file format v14

[General]
AudioFilename: Ansatsu - Kyoushitsu.mp3
AudioLeadIn: 0
PreviewTime: 40823
Countdown: 1
SampleSet: Soft
StackLeniency: 0.7
Mode: 0
LetterboxInBreaks: 0
WidescreenStoryboard: 1

[Editor]
DistanceSpacing: 0.5
BeatDivisor: 4
GridSize: 4
TimelineZoom: 1.5

[Metadata]
Title:QUESTION
TitleUnicode:QUESTION
Artist:3-nen E-gumi Utatan
ArtistUnicode:3-nen E-gumi Utatan
Creator:alma nyaruko
Version:Normal
Source:Ansatsu Kyoushitsu Season 2
Tags:
BeatmapID:875626
BeatmapSetID:402515

[Difficulty]
HPDrainRate:5
CircleSize:3
OverallDifficulty:5
ApproachRate:5
SliderMultiplier:1.10000000596046
SliderTickRate:1

[Events]
//Background and Video events
0,0,"_14__cover_zing_ansatsu_kyoushitsu_by_miriki_chan-d91mtav.jpg",0,0
//Break Periods
//Storyboard Layer 0 (Background)
//Storyboard Layer 1 (Fail)
//Storyboard Layer 2 (Pass)
//Storyboard Layer 3 (Foreground)
//Storyboard Sound Samples

[TimingPoints]
230.070605112691,338.983050847458,4,2,1,30,1,0
314,-100,4,2,1,30,0,0
314,-100,4,2,1,30,0,0
314,-100,4,2,1,30,0,0
13958,-125,4,2,1,22,0,0
13958,-125,4,2,1,30,0,0
16670,-111.111111111111,4,2,1,22,0,0
19213,-100,4,2,1,22,0,0
21247,-58.8235294117647,4,2,1,22,0,0
21331,-58.8235294117647,4,2,1,37,0,0
21501,-100,4,2,1,22,0,0
32433,-166.666666666667,4,2,1,22,0,0
40908,-100,4,2,1,22,0,1
62602,-100,4,2,1,22,0,0
70738,-100,4,2,1,22,0,1
88196,-200,4,2,1,22,0,1
88789,-200,4,2,1,5,0,1

[HitObjects]
88,144,2941,6,0,P|92:200|132:252,2,110.000000596046,0|8|0,0:0|0:0|0:0,0:0:0:0:
208,100,3958,1,8,0:0:0:0:
328,144,4297,2,0,L|360:188,1,55.000000298023
388,220,4636,2,0,P|376:260|308:280,1,110.000000596046,8|0,0:0|0:0,0:0:0:0:
240,164,5314,1,8,0:0:0:0:
120,212,5653,2,0,L|24:304,2,110.000000596046,0|8|0,0:0|0:0|0:0,0:0:0:0:
140,92,6670,2,0,B|80:64|80:64|88:4,2,110.000000596046,8|0|8,0:0|0:0|0:0,0:0:0:0:
280,84,7687,2,0,P|320:84|344:92,2,55.000000298023,0|0|8,0:0|0:0|0:0,0:0:0:0:
260,192,8365,6,0,P|256:240|208:272,1,110.000000596046,0|8,0:0|0:0,0:0:0:0:
112,176,9043,2,0,B|76:164|60:192|12:184|12:208|0:196,2,110.000000596046,0|8|0,0:0|0:0|0:0,0:0:0:0:
180,80,10060,2,0,P|208:48|280:40,1,110.000000596046,8|0,0:0|0:0,0:0:0:0:
392,120,10738,1,8,0:0:0:0:
416,252,11077,1,0,0:0:0:0:
284,168,11416,2,0,B|228:160|228:160|172:184|172:184|156:192,2,110.000000596046,8|0|8,0:0|0:0|0:0,0:0:0:0:
280,272,12433,2,0,P|240:288|168:280,1,110.000000596046,0|8,0:0|0:0,0:0:0:0:
112,104,13111,2,8,P|152:84|176:80,1,55.000000298023
212,80,13450,2,8,P|256:84|280:96,1,55.000000298023
308,104,13789,1,8,0:0:0:0:
252,156,14975,6,2,L|252:216,1,44.0000002384184
120,156,16331,2,2,P|124:192|128:216,1,44.0000002384184
348,148,17687,2,2,L|344:208,1,49.4999987576006
256,288,19043,2,2,L|256:232,1,49.4999987576006
256,76,20399,2,2,B|224:72|224:92|196:80,1,55.000000298023
72,188,21247,6,0,P|112:244|240:296,2,187.00000458002,8|2|0,0:0|0:0|0:0,0:0:0:0:
136,88,22263,2,0,P|172:48|236:44,1,110.000000596046,8|0,0:0|0:0,0:0:0:0:
368,112,22941,2,0,B|400:164|400:164|384:228,1,110.000000596046,8|0,0:0|0:0,0:0:0:0:
236,224,23619,2,0,B|192:224|168:272|124:248,1,110.000000596046,8|0,0:0|0:0,0:0:0:0:
80,152,24297,1,8,0:0:0:0:
48,32,24636,1,0,0:0:0:0:
164,96,24975,2,0,P|212:104|272:84,1,110.000000596046,8|0,0:0|0:0,0:0:0:0:
384,176,25653,2,0,P|376:228|400:288,1,110.000000596046,8|2,0:0|0:0,0:0:0:0:
260,280,26331,2,0,B|208:300|208:300|220:340|220:340|196:348,1,110.000000596046,8|0,0:0|0:0,0:0:0:0:
96,236,27009,1,8,0:0:0:0:
164,124,27348,5,0,0:0:0:0:
272,48,27687,2,0,B|320:72|316:104|372:108,1,110.000000596046,8|0,0:0|0:0,0:0:0:0:
304,224,28365,2,0,L|280:292,2,55.000000298023,8|0|0,0:0|0:0|0:0,0:0:0:0:
264,112,29043,2,0,P|220:112|164:168,1,110.000000596046,8|0,0:0|0:0,0:0:0:0:
264,272,29721,2,0,P|256:324|204:336,1,110.000000596046,8|0,0:0|0:0,0:0:0:0:
104,256,30399,2,0,L|56:136,1,110.000000596046,8|0,0:0|0:0,0:0:0:0:
120,4,31077,2,0,L|168:116,1,110.000000596046,8|0,0:0|0:0,0:0:0:0:
332,144,31755,1,8,0:0:0:0:
216,248,32094,2,8,L|212:316,3,55.000000298023
268,320,32772,6,0,P|328:308|392:256,1,131.999996686935,8|2,0:0|0:0,0:0:0:0:
260,148,34128,2,0,P|200:120|140:148,1,131.999996686935,8|2,0:0|0:0,0:0:0:0:
40,320,35484,6,0,B|60:284|20:268|60:236|28:200|40:188,1,131.999996686935,8|2,0:0|0:0,0:0:0:0:
312,44,36840,2,0,B|300:92|336:112|312:148|320:184,1,131.999996686935,8|2,0:0|0:0,0:0:0:0:
256,176,38196,5,4,0:0:0:0:
256,192,39552,12,8,40569,0:0:0:0:
96,156,40908,6,0,P|100:204|136:264,1,110.000000596046,0|8,0:0|0:0,0:0:0:0:
256,312,41586,1,0,0:0:0:0:
376,252,41924,2,0,P|412:204|400:140,1,110.000000596046,8|0,0:0|0:0,0:0:0:0:
296,76,42602,2,0,B|240:88|272:136|204:156,1,110.000000596046,8|0,0:0|0:0,0:0:0:0:
140,96,43280,2,0,P|92:116|60:184,1,110.000000596046
132,244,43958,2,0,L|72:284,2,55.000000298023,8|0|0,0:0|0:0|0:0,0:0:0:0:
248,192,44636,1,8,0:0:0:0:
344,272,44975,2,0,P|388:244|420:192,1,110.000000596046,0|8,0:0|0:0,0:0:0:0:
412,88,45653,6,0,P|352:68|192:96,1,220.000001192092,0|2,0:0|0:0,0:0:0:0:
160,200,46670,2,0,L|56:248,1,110.000000596046,8|0,0:0|0:0,0:0:0:0:
56,244,47348,1,8,0:0:0:0:
204,320,47687,2,0,B|260:336|260:336|328:316,1,110.000000596046,0|8,0:0|0:0,0:0:0:0:
352,204,48365,2,0,P|392:188|424:192,2,55.000000298023,0|0|8,0:0|0:0|0:0,0:0:0:0:
300,96,49043,2,0,P|244:72|184:72,1,110.000000596046,0|8,0:0|0:0,0:0:0:0:
40,128,49721,2,0,P|84:188|120:204,1,110.000000596046,0|8,0:0|0:0,0:0:0:0:
140,212,50230,1,0,0:0:0:0:
184,224,50399,2,0,P|232:264|292:264,1,110.000000596046,0|8,0:0|0:0,0:0:0:0:
416,232,51077,6,8,P|424:188|420:152,3,55.000000298023
412,132,51755,2,0,P|364:100|304:88,1,110.000000596046,0|8,0:0|0:0,0:0:0:0:
160,64,52433,2,0,P|128:128|128:180,1,110.000000596046,0|8,0:0|0:0,0:0:0:0:
140,200,52941,1,0,0:0:0:0:
160,236,53111,2,0,B|180:272|180:272|248:288,1,110.000000596046,0|8,0:0|0:0,0:0:0:0:
292,144,53789,2,0,P|332:120|364:120,2,55.000000298023,0|8|0,0:0|0:0|0:0,0:0:0:0:
156,72,54467,2,0,P|116:108|100:176,1,110.000000596046,0|8,0:0|0:0,0:0:0:0:
136,288,55145,2,0,P|196:308|260:288,1,110.000000596046,0|8,0:0|0:0,0:0:0:0:
344,232,55823,2,0,B|336:192|376:184|336:148|368:116,1,110.000000596046,0|8,0:0|0:0,0:0:0:0:
248,56,56501,6,0,P|200:72|136:112,1,110.000000596046,0|8,0:0|0:0,0:0:0:0:
124,136,57009,2,0,L|88:200,1,55.000000298023
172,288,57518,1,8,0:0:0:0:
308,296,57857,2,0,P|360:268|384:212,1,110.000000596046,0|8,0:0|0:0,0:0:0:0:
396,180,58365,2,0,L|408:116,1,55.000000298023
272,48,58874,2,0,P|204:40|152:72,1,110.000000596046,8|0,0:0|0:0,0:0:0:0:
144,80,59382,2,0,L|100:124,1,55.000000298023
176,200,59891,2,0,P|208:248|280:272,2,110.000000596046,0|8|0,0:0|0:0|0:0,0:0:0:0:
248,96,60908,1,8,0:0:0:0:
392,100,61247,1,0,0:0:0:0:
300,208,61586,6,0,L|368:320,1,110.000000596046,8|0,0:0|0:0,0:0:0:0:
220,324,62263,2,0,L|168:212,1,110.000000596046,8|0,0:0|0:0,0:0:0:0:
60,160,62941,1,0,0:0:0:0:
256,28,63619,1,8,0:0:0:0:
408,172,64297,1,0,0:0:0:0:
336,256,64636,2,0,P|284:284|220:292,1,110.000000596046,0|8,0:0|0:0,0:0:0:0:
116,248,65314,2,8,L|84:360,2,110.000000596046,0|8|0,0:0|0:0|0:0,0:0:0:0:
200,172,66331,1,8,0:0:0:0:
248,84,66670,2,0,P|276:44|340:36,2,110.000000596046,0|8|0,0:0|0:0|0:0,0:0:0:0:
248,124,67518,2,0,L|268:196,1,55.000000298023,0|8,0:0|0:0,0:0:0:0:
396,248,68026,6,0,P|400:172|304:64,1,220.000001192092,0|8,0:0|0:0,0:0:0:0:
240,200,69043,1,8,0:0:0:0:
120,72,69382,2,0,P|96:124|136:284,1,220.000001192092,0|8,0:0|0:0,0:0:0:0:
280,248,70399,2,0,B|328:228|356:256|392:216,2,110.000000596046,0|8|0,0:0|0:0|0:0,0:0:0:0:
164,204,71416,2,0,P|100:176|100:136,1,110.000000596046,0|8,0:0|0:0,0:0:0:0:
120,92,71924,2,8,L|172:56,1,55.000000298023
220,64,72263,2,8,L|280:76,1,55.000000298023,8|8,0:0|0:0,0:0:0:0:
388,148,72772,1,8,0:0:0:0:
352,260,73111,2,0,P|320:296|248:304,1,110.000000596046,8|0,0:0|0:0,0:0:0:0:
160,184,73789,5,8,0:0:0:0:
288,32,74467,2,0,P|352:24|416:40,2,110.000000596046,8|0|8,0:0|0:0|0:0,0:0:0:0:
148,80,75484,1,0,0:0:0:0:
32,172,75823,2,8,P|68:196|144:196,1,110.000000596046,8|0,0:0|0:0,0:0:0:0:
272,192,76501,2,0,P|324:176|400:188,1,110.000000596046,8|0,0:0|0:0,0:0:0:0:
392,280,77179,2,0,B|320:280|300:316|264:304,1,110.000000596046,8|0,0:0|0:0,0:0:0:0:
168,320,77857,1,8,0:0:0:0:
68,256,78196,2,0,P|72:176|64:128,2,110.000000596046,0|8|0,0:0|0:0|0:0,0:0:0:0:
192,256,79213,2,0,P|256:284|380:204,1,220.000001192092,8|8,0:0|0:0,0:0:0:0:
304,104,80230,6,8,B|240:104|240:104|240:40|240:40|144:40,1,220.000001192092,0|8,0:0|0:0,0:0:0:0:
88,172,81247,1,0,0:0:0:0:
208,268,81586,2,0,P|272:276|336:252,2,110.000000596046,0|8|0,0:0|0:0|0:0,0:0:0:0:
232,128,82602,2,8,P|192:88|132:80,2,110.000000596046
336,208,83619,2,8,P|376:256|440:288,1,110.000000596046
256,192,84297,12,0,85992,0:0:0:0:
112,108,87009,6,8,L|112:240,1,110.000000596046
144,320,87687,2,8,P|200:320|220:320,1,55.000000298023
260,316,88026,1,8,0:0:0:0:
264,268,88196,2,8,P|264:220|264:120,1,137.500000745057,8|0,0:0|0:0,0:0:0:0:
