osu file format v14

[General]
AudioFilename: audio.mp3
AudioLeadIn: 0
PreviewTime: 54272
Countdown: 1
SampleSet: Soft
StackLeniency: 0.7
Mode: 0
LetterboxInBreaks: 0
WidescreenStoryboard: 0

[Editor]
Bookmarks: 772,11605,32938,54272,75438,86272,107605,128938,150272,171605,192938,214272,235438,246272
DistanceSpacing: 1.2
BeatDivisor: 4
GridSize: 8
TimelineZoom: 1.7

[Metadata]
Title:Bye Bye YESTERDAY
TitleUnicode:Bye Bye YESTERDAY
Artist:3-nen E-gumi Utatan
ArtistUnicode:3-nen E-gumi Utatan
Creator:Mking
Version:365 Days Of Feels
Source:Ansatsu Kyoushitsu
Tags:
BeatmapID:1579263
BeatmapSetID:749802

[Difficulty]
HPDrainRate:6
CircleSize:4
OverallDifficulty:8
ApproachRate:9
SliderMultiplier:1.6
SliderTickRate:1

[Events]
//Background and Video events
0,0,"assassination-classroom-background-3 resized.png",0,0
//Break Periods
//Storyboard Layer 0 (Background)
//Storyboard Layer 1 (Fail)
//Storyboard Layer 2 (Pass)
//Storyboard Layer 3 (Foreground)
//Storyboard Sound Samples

[TimingPoints]
939,333.333333333333,4,2,0,40,1,0
54272,-83.3333333333333,4,2,0,40,0,1
75438,-100,4,2,0,40,0,0
128943,-83.3333333333333,4,2,0,40,0,1
150277,-100,4,2,0,40,0,0

[Colours]
Combo1 : 0,255,255
Combo2 : 174,245,10
Combo3 : 135,135,250
Combo4 : 55,55,55

[HitObjects]
69,103,772,5,0,0:0:0:0:
156,163,939,2,0,L|244:165,1,80
297,0,1272,1,0,0:0:0:0:
237,87,1438,2,0,L|235:175,1,80
234,271,1772,1,0,0:0:0:0:
73,153,1938,2,0,P|90:212|150:245,1,120
136,242,2272,5,0,0:0:0:0:
210,168,2438,2,0,L|373:168,1,160
479,169,2938,1,0,0:0:0:0:
424,76,3105,1,0,0:0:0:0:
319,265,3272,1,0,0:0:0:0:
370,168,3438,5,0,0:0:0:0:
283,108,3605,2,0,L|195:106,1,80
142,271,3938,1,0,0:0:0:0:
202,184,4105,2,0,L|204:96,1,80
205,2,4438,1,0,0:0:0:0:
289,184,4605,2,0,P|272:243|212:276,1,120
225,273,4938,5,0,0:0:0:0:
196,179,5105,2,0,P|251:101|318:98,1,160
412,121,5605,1,0,0:0:0:0:
383,20,5772,1,0,0:0:0:0:
310,213,5938,2,0,L|396:215,1,80
234,278,6272,6,0,L|146:280,1,80
93,115,6605,1,0,0:0:0:0:
153,202,6772,2,0,L|155:290,1,80
156,384,7105,1,0,0:0:0:0:
239,194,7272,2,0,P|293:216|318:273,1,120
317,269,7605,5,0,0:0:0:0:
392,192,7772,2,0,L|392:32,1,160
291,2,8272,1,0,0:0:0:0:
304,104,8438,1,0,0:0:0:0:
492,13,8605,1,0,0:0:0:0:
392,32,8772,5,0,0:0:0:0:
452,119,8938,2,0,L|454:207,1,80
289,260,9272,1,0,0:0:0:0:
376,200,9438,2,0,L|464:198,1,80
512,288,9772,1,0,0:0:0:0:
452,119,9938,2,0,P|398:144|377:214,1,120
375,197,10272,5,0,0:0:0:0:
266,190,10438,2,0,P|286:266|352:308,1,160
266,190,10938,5,0,0:0:0:0:
226,190,11022,1,0,0:0:0:0:
186,190,11105,1,0,0:0:0:0:
146,190,11188,1,0,0:0:0:0:
106,190,11272,2,0,P|53:220|42:283,1,120
39,273,11605,5,0,0:0:0:0:
0,142,11772,1,0,0:0:0:0:
128,276,11938,2,0,L|211:278,1,80
307,281,12272,1,0,0:0:0:0:
266,190,12438,2,0,L|183:188,1,80
307,380,12772,2,0,P|240:355|208:275,1,160
215,103,13272,2,0,L|298:105,1,80
405,107,13605,1,0,0:0:0:0:
347,15,13772,1,0,0:0:0:0:
308,201,13938,2,0,L|306:284,1,80
245,369,14272,5,0,0:0:0:0:
200,272,14438,1,0,0:0:0:0:
395,329,14605,2,0,L|397:246,1,80
389,142,14938,1,0,0:0:0:0:
308,201,15105,1,0,0:0:0:0:
396,249,15272,1,0,0:0:0:0:
380,41,15438,1,0,0:0:0:0:
296,98,15605,6,0,L|211:100,1,80
217,312,15938,2,0,P|282:280|307:196,1,160
209,210,16438,1,0,0:0:0:0:
395,329,16605,1,0,0:0:0:0:
217,312,16772,1,0,0:0:0:0:
217,312,16855,1,0,0:0:0:0:
217,312,16938,6,0,L|131:311,1,80
47,130,17272,2,0,L|45:217,1,80
37,317,17605,1,0,0:0:0:0:
149,204,17772,1,0,0:0:0:0:
137,311,17938,1,0,0:0:0:0:
47,130,18105,1,0,0:0:0:0:
149,204,18272,6,0,L|237:202,1,80
333,21,18605,2,0,P|317:65|291:86,1,80
187,100,18938,1,0,0:0:0:0:
336,187,19105,1,0,0:0:0:0:
247,10,19272,2,0,L|164:8,1,80
99,86,19605,6,0,B|94:171|152:153|147:249,1,160
100,328,20105,1,0,0:0:0:0:
66,226,20272,2,0,L|-18:224,1,80
180,103,20605,2,0,L|264:101,1,80
99,86,20938,2,0,P|103:127|126:166,1,80
311,24,21272,2,0,P|344:71|317:173,1,160
259,101,21938,1,0,0:0:0:0:
180,103,22105,1,0,0:0:0:0:
180,103,22188,1,0,0:0:0:0:
180,103,22272,1,0,0:0:0:0:
236,197,22438,6,0,L|233:279,1,80
165,353,22772,1,0,0:0:0:0:
136,248,22938,2,0,L|57:246,1,80
1,156,23272,1,0,0:0:0:0:
9,337,23438,1,0,0:0:0:0:
56,245,23605,2,0,L|135:243,1,80
251,86,23938,2,0,P|202:60|153:78,1,80
187,163,24272,2,0,P|236:189|285:171,1,80
373,29,24605,2,0,L|372:113,1,80
368,217,24938,5,0,0:0:0:0:
258,186,25105,1,0,0:0:0:0:
373,29,25272,2,0,L|292:31,1,80
194,8,25605,2,0,P|192:58|218:97,1,80
273,158,25938,1,0,0:0:0:0:
100,66,26105,1,0,0:0:0:0:
205,83,26272,2,0,P|190:130|153:159,1,80
20,68,26605,2,0,L|100:65,1,80
169,150,26938,6,0,B|185:188|185:188|182:244,1,80
40,115,27272,2,0,B|64:82|64:82|114:56,1,80
99,64,27522,1,0,0:0:0:0:
99,64,27605,1,0,0:0:0:0:
169,150,27772,5,0,0:0:0:0:
9,270,27938,2,0,L|93:272,1,80
169,334,28272,1,0,0:0:0:0:
182,226,28438,1,0,0:0:0:0:
169,334,28605,2,0,L|253:332,1,80
322,262,28938,1,0,0:0:0:0:
345,362,29105,1,0,0:0:0:0:
249,204,29272,2,0,P|285:173|323:168,1,80
412,222,29605,2,0,L|409:133,1,80
240,29,29938,2,0,L|326:26,1,80
427,21,30272,5,0,0:0:0:0:
409,142,30438,1,0,0:0:0:0:
240,29,30605,2,0,P|231:73|246:122,1,80
293,192,30938,1,0,0:0:0:0:
188,192,31105,1,0,0:0:0:0:
223,290,31272,2,0,P|183:297|145:288,1,80,0|0,3:0|0:0,0:0:0:0:
85,200,31605,1,0,0:0:0:0:
188,192,31772,1,0,0:0:0:0:
47,49,31938,5,0,0:0:0:0:
85,200,32105,1,0,0:0:0:0:
136,0,32272,5,0,0:0:0:0:
98,186,32438,1,0,0:0:0:0:
230,43,32605,2,0,L|353:45,1,120
425,47,32938,5,0,0:0:0:0:
425,47,33438,1,0,0:0:0:0:
331,178,33605,2,0,B|293:254|354:254|318:340,1,160
247,287,34272,2,0,L|164:287,1,80
400,225,34605,2,0,L|483:225,1,80
331,178,34938,2,0,P|336:123|268:70,1,120
221,54,35272,1,0,0:0:0:0:
89,55,35605,5,0,0:0:0:0:
89,55,36105,1,0,0:0:0:0:
20,190,36272,2,0,B|56:207|91:186|91:186|95:201|95:201|129:183|168:203,1,160
134,277,36938,2,0,P|131:322|146:353,1,80
49,116,37272,2,0,P|46:71|61:40,1,80
146,95,37605,2,0,L|272:93,1,120
344,93,37938,1,0,0:0:0:0:
265,200,38272,5,0,0:0:0:0:
265,200,38772,1,0,0:0:0:0:
156,83,38938,2,0,B|141:134|141:134|161:182|161:182|145:234,1,160
75,183,39605,2,0,B|37:171|37:171|-25:183,1,80
225,128,39938,2,0,B|263:116|263:116|325:128,1,80
144,234,40272,2,0,B|166:292|166:292|221:315,1,120
292,346,40605,1,0,0:0:0:0:
294,171,40938,6,0,L|417:166,1,120
489,161,41272,1,0,0:0:0:0:
292,91,41438,1,0,0:0:0:0:
413,166,41605,1,0,0:0:0:0:
308,250,41772,1,0,0:0:0:0:
202,62,41938,2,0,P|224:23|259:1,1,80
293,170,42272,2,0,L|170:165,1,120
98,160,42605,1,0,0:0:0:0:
252,3,42938,1,0,0:0:0:0:
168,89,43105,1,0,0:0:0:0:
352,6,43272,2,0,L|357:93,1,80
438,228,43605,6,0,L|443:105,1,120
448,33,43938,1,0,0:0:0:0:
363,200,44105,1,0,0:0:0:0:
356,85,44272,2,0,P|286:61|182:81,1,160
90,141,44772,1,0,0:0:0:0:
182,238,44938,2,0,L|269:242,1,80
202,71,45272,2,0,L|115:67,1,80
281,144,45605,2,0,L|404:149,1,120
476,154,45938,1,0,0:0:0:0:
407,304,46272,5,0,0:0:0:0:
508,227,46438,1,0,0:0:0:0:
473,351,46605,2,0,P|440:378|380:379,1,80
302,293,46938,2,0,L|296:133,1,160
150,0,47605,2,0,L|155:123,1,120
160,195,47938,1,0,0:0:0:0:
233,83,48272,2,0,P|266:56|313:56,1,80
462,98,48605,1,0,0:0:0:0:
378,19,48938,5,0,0:0:0:0:
378,19,49438,1,0,0:0:0:0:
300,149,49605,2,0,L|295:272,1,120
292,344,49938,1,0,0:0:0:0:
213,158,50272,6,0,P|223:103|244:78,1,80
354,27,50605,1,0,0:0:0:0:
160,45,50772,1,0,0:0:0:0:
300,149,50938,2,0,L|423:144,1,120
495,139,51272,1,0,0:0:0:0:
346,240,51605,5,0,0:0:0:0:
170,318,51938,1,0,0:0:0:0:
170,318,52105,1,0,0:0:0:0:
192,176,52272,2,0,L|274:175,2,80
0,21,52938,5,0,0:0:0:0:
33,191,53105,1,0,0:0:0:0:
92,0,53272,5,0,0:0:0:0:
41,228,53438,1,0,0:0:0:0:
192,0,53605,5,0,0:0:0:0:
192,0,54272,5,0,0:0:0:0:
217,210,54438,1,0,0:0:0:0:
295,34,54605,5,0,0:0:0:0:
203,250,54772,1,0,0:0:0:0:
98,25,54938,6,0,L|103:132,1,95.9999970703126
188,290,55272,1,0,0:0:0:0:
181,124,55438,1,0,0:0:0:0:
119,334,55605,2,0,P|191:373|269:303,1,191.999994140625
310,150,56105,1,0,0:0:0:0:
188,290,56272,1,0,0:0:0:0:
220,134,56438,1,0,0:0:0:0:
346,347,56605,2,0,L|350:238,1,95.9999970703126
159,23,56938,6,0,P|162:90|220:134,1,143.999995605469
236,55,57272,2,0,L|88:61,1,143.999995605469
15,68,57605,1,0,0:0:0:0:
114,194,57772,2,0,L|109:296,1,95.9999970703126
236,55,58105,2,0,P|294:48|340:75,1,95.9999970703126
442,183,58438,1,0,0:0:0:0:
376,1,58605,1,0,0:0:0:0:
274,136,58772,1,0,0:0:0:0:
448,97,58938,2,0,P|396:107|363:156,1,95.9999970703126
312,356,59272,2,0,P|296:288|239:251,1,95.9999970703126
105,123,59605,5,0,0:0:0:0:
105,123,59772,2,0,L|109:226,1,95.9999970703126
167,360,60105,1,0,0:0:0:0:
31,268,60272,1,0,0:0:0:0:
197,243,60438,1,0,0:0:0:0:
27,93,60605,2,0,P|60:50|108:39,1,95.9999970703126
322,116,60938,2,0,L|178:119,1,143.999995605469
103,120,61272,1,0,0:0:0:0:
242,38,61438,2,0,L|341:37,1,95.9999970703126
512,34,61772,5,0,0:0:0:0:
442,252,61938,1,0,0:0:0:0:
424,83,62105,1,0,0:0:0:0:
493,340,62272,2,0,P|441:354|391:337,1,95.9999970703126
322,116,62605,2,0,L|318:219,1,95.9999970703126
257,354,62938,1,0,0:0:0:0:
229,196,63105,1,0,0:0:0:0:
401,343,63272,2,0,L|405:240,1,95.9999970703126
234,89,63605,6,0,P|278:115|335:111,1,95.9999970703126
499,16,63938,1,0,0:0:0:0:
404,247,64105,1,0,0:0:0:0:
302,30,64272,2,0,P|234:2|170:25,1,143.999995605469
105,68,64605,1,0,0:0:0:0:
105,68,64938,5,0,0:0:0:0:
71,274,65105,1,0,0:0:0:0:
22,34,65272,5,0,0:0:0:0:
66,293,65438,1,0,0:0:0:0:
192,109,65605,6,0,L|294:111,1,95.9999970703126
512,120,65938,1,0,0:0:0:0:
360,203,66105,1,0,0:0:0:0:
497,27,66272,2,0,P|433:69|442:182,1,191.999994140625
512,319,66772,1,0,0:0:0:0:
357,221,66938,2,0,L|360:330,1,95.9999970703126
267,79,67272,2,0,L|264:188,1,95.9999970703126
130,238,67605,6,0,P|194:267|206:344,1,143.999995605469
131,318,67938,2,0,L|136:167,1,143.999995605469
140,96,68272,1,0,0:0:0:0:
40,229,68438,2,0,L|37:332,1,95.9999970703126
135,174,68772,2,0,P|181:183|227:248,1,95.9999970703126
269,373,69105,1,0,0:0:0:0:
246,110,69272,2,0,L|343:107,1,95.9999970703126
497,151,69605,1,0,0:0:0:0:
387,21,69772,1,0,0:0:0:0:
486,250,69938,2,0,L|384:253,1,95.9999970703126
176,132,70272,6,0,P|259:140|295:191,1,143.999995605469
315,258,70605,1,0,0:0:0:0:
341,107,70772,1,0,0:0:0:0:
210,211,70938,1,0,0:0:0:0:
335,81,71105,1,0,0:0:0:0:
367,333,71272,2,0,P|327:349|270:337,1,95.9999970703126
127,148,71605,2,0,L|124:251,1,95.9999970703126
219,23,71938,2,0,L|216:126,1,95.9999970703126
209,278,72272,1,0,0:0:0:0:
284,61,72438,5,0,0:0:0:0:
124,243,72605,1,0,0:0:0:0:
299,154,72772,1,0,0:0:0:0:
85,39,72938,2,0,P|139:10|220:23,1,143.999995605469
284,61,73272,1,0,0:0:0:0:
211,208,73438,1,0,0:0:0:0:
369,95,73605,1,0,0:0:0:0:
157,136,73772,2,0,P|123:189|130:244,1,120
193,384,74105,1,0,0:0:0:0:
211,208,74272,5,0,0:0:0:0:
266,370,74438,1,0,0:0:0:0:
300,130,74605,5,0,0:0:0:0:
281,384,74772,1,0,0:0:0:0:
406,92,74938,5,0,0:0:0:0:
406,92,75438,5,0,0:0:0:0:
343,172,75605,2,0,L|340:258,1,80
187,8,75938,1,0,0:0:0:0:
250,88,76105,2,0,L|253:174,1,80
233,273,76438,1,0,0:0:0:0:
52,99,76605,2,0,P|95:161|140:167,1,120
134,167,76938,5,0,0:0:0:0:
234,121,77105,2,0,P|281:105|249:166,1,160
136,81,77605,1,0,0:0:0:0:
149,186,77772,1,0,0:0:0:0:
223,34,77938,2,0,P|264:24|301:31,1,80
380,93,78272,6,0,L|466:96,1,80
216,249,78605,1,0,0:0:0:0:
296,186,78772,2,0,L|382:183,1,80
473,218,79105,1,0,0:0:0:0:
380,93,79272,2,0,P|326:63|264:80,1,120
271,74,79605,5,0,0:0:0:0:
211,163,79772,2,0,B|194:237|194:237|220:327,1,160
306,374,80272,1,0,0:0:0:0:
278,237,80438,1,0,0:0:0:0:
143,384,80605,2,0,L|58:380,1,80
1,298,80938,6,0,L|3:218,1,80
165,47,81272,1,0,0:0:0:0:
102,127,81438,2,0,L|99:206,1,80
95,304,81772,1,0,0:0:0:0:
19,114,81938,2,0,P|48:61|111:45,1,120
102,43,82272,5,0,0:0:0:0:
179,133,82438,2,0,P|238:153|314:94,1,160
331,0,82938,1,0,0:0:0:0:
233,68,83105,1,0,0:0:0:0:
437,58,83272,2,0,L|434:141,1,80
371,217,83605,6,0,L|368:303,1,80
215,53,83938,1,0,0:0:0:0:
278,133,84105,2,0,L|281:219,1,80
261,318,84438,1,0,0:0:0:0:
375,131,84605,2,0,P|426:149|453:222,1,120
453,205,84938,5,0,0:0:0:0:
511,125,85105,2,0,B|454:69|454:69|366:49,1,160
203,0,85605,1,0,0:0:0:0:
197,39,85688,1,0,0:0:0:0:
208,77,85772,1,0,0:0:0:0:
233,108,85855,1,0,0:0:0:0:
269,126,85938,2,0,P|310:126|349:147,1,80
394,236,86272,5,0,0:0:0:0:
445,147,86438,1,0,0:0:0:0:
290,218,86605,2,0,P|290:264|318:311,1,80
344,143,86938,2,0,P|344:97|316:50,1,80
244,22,87272,1,0,0:0:0:0:
72,128,87438,2,0,L|209:122,1,120
265,119,87772,1,0,0:0:0:0:
72,222,87938,6,0,P|138:233|171:287,1,120
186,349,88272,1,0,0:0:0:0:
212,198,88438,1,0,0:0:0:0:
8,279,88605,1,0,0:0:0:0:
91,307,88772,1,0,0:0:0:0:
72,222,88938,6,0,L|78:85,1,120
81,29,89272,5,0,0:0:0:0:
172,131,89438,1,0,0:0:0:0:
73,15,89605,5,0,0:0:0:0:
245,90,89772,1,0,0:0:0:0:
67,0,89938,5,0,0:0:0:0:
305,28,90105,1,0,0:0:0:0:
172,131,90272,6,0,L|178:268,1,120
181,324,90605,1,0,0:0:0:0:
257,168,90938,5,0,0:0:0:0:
94,216,91105,1,0,0:0:0:0:
292,273,91272,1,0,0:0:0:0:
77,114,91438,1,0,0:0:0:0:
77,114,91522,1,0,0:0:0:0:
77,114,91605,6,0,P|96:68|128:46,1,80
260,184,91938,2,0,P|309:177|344:194,1,80
397,274,92272,1,0,0:0:0:0:
424,173,92438,1,0,0:0:0:0:
292,273,92605,1,0,0:0:0:0:
356,82,92772,1,0,0:0:0:0:
480,262,92938,6,0,P|471:316|440:344,1,80
212,280,93272,2,0,L|300:272,1,80
397,274,93605,1,0,0:0:0:0:
340,187,93772,1,0,0:0:0:0:
255,364,93938,1,0,0:0:0:0:
215,196,94105,1,0,0:0:0:0:
291,272,94272,6,0,L|301:190,1,80
266,3,94605,1,0,0:0:0:0:
356,108,94772,1,0,0:0:0:0:
172,25,94938,1,0,0:0:0:0:
211,215,95105,1,0,0:0:0:0:
280,104,95272,2,0,P|320:95|362:112,1,80
352,253,95605,6,0,P|324:222|317:177,1,80
410,44,95938,2,0,P|438:111|395:184,1,160
280,104,96438,1,0,0:0:0:0:
352,253,96605,1,0,0:0:0:0:
197,42,96772,1,0,0:0:0:0:
197,42,96855,1,0,0:0:0:0:
197,42,96938,6,0,P|176:85|190:149,1,80
215,311,97272,5,0,0:0:0:0:
118,175,97438,1,0,0:0:0:0:
223,315,97605,5,0,0:0:0:0:
90,253,97772,1,0,0:0:0:0:
231,319,97938,1,0,0:0:0:0:
197,42,98105,6,0,P|238:45|280:78,1,80
322,203,98438,1,0,0:0:0:0:
355,16,98605,1,0,0:0:0:0:
235,158,98772,1,0,0:0:0:0:
414,88,98938,1,0,0:0:0:0:
373,287,99105,1,0,0:0:0:0:
233,68,99272,2,0,P|180:86|147:144,1,120
143,215,99605,5,0,0:0:0:0:
16,0,99938,2,0,L|24:95,1,80
1,187,100272,1,0,0:0:0:0:
139,115,100438,1,0,0:0:0:0:
40,285,100605,2,0,L|178:299,1,120
235,308,100938,5,0,0:0:0:0:
228,140,101105,1,0,0:0:0:0:
335,338,101272,1,0,0:0:0:0:
315,87,101438,1,0,0:0:0:0:
312,255,101605,2,0,P|373:259|414:309,1,120
433,376,101938,1,0,0:0:0:0:
486,149,102105,1,0,0:0:0:0:
486,149,102188,1,0,0:0:0:0:
486,149,102272,5,0,0:0:0:0:
390,285,102438,2,0,L|384:195,1,80
338,110,102772,1,0,0:0:0:0:
286,237,102938,1,0,0:0:0:0:
267,64,103105,2,0,P|297:32|342:28,1,80
502,103,103438,1,0,0:0:0:0:
421,0,103605,5,0,0:0:0:0:
419,130,103772,1,0,0:0:0:0:
167,22,103938,2,0,P|207:63|275:59,1,120
331,26,104272,1,0,0:0:0:0:
0,151,104605,6,0,L|95:161,1,80
235,204,104938,2,0,P|174:215|132:272,1,120
222,298,105272,2,0,P|183:240|177:140,1,160
207,22,105772,1,0,0:0:0:0:
176,160,105938,1,0,0:0:0:0:
122,0,106105,1,0,0:0:0:0:
264,117,106272,2,0,P|303:125|349:117,1,80
509,32,106605,5,0,0:0:0:0:
450,212,106772,1,0,0:0:0:0:
431,8,106938,5,0,0:0:0:0:
460,235,107105,1,0,0:0:0:0:
352,1,107272,2,0,L|219:11,1,120
156,17,107605,5,0,0:0:0:0:
156,17,108105,1,0,0:0:0:0:
141,176,108272,2,0,L|156:16,1,160
154,254,108938,2,0,L|139:167,1,80
140,332,109272,2,0,L|155:245,1,80
233,183,109605,1,0,0:0:0:0:
251,288,109772,1,0,0:0:0:0:
74,225,109938,2,0,P|64:155|90:110,1,120
149,67,110272,5,0,0:0:0:0:
149,67,110772,1,0,0:0:0:0:
296,65,110938,2,0,P|220:92|148:66,1,160
408,55,111605,2,0,P|351:42|278:84,1,120
248,123,111938,1,0,0:0:0:0:
351,278,112272,1,0,0:0:0:0:
360,147,112438,1,0,0:0:0:0:
254,321,112605,2,0,L|127:326,1,120
60,330,112938,5,0,0:0:0:0:
60,330,113438,1,0,0:0:0:0:
57,173,113605,2,0,B|75:252|75:252|60:329,1,160
56,94,114272,2,0,B|49:137|49:137|58:178,1,80
56,15,114605,2,0,B|63:58|63:58|54:99,1,80
137,133,114938,1,0,0:0:0:0:
56,172,115105,1,0,0:0:0:0:
56,15,115272,2,0,L|178:22,1,120
249,30,115605,5,0,0:0:0:0:
222,127,115772,1,0,0:0:0:0:
335,20,115938,1,0,0:0:0:0:
359,218,116105,1,0,0:0:0:0:
382,100,116272,2,0,L|307:143,1,80
129,206,116605,2,0,P|195:209|234:259,1,120
248,319,116938,5,0,0:0:0:0:
312,139,117272,1,0,0:0:0:0:
344,245,117438,1,0,0:0:0:0:
209,132,117605,2,0,L|116:144,1,80
249,41,117938,2,0,L|372:51,1,120
443,60,118272,5,0,0:0:0:0:
443,60,118772,1,0,0:0:0:0:
441,214,118938,2,0,B|473:132|403:134|450:43,1,160
366,173,119605,2,0,P|315:167|278:190,1,80
214,184,119938,2,0,P|265:190|302:167,1,80
216,324,120272,2,0,P|203:286|173:261,1,80
130,197,120605,2,0,P|142:234|172:259,1,80
247,105,120938,5,0,0:0:0:0:
247,105,121438,1,0,0:0:0:0:
386,106,121605,2,0,B|352:99|316:115|316:115|319:102|319:102|287:116|236:101,1,160
362,203,122272,2,0,L|362:287,1,80
245,103,122605,2,0,L|245:23,1,80
147,83,122938,2,0,L|147:167,1,80
49,223,123272,2,0,L|49:143,1,80
147,163,123605,5,0,0:0:0:0:
147,163,124105,1,0,0:0:0:0:
155,272,124272,2,0,P|208:255|246:204,1,120
254,130,124605,1,0,0:0:0:0:
205,358,124938,2,0,P|245:344|291:359,1,80
355,242,125272,2,0,P|322:214|312:167,1,80
452,281,125605,2,0,L|450:367,2,80
509,100,126272,5,0,0:0:0:0:
349,69,126605,1,0,0:0:0:0:
349,69,126772,1,0,0:0:0:0:
397,169,126938,2,0,P|346:207|257:168,1,160
188,67,127605,5,0,0:0:0:0:
327,127,127772,1,0,0:0:0:0:
150,146,127938,5,0,0:0:0:0:
344,145,128105,1,0,0:0:0:0:
144,235,128272,5,0,0:0:0:0:
144,235,128938,5,0,0:0:0:0:
346,290,129105,1,0,0:0:0:0:
150,146,129272,5,0,0:0:0:0:
366,300,129438,1,0,0:0:0:0:
224,38,129605,6,0,L|239:144,1,95.9999970703126
269,332,129938,1,0,0:0:0:0:
144,235,130105,1,0,0:0:0:0:
386,143,130272,2,0,P|315:221|349:293,1,191.999994140625
486,374,130772,1,0,0:0:0:0:
401,228,130938,1,0,0:0:0:0:
328,383,131105,1,0,0:0:0:0:
293,124,131272,1,0,0:0:0:0:
403,325,131438,1,0,0:0:0:0:
465,149,131605,6,0,P|420:112|413:30,1,143.999995605469
494,65,131938,2,0,L|349:56,1,143.999995605469
276,51,132272,1,0,0:0:0:0:
226,200,132438,1,0,0:0:0:0:
186,6,132605,1,0,0:0:0:0:
151,251,132772,6,0,P|203:291|239:291,1,95.9999970703126
328,147,133105,2,0,L|319:250,1,95.9999970703126
218,374,133438,1,0,0:0:0:0:
226,200,133605,1,0,0:0:0:0:
318,347,133772,1,0,0:0:0:0:
136,165,133938,2,0,P|92:183|65:224,1,95.9999970703126
20,384,134272,5,0,0:0:0:0:
177,346,134438,1,0,0:0:0:0:
13,279,134605,2,0,P|62:301|107:287,1,95.9999970703126
226,200,134938,1,0,0:0:0:0:
67,208,135105,1,0,0:0:0:0:
177,14,135272,2,0,L|182:110,1,95.9999970703126
317,202,135605,2,0,P|300:256|215:289,1,143.999995605469
151,278,135938,1,0,0:0:0:0:
336,116,136105,2,0,P|384:143|403:192,1,95.9999970703126
396,340,136438,5,0,0:0:0:0:
491,169,136605,1,0,0:0:0:0:
291,290,136772,1,0,0:0:0:0:
471,258,136938,2,0,P|423:231|404:182,1,95.9999970703126
481,24,137272,2,0,P|433:52|381:44,1,95.9999970703126
235,4,137605,1,0,0:0:0:0:
245,203,137772,1,0,0:0:0:0:
313,22,137938,1,0,0:0:0:0:
304,269,138105,1,0,0:0:0:0:
137,97,138272,6,0,L|246:106,1,95.9999970703126
420,177,138605,1,0,0:0:0:0:
211,216,138772,1,0,0:0:0:0:
457,92,138938,2,0,P|504:138|499:222,1,143.999995605469
470,282,139272,1,0,0:0:0:0:
470,282,139605,5,0,0:0:0:0:
275,207,139772,1,0,0:0:0:0:
442,364,139938,5,0,0:0:0:0:
258,190,140105,1,0,0:0:0:0:
359,384,140272,6,0,P|336:311|247:290,1,143.999995605469
205,305,140605,1,0,0:0:0:0:
255,160,140772,1,0,0:0:0:0:
356,291,140938,2,0,P|410:180|474:180,1,191.999994140625
390,75,141438,1,0,0:0:0:0:
443,268,141605,1,0,0:0:0:0:
488,98,141772,1,0,0:0:0:0:
270,225,141938,1,0,0:0:0:0:
292,64,142105,1,0,0:0:0:0:
351,255,142272,6,0,P|279:312|209:285,1,143.999995605469
270,225,142605,2,0,P|218:337|164:336,1,191.999994140625
199,175,143105,2,0,P|241:137|295:142,1,95.9999970703126
367,268,143438,6,0,L|374:172,1,95.9999970703126
382,49,143772,1,0,0:0:0:0:
462,207,143938,1,0,0:0:0:0:
278,136,144105,1,0,0:0:0:0:
490,68,144272,1,0,0:0:0:0:
402,290,144438,1,0,0:0:0:0:
302,50,144605,2,0,P|238:54|207:82,1,95.9999970703126
275,231,144938,6,0,L|278:129,1,95.9999970703126
395,21,145272,1,0,0:0:0:0:
381,194,145438,1,0,0:0:0:0:
309,12,145605,1,0,0:0:0:0:
470,199,145772,1,0,0:0:0:0:
240,58,145938,2,0,P|206:88|198:150,1,95.9999970703126
301,354,146272,2,0,L|286:206,1,143.999995605469
278,135,146605,1,0,0:0:0:0:
210,283,146772,2,0,L|114:272,1,95.9999970703126
239,56,147105,6,0,P|287:46|341:76,1,95.9999970703126
403,215,147438,1,0,0:0:0:0:
278,135,147605,2,0,L|294:291,1,143.999995605469
210,283,147938,2,0,P|236:217|349:219,1,191.999994140625
419,360,148438,5,0,0:0:0:0:
426,169,148605,1,0,0:0:0:0:
337,364,148772,5,0,0:0:0:0:
411,152,148938,1,0,0:0:0:0:
206,208,149105,5,0,0:0:0:0:
433,256,149272,1,0,0:0:0:0:
216,99,149438,5,0,0:0:0:0:
450,249,149605,1,0,0:0:0:0:
336,157,150272,5,0,0:0:0:0:
314,245,150438,1,0,0:0:0:0:
282,98,150772,5,0,0:0:0:0:
315,257,150938,1,0,0:0:0:0:
356,76,151272,5,0,0:0:0:0:
316,269,151438,1,0,0:0:0:0:
298,20,151772,5,0,0:0:0:0:
317,281,151938,1,0,0:0:0:0:
232,168,152272,6,0,L|229:215,1,40
356,76,152605,2,0,L|359:123,1,40
317,281,152938,5,0,0:0:0:0:
229,207,153105,1,0,0:0:0:0:
381,226,153438,5,0,0:0:0:0:
217,205,153605,1,0,0:0:0:0:
397,312,153938,5,0,0:0:0:0:
209,201,154105,1,0,0:0:0:0:
465,251,154438,5,0,0:0:0:0:
202,198,154605,1,0,0:0:0:0:
381,226,154938,6,0,L|378:186,1,40
251,318,155272,2,0,L|253:278,1,40
152,87,155605,5,0,0:0:0:0:
249,66,155772,1,0,0:0:0:0:
88,26,156105,5,0,0:0:0:0:
258,70,156272,1,0,0:0:0:0:
68,110,156605,5,0,0:0:0:0:
265,74,156772,1,0,0:0:0:0:
6,51,157105,5,0,0:0:0:0:
272,79,157272,1,0,0:0:0:0:
231,183,157605,6,0,L|228:222,1,40
101,91,157938,2,0,L|103:130,1,40
231,183,158272,5,0,0:0:0:0:
275,99,158438,1,0,0:0:0:0:
289,245,158772,5,0,0:0:0:0:
272,88,158938,1,0,0:0:0:0:
209,266,159272,5,0,0:0:0:0:
268,76,159438,1,0,0:0:0:0:
265,328,159772,5,0,0:0:0:0:
264,66,159938,1,0,0:0:0:0:
210,217,160272,6,0,L|213:256,1,40
340,125,160605,2,0,L|338:164,1,40
328,308,160938,5,0,0:0:0:0:
419,337,161105,1,0,0:0:0:0:
486,268,161272,1,0,0:0:0:0:
465,174,161438,1,0,0:3:0:0:
372,151,161605,1,0,0:3:0:0:
345,59,161772,2,0,B|378:5|378:5|438:5,1,120
505,37,162105,5,0,0:0:0:0:
505,37,162438,5,0,0:0:0:0:
503,133,162605,1,0,0:0:0:0:
503,229,162772,1,0,0:0:0:0:
503,229,163605,5,0,0:0:0:0:
407,235,163772,1,0,0:0:0:0:
502,237,163938,1,0,0:0:0:0:
457,322,164105,1,0,0:0:0:0:
360,325,164272,1,0,0:0:0:0:
308,242,164438,2,0,L|182:237,1,120
119,235,164772,1,0,0:0:0:0:
119,235,165105,5,0,0:0:0:0:
158,147,165272,1,0,0:0:0:0:
122,58,165438,2,0,L|35:68,1,80
214,71,165772,2,0,P|279:71|333:142,1,160
299,231,166272,5,0,0:0:0:0:
248,150,166438,1,0,0:0:0:0:
204,235,166605,1,0,0:0:0:0:
256,316,166772,1,0,0:0:0:0:
352,311,166938,1,0,0:0:0:0:
395,225,167105,2,0,L|376:93,1,120
370,38,167438,1,0,0:0:0:0:
370,38,167772,5,0,0:0:0:0:
328,124,167938,1,0,0:0:0:0:
286,210,168105,2,0,P|249:198|206:212,1,80
327,297,168438,2,0,P|364:285|407:299,2,80
277,379,168938,5,0,0:0:0:0:
250,286,169105,1,0,0:0:0:0:
183,356,169272,1,0,0:0:0:0:
239,279,169438,1,0,0:0:0:0:
219,184,169605,1,0,0:0:0:0:
157,257,169772,2,0,P|126:201|133:145,1,120
172,88,170105,1,0,0:0:0:0:
172,88,170438,5,0,0:0:0:0:
268,92,170605,1,0,0:0:0:0:
363,104,170772,1,0,0:0:0:0:
363,104,171105,2,0,B|323:173|395:190|355:274,1,160
306,319,171605,6,0,L|221:319,1,80
178,242,171938,2,0,P|146:274|137:325,1,80
136,177,172272,2,0,P|168:209|177:260,1,80
177,112,172605,2,0,P|145:144|136:195,1,80
227,192,172938,6,0,L|308:197,1,80
90,256,173272,2,0,L|9:261,1,80
213,346,173605,2,0,B|253:344|253:344|313:318,1,80
360,192,173938,1,0,0:0:0:0:
385,341,174105,1,0,0:0:0:0:
275,152,174272,6,0,L|273:239,1,80
207,379,174605,1,0,0:0:0:0:
165,218,174772,1,0,0:0:0:0:
318,315,174938,2,0,P|344:294|365:243,1,80
335,87,175272,1,0,0:0:0:0:
455,201,175438,1,0,0:0:0:0:
266,137,175605,6,0,L|169:132,1,80
52,38,175938,1,0,0:0:0:0:
69,202,176105,1,0,0:0:0:0:
164,27,176272,1,0,0:0:0:0:
148,253,176438,1,0,0:0:0:0:
66,46,176605,1,0,0:0:0:0:
242,265,176772,1,0,0:0:0:0:
100,176,176938,6,0,P|62:215|61:263,1,80
