osu file format v14

[General]
AudioFilename: audio.mp3
AudioLeadIn: 0
PreviewTime: 48298
Countdown: 0
SampleSet: None
StackLeniency: 0.7
Mode: 3
LetterboxInBreaks: 0
SpecialStyle: 0
WidescreenStoryboard: 1

[Editor]
DistanceSpacing: 1.3
BeatDivisor: 4
GridSize: 4
TimelineZoom: 2.2

[Metadata]
Title:Bye Bye YESTERDAY
TitleUnicode:Bye Bye YESTERDAY
Artist:3-Nen E-Gumi Utatan
ArtistUnicode:3-Nen E-Gumi Utatan
Creator:chouyaa
Version:Easy
Source:Ansatsu Kyoushitsu
Tags:assassination classroom final season season 2 op 2 op 4 bye bye yesterday 3-nen e-gumi utatan
BeatmapID:1240822
BeatmapSetID:582466

[Difficulty]
HPDrainRate:7
CircleSize:4
OverallDifficulty:7
ApproachRate:5
SliderMultiplier:0.700000005960464
SliderTickRate:1

[Events]
//Background and Video events
0,0,"Koro-sensei.jpg",0,0
//Break Periods
//Storyboard Layer 0 (Background)
//Storyboard Layer 1 (Fail)
//Storyboard Layer 2 (Pass)
//Storyboard Layer 3 (Foreground)
//Storyboard Sound Samples

[TimingPoints]
288,333.333333333333,4,3,0,25,1,0

[HitObjects]
64,192,288,5,0,0:0:0:0:
192,192,288,1,0,0:0:0:0:
320,192,621,1,0,0:0:0:0:
192,192,954,1,0,0:0:0:0:
64,192,1287,1,0,0:0:0:0:
448,192,1621,1,0,0:0:0:0:
320,192,1621,1,0,0:0:0:0:
192,192,1954,1,0,0:0:0:0:
320,192,2287,1,0,0:0:0:0:
448,192,2621,1,0,0:0:0:0:
64,192,2954,1,0,0:0:0:0:
192,192,2954,1,0,0:0:0:0:
448,192,3287,1,0,0:0:0:0:
192,192,3621,1,0,0:0:0:0:
320,192,3954,1,0,0:0:0:0:
64,192,4287,1,0,0:0:0:0:
448,192,4287,1,0,0:0:0:0:
192,192,4621,1,0,0:0:0:0:
448,192,4954,128,0,5621:0:0:0:0:
320,192,5621,1,0,0:0:0:0:
192,192,5954,1,0,0:0:0:0:
448,192,6287,1,0,0:0:0:0:
320,192,6621,1,0,0:0:0:0:
448,192,6954,1,0,0:0:0:0:
192,192,6954,1,0,0:0:0:0:
64,192,7287,1,0,0:0:0:0:
320,192,7287,1,0,0:0:0:0:
320,192,7621,1,0,0:0:0:0:
192,192,7954,1,0,0:0:0:0:
64,192,7954,1,0,0:0:0:0:
448,192,8287,1,0,0:0:0:0:
192,192,8621,1,0,0:0:0:0:
448,192,8954,1,0,0:0:0:0:
192,192,9287,1,0,0:0:0:0:
64,192,9621,1,0,0:0:0:0:
320,192,9954,1,0,0:0:0:0:
448,192,9954,1,0,0:0:0:0:
192,192,10287,1,0,0:0:0:0:
320,192,10621,1,0,0:0:0:0:
448,192,10954,1,0,0:0:0:0:
64,192,10954,1,0,0:0:0:0:
192,192,11287,128,0,12287:0:0:0:0:
448,192,11621,1,0,0:0:0:0:
448,192,11954,1,0,0:0:0:0:
320,192,12287,1,0,0:0:0:0:
64,192,12621,1,0,0:0:0:0:
320,192,12954,1,0,0:0:0:0:
192,192,13287,1,0,0:0:0:0:
448,192,13287,1,0,0:0:0:0:
320,192,13621,1,0,0:0:0:0:
192,192,13954,1,0,0:0:0:0:
448,192,13954,1,0,0:0:0:0:
64,192,14287,1,0,0:0:0:0:
448,192,14621,1,0,0:0:0:0:
192,192,14787,1,0,0:0:0:0:
320,192,14787,1,0,0:0:0:0:
64,192,14954,1,0,0:0:0:0:
64,192,15287,1,0,0:0:0:0:
448,192,15287,1,0,0:0:0:0:
448,192,15621,128,0,16287:0:0:0:0:
320,192,16287,128,0,16954:0:0:0:0:
64,192,16954,128,0,17287:0:0:0:0:
192,192,17287,128,0,18287:0:0:0:0:
448,192,18287,1,0,0:0:0:0:
448,192,18621,1,0,0:0:0:0:
320,192,18954,1,0,0:0:0:0:
192,192,19287,1,0,0:0:0:0:
64,192,19621,1,0,0:0:0:0:
192,192,19954,1,0,0:0:0:0:
320,192,20287,1,0,0:0:0:0:
192,192,20621,1,0,0:0:0:0:
320,192,20954,1,0,0:0:0:0:
320,192,21287,1,0,0:0:0:0:
192,192,21621,128,0,22121:0:0:0:0:
64,192,22121,128,0,22621:0:0:0:0:
192,192,22621,128,0,23621:0:0:0:0:
448,192,23621,1,0,0:0:0:0:
448,192,23954,1,0,0:0:0:0:
320,192,24287,128,0,24787:0:0:0:0:
448,192,24787,128,0,25287:0:0:0:0:
320,192,25287,128,0,26287:0:0:0:0:
64,192,26287,1,0,0:0:0:0:
64,192,26621,1,0,0:0:0:0:
64,192,26954,128,0,27621:0:0:0:0:
320,192,27621,1,0,0:0:0:0:
192,192,27954,1,0,0:0:0:0:
320,192,28287,1,0,0:0:0:0:
448,192,28621,1,0,0:0:0:0:
320,192,28954,1,0,0:0:0:0:
64,192,29287,1,0,0:0:0:0:
192,192,29621,1,0,0:0:0:0:
448,192,30287,128,0,30954:0:0:0:0:
192,192,30954,1,0,0:0:0:0:
320,192,31287,1,0,0:0:0:0:
64,192,31621,1,0,0:0:0:0:
192,192,31954,1,0,0:0:0:0:
448,192,32287,1,0,0:0:0:0:
64,192,32287,1,0,0:0:0:0:
64,192,32954,128,0,33621:0:0:0:0:
448,192,33621,1,0,0:0:0:0:
320,192,33954,1,0,0:0:0:0:
448,192,34287,1,0,0:0:0:0:
192,192,34621,1,0,0:0:0:0:
64,192,34954,1,0,0:0:0:0:
448,192,34954,1,0,0:0:0:0:
192,192,35287,1,0,0:0:0:0:
320,192,35621,1,0,0:0:0:0:
64,192,35954,1,0,0:0:0:0:
192,192,36287,1,0,0:0:0:0:
448,192,36287,1,0,0:0:0:0:
64,192,36621,1,0,0:0:0:0:
320,192,36954,1,0,0:0:0:0:
64,192,37287,1,0,0:0:0:0:
192,192,37287,1,0,0:0:0:0:
448,192,37621,128,0,38287:0:0:0:0:
192,192,38287,1,0,0:0:0:0:
320,192,38621,1,0,0:0:0:0:
192,192,38954,1,0,0:0:0:0:
64,192,39287,1,0,0:0:0:0:
320,192,39621,1,0,0:0:0:0:
192,192,39954,1,0,0:0:0:0:
320,192,40287,1,0,0:0:0:0:
64,192,40287,1,0,0:0:0:0:
64,192,40954,128,0,41621:0:0:0:0:
320,192,41621,1,0,0:0:0:0:
192,192,41954,1,0,0:0:0:0:
448,192,42287,1,0,0:0:0:0:
320,192,42621,1,0,0:0:0:0:
448,192,42954,1,0,0:0:0:0:
64,192,42954,1,0,0:0:0:0:
448,192,43621,128,0,44287:0:0:0:0:
64,192,44287,1,0,0:0:0:0:
192,192,44621,1,0,0:0:0:0:
64,192,44954,1,0,0:0:0:0:
320,192,45287,1,0,0:0:0:0:
64,192,45621,1,0,0:0:0:0:
448,192,45621,1,0,0:0:0:0:
320,192,45954,1,0,0:0:0:0:
320,192,46121,1,0,0:0:0:0:
64,192,46621,1,0,0:0:0:0:
448,192,46954,1,0,0:0:0:0:
192,192,46954,1,0,0:0:0:0:
448,192,47287,1,0,0:0:0:0:
192,192,47621,1,0,0:0:0:0:
448,192,47621,1,0,0:0:0:0:
64,192,48287,1,0,0:0:0:0:
320,192,48287,1,0,0:0:0:0:
64,192,48621,1,0,0:0:0:0:
320,192,48621,1,0,0:0:0:0:
64,192,48954,1,0,0:0:0:0:
448,192,49287,1,0,0:0:0:0:
448,192,49621,1,0,0:0:0:0:
64,192,49954,1,0,0:0:0:0:
192,192,50287,1,0,0:0:0:0:
320,192,50621,1,0,0:0:0:0:
64,192,50954,1,0,0:0:0:0:
448,192,50954,1,0,0:0:0:0:
320,192,51287,1,0,0:0:0:0:
192,192,51621,1,0,0:0:0:0:
448,192,51954,1,0,0:0:0:0:
64,192,52287,1,0,0:0:0:0:
320,192,52287,1,0,0:0:0:0:
64,192,52621,1,0,0:0:0:0:
448,192,52954,1,0,0:0:0:0:
192,192,53287,1,0,0:0:0:0:
192,192,53621,1,0,0:0:0:0:
448,192,53621,1,0,0:0:0:0:
64,192,53954,128,0,54621:0:0:0:0:
320,192,54287,1,0,0:0:0:0:
320,192,54621,1,0,0:0:0:0:
320,192,54954,128,0,55621:0:0:0:0:
64,192,54954,1,0,0:0:0:0:
192,192,55287,1,0,0:0:0:0:
64,192,55621,1,0,0:0:0:0:
448,192,55954,1,0,0:0:0:0:
64,192,56287,1,0,0:0:0:0:
448,192,56621,128,0,56954:0:0:0:0:
192,192,56954,1,0,0:0:0:0:
192,192,57287,128,0,57621:0:0:0:0:
448,192,57621,1,0,0:0:0:0:
448,192,57954,1,0,0:0:0:0:
320,192,58287,1,0,0:0:0:0:
64,192,58621,1,0,0:0:0:0:
192,192,58954,1,0,0:0:0:0:
448,192,58954,1,0,0:0:0:0:
192,192,59287,1,0,0:0:0:0:
448,192,59287,1,0,0:0:0:0:
448,192,59621,1,0,0:0:0:0:
64,192,59954,1,0,0:0:0:0:
320,192,60287,1,0,0:0:0:0:
448,192,60621,1,0,0:0:0:0:
192,192,60954,1,0,0:0:0:0:
320,192,61287,1,0,0:0:0:0:
64,192,61621,1,0,0:0:0:0:
448,192,61621,1,0,0:0:0:0:
192,192,61954,1,0,0:0:0:0:
320,192,62287,1,0,0:0:0:0:
64,192,62621,1,0,0:0:0:0:
448,192,62954,1,0,0:0:0:0:
192,192,62954,1,0,0:0:0:0:
448,192,63287,1,0,0:0:0:0:
64,192,63621,1,0,0:0:0:0:
320,192,63954,1,0,0:0:0:0:
320,192,64287,1,0,0:0:0:0:
64,192,64287,1,0,0:0:0:0:
448,192,64621,128,0,65287:0:0:0:0:
192,192,64954,1,0,0:0:0:0:
192,192,65287,1,0,0:0:0:0:
192,192,65621,128,0,66287:0:0:0:0:
448,192,65621,1,0,0:0:0:0:
320,192,65954,1,0,0:0:0:0:
448,192,66287,1,0,0:0:0:0:
64,192,66621,1,0,0:0:0:0:
448,192,66954,1,0,0:0:0:0:
64,192,67287,128,0,67621:0:0:0:0:
320,192,67621,1,0,0:0:0:0:
320,192,67954,128,0,68287:0:0:0:0:
64,192,68287,1,0,0:0:0:0:
64,192,68621,1,0,0:0:0:0:
192,192,68954,1,0,0:0:0:0:
448,192,69287,1,0,0:0:0:0:
64,192,69621,1,0,0:0:0:0:
320,192,69621,1,0,0:0:0:0:
64,192,69954,1,0,0:0:0:0:
320,192,69954,1,0,0:0:0:0:
192,192,70287,1,0,0:0:0:0:
448,192,70621,1,0,0:0:0:0:
192,192,70954,1,0,0:0:0:0:
64,192,71287,1,0,0:0:0:0:
192,192,71621,1,0,0:0:0:0:
320,192,71954,1,0,0:0:0:0:
448,192,72287,1,0,0:0:0:0:
64,192,72287,1,0,0:0:0:0:
192,192,72621,1,0,0:0:0:0:
320,192,72954,1,0,0:0:0:0:
64,192,73287,1,0,0:0:0:0:
448,192,73621,1,0,0:0:0:0:
192,192,73621,1,0,0:0:0:0:
448,192,73954,1,0,0:0:0:0:
64,192,74287,1,0,0:0:0:0:
320,192,74621,1,0,0:0:0:0:
64,192,74954,1,0,0:0:0:0:
320,192,74954,1,0,0:0:0:0:
448,192,75287,1,0,0:0:0:0:
320,192,75621,1,0,0:0:0:0:
192,192,75954,1,0,0:0:0:0:
448,192,75954,1,0,0:0:0:0:
64,192,76287,1,0,0:0:0:0:
64,192,76621,1,0,0:0:0:0:
320,192,76621,1,0,0:0:0:0:
320,192,76954,1,0,0:0:0:0:
64,192,77287,1,0,0:0:0:0:
448,192,77287,1,0,0:0:0:0:
320,192,77621,1,0,0:0:0:0:
64,192,77954,1,0,0:0:0:0:
320,192,78287,1,0,0:0:0:0:
192,192,78621,1,0,0:0:0:0:
192,192,78954,1,0,0:0:0:0:
320,192,79287,1,0,0:0:0:0:
448,192,79621,1,0,0:0:0:0:
64,192,79787,1,0,0:0:0:0:
320,192,79954,1,0,0:0:0:0:
192,192,80121,1,0,0:0:0:0:
64,192,80287,1,0,0:0:0:0:
448,192,80287,1,0,0:0:0:0:
