osu file format v14

[General]
AudioFilename: audio.mp3
AudioLeadIn: 0
PreviewTime: 49437
Countdown: 0
SampleSet: Normal
StackLeniency: 0.7
Mode: 1
LetterboxInBreaks: 0
WidescreenStoryboard: 1

[Editor]
DistanceSpacing: 1
BeatDivisor: 4
GridSize: 32
TimelineZoom: 2.799999

[Metadata]
Title:QUESTION
TitleUnicode:QUESTION
Artist:3 Nen E Gumi Utatan
ArtistUnicode:3年E組うた担
Creator:Stefan
Version:Oni
Source:暗殺教室 第2期
Tags:クエスチョン kuesuchon opening op song unit savage youth theory kohei tanaka hiroshi nakamura ansatsu kyoushitsu assassination classroom second season 2nd opening japanese anime nagisa shiota mai fuchigami kaede kayano aya suzaki karma akabane nobuhiko okamoto yuuma isogai ryota ohsaka hiroto maehara shintaro asanuma 渕上舞 洲崎綾 岡本信彦 逢坂良太 浅沼晋太郎 赤羽業 前原陽斗 淺沼晉太郎 thenutritiousguy tng
BeatmapID:2426704
BeatmapSetID:1163274

[Difficulty]
HPDrainRate:5
CircleSize:5
OverallDifficulty:5.5
ApproachRate:5
SliderMultiplier:1.4
SliderTickRate:1

[Events]
//Background and Video events
0,0,"M9ed6CIcgs.jpg",0,0
//Break Periods
//Storyboard Layer 0 (Background)
//Storyboard Layer 1 (Fail)
//Storyboard Layer 2 (Pass)
//Storyboard Layer 3 (Foreground)
//Storyboard Layer 4 (Overlay)
//Storyboard Sound Samples

[TimingPoints]
624,338.983050847458,4,1,0,75,1,0
624,-107.52688172043,4,1,0,75,0,0
6301,-100,4,1,1,80,0,0
11895,-100,4,1,0,80,0,0
12403,-100,4,1,1,80,0,0
12573,-100,4,1,0,80,0,0
13081,-100,4,1,1,80,0,0
13251,-100,4,1,0,80,0,0
13759,-100,4,1,1,80,0,0
13929,-100,4,1,0,80,0,0
14437,-100,4,1,1,80,0,0
14607,-100,4,1,0,80,0,0
15115,-100,4,1,1,80,0,0
15285,-100,4,1,0,80,0,0
15793,-100,4,1,1,80,0,0
15963,-100,4,1,0,80,0,0
16471,-100,4,1,1,80,0,0
16810,-100,4,1,0,80,0,0
17149,-100,4,1,1,80,0,0
17319,-100,4,1,0,80,0,0
17827,-100,4,1,1,80,0,0
17997,-100,4,1,0,80,0,0
18505,-100,4,1,1,80,0,0
18675,-100,4,1,0,80,0,0
19183,-100,4,1,1,80,0,0
19353,-100,4,1,0,80,0,0
19861,-100,4,1,1,80,0,0
20031,-100,4,1,0,80,0,0
20539,-100,4,1,1,80,0,0
20709,-100,4,1,0,80,0,0
21217,-100,4,1,1,80,0,0
21387,-100,4,1,0,80,0,0
21725,-100,4,1,1,80,0,0
22318,-100,4,1,0,80,0,0
22488,-100,4,1,0,50,0,0
22657,-111.111111111111,4,1,0,50,0,0
29607,-111.111111111111,4,1,1,75,0,0
29776,-108.695652173913,4,1,1,75,0,0
29946,-106.382978723404,4,1,0,75,0,0
30115,-104.166666666667,4,1,0,75,0,0
30285,-102.040816326531,4,1,0,75,0,0
30454,-100,4,1,0,80,0,0
30708,-100,4,1,1,80,0,0
30878,-100,4,1,0,80,0,0
31386,-100,4,1,1,80,0,0
31556,-100,4,1,0,80,0,0
32064,-100,4,1,1,80,0,0
32234,-100,4,1,0,80,0,0
32742,-100,4,1,1,80,0,0
32912,-100,4,1,0,80,0,0
33335,-100,4,1,1,65,0,0
33505,-111.111111111111,4,1,1,65,0,0
38505,-111.111111111111,4,1,0,70,0,0
38675,-111.111111111111,4,1,1,65,0,0
40624,-108.695652173913,4,1,1,70,0,0
40793,-106.382978723404,4,1,1,70,0,0
40962,-104.166666666667,4,1,1,75,0,0
41132,-102.040816326531,4,1,1,75,0,0
41301,-100,4,1,1,80,0,0
48081,-97.0873786407767,4,1,1,80,0,0
48420,-94.3396226415094,4,1,1,80,0,0
48759,-90.9090909090909,4,1,1,80,0,0
48929,-89.2857142857143,4,1,1,80,0,0
49098,-87.719298245614,4,1,1,80,0,0
49268,-85.4700854700855,4,1,1,80,0,0
49437,-83.3333333333333,4,1,0,90,0,1
49691,-83.3333333333333,4,1,1,90,0,1
49861,-83.3333333333333,4,1,0,90,0,1
50369,-83.3333333333333,4,1,1,90,0,1
50539,-83.3333333333333,4,1,0,90,0,1
51047,-83.3333333333333,4,1,1,90,0,1
53929,-83.3333333333333,4,1,0,90,0,1
55115,-83.3333333333333,4,1,1,90,0,1
55285,-83.3333333333333,4,1,0,90,0,1
55793,-83.3333333333333,4,1,1,90,0,1
55963,-83.3333333333333,4,1,0,90,0,1
56471,-83.3333333333333,4,1,1,90,0,1
56641,-83.3333333333333,4,1,0,90,0,1
57149,-83.3333333333333,4,1,1,90,0,1
57319,-83.3333333333333,4,1,0,90,0,1
57827,-83.3333333333333,4,1,1,90,0,1
57997,-83.3333333333333,4,1,0,90,0,1
58505,-83.3333333333333,4,1,1,90,0,1
58675,-83.3333333333333,4,1,0,90,0,1
59183,-83.3333333333333,4,1,1,90,0,1
59353,-83.3333333333333,4,1,0,90,0,1
59691,-83.3333333333333,4,1,1,90,0,1
60200,-83.3333333333333,4,1,0,90,0,1
60539,-83.3333333333333,4,1,1,90,0,1
60709,-83.3333333333333,4,1,0,90,0,1
61217,-83.3333333333333,4,1,1,90,0,1
61387,-83.3333333333333,4,1,0,90,0,1
61895,-83.3333333333333,4,1,1,90,0,1
62065,-83.3333333333333,4,1,0,90,0,1
62573,-83.3333333333333,4,1,1,90,0,1
62743,-83.3333333333333,4,1,0,90,0,1
63251,-83.3333333333333,4,1,1,90,0,1
63421,-83.3333333333333,4,1,0,90,0,1
63929,-83.3333333333333,4,1,1,90,0,1
64099,-83.3333333333333,4,1,0,90,0,1
64607,-83.3333333333333,4,1,1,90,0,1
64777,-83.3333333333333,4,1,0,90,0,1
65962,-83.3333333333333,4,1,1,90,0,1
66132,-83.3333333333333,4,1,0,90,0,1
66640,-83.3333333333333,4,1,1,90,0,1
66810,-83.3333333333333,4,1,0,90,0,1
67318,-83.3333333333333,4,1,1,90,0,1
67488,-83.3333333333333,4,1,0,90,0,1
67996,-83.3333333333333,4,1,1,90,0,1
68166,-83.3333333333333,4,1,0,90,0,1
68674,-83.3333333333333,4,1,1,90,0,1
68844,-83.3333333333333,4,1,0,90,0,1
69352,-83.3333333333333,4,1,1,90,0,1
69522,-83.3333333333333,4,1,0,90,0,1
69861,-83.3333333333333,4,1,1,90,0,1
70369,-83.3333333333333,4,1,0,90,0,1
71132,-83.3333333333333,4,1,0,85,0,0
71301,-86.9565217391304,4,1,0,85,0,0
71386,-88.4955752212389,4,1,0,85,0,0
71471,-90.0900900900901,4,1,0,85,0,0
71640,-95.2380952380952,4,1,0,85,0,0
76132,-95.2380952380952,4,1,1,85,0,0
76471,-95.2380952380952,4,1,0,85,0,0
79268,-83.3333333333333,4,1,1,85,0,0
80369,-83.3333333333333,4,1,0,85,0,0
80539,-83.3333333333333,4,1,1,85,0,0
81895,-83.3333333333333,4,1,0,85,0,0
82149,-86.9565217391304,4,1,0,85,0,0
82318,-88.4955752212389,4,1,0,85,0,0
82488,-90.0900900900901,4,1,0,85,0,0
82573,-92.5925925925926,4,1,0,85,0,0
82657,-95.2380952380952,4,1,0,85,0,0
90115,-83.3333333333333,4,1,1,85,0,0
91217,-83.3333333333333,4,1,0,85,0,0
91386,-83.3333333333333,4,1,1,85,0,0
92064,-83.3333333333333,4,1,0,85,0,0
93081,-83.3333333333333,4,1,1,80,0,0
93251,-83.3333333333333,4,1,0,80,0,0
93759,-83.3333333333333,4,1,1,80,0,0
93929,-83.3333333333333,4,1,0,80,0,0
94437,-83.3333333333333,4,1,1,80,0,0
94607,-83.3333333333333,4,1,0,80,0,0
95030,-86.9565217391304,4,1,0,80,0,0
95115,-86.9565217391304,4,1,1,80,0,0
95200,-89.2857142857143,4,1,1,80,0,0
95369,-91.743119266055,4,1,0,80,0,0
95539,-94.3396226415094,4,1,0,80,0,0
95708,-97.0873786407767,4,1,0,80,0,0
95793,-97.0873786407767,4,1,1,80,0,0
95878,-100,4,1,1,80,0,0
95962,-100,4,1,0,80,0,0
96471,-100,4,1,1,80,0,0
96641,-100,4,1,0,80,0,0
97149,-100,4,1,1,80,0,0
97319,-100,4,1,0,80,0,0
97827,-100,4,1,1,80,0,0
97997,-100,4,1,0,80,0,0
98505,-100,4,1,1,80,0,0
98675,-100,4,1,0,80,0,0
99183,-100,4,1,1,80,0,0
99353,-100,4,1,0,80,0,0
99861,-100,4,1,1,80,0,0
100031,-100,4,1,0,80,0,0
100539,-100,4,1,1,80,0,0
100709,-100,4,1,0,80,0,0
101217,-100,4,1,1,80,0,0
101386,-100,4,1,0,80,0,0
101937,-100,4,1,1,80,0,0
102022,-100,4,1,0,80,0,0
102573,-100,4,1,1,80,0,0
102743,-100,4,1,0,80,0,0
103081,-100,4,1,1,80,0,0
103674,-100,4,1,0,80,0,0
103844,-100,4,1,1,65,0,0
104013,-111.111111111111,4,1,1,65,0,0
109013,-111.111111111111,4,1,0,70,0,0
109183,-111.111111111111,4,1,1,65,0,0
110963,-111.111111111111,4,1,1,70,0,0
111132,-108.695652173913,4,1,1,75,0,0
111301,-106.382978723404,4,1,1,75,0,0
111471,-104.166666666667,4,1,1,75,0,0
111640,-102.040816326531,4,1,1,75,0,0
111810,-100,4,1,0,80,0,0
112064,-100,4,1,1,80,0,0
112234,-100,4,1,0,80,0,0
112742,-100,4,1,1,80,0,0
112912,-100,4,1,0,80,0,0
113420,-100,4,1,1,80,0,0
113590,-100,4,1,0,80,0,0
114098,-100,4,1,1,80,0,0
114268,-100,4,1,0,80,0,0
114691,-100,4,1,1,65,0,0
114861,-111.111111111111,4,1,1,65,0,0
115624,-111.111111111111,4,1,0,65,0,0
115794,-111.111111111111,4,1,1,65,0,0
118335,-111.111111111111,4,1,0,65,0,0
118505,-111.111111111111,4,1,1,65,0,0
119861,-111.111111111111,4,1,0,70,0,0
120031,-111.111111111111,4,1,1,65,0,0
121047,-111.111111111111,4,1,0,65,0,0
121386,-111.111111111111,4,1,1,65,0,0
121979,-108.695652173913,4,1,1,70,0,0
122149,-106.382978723404,4,1,1,70,0,0
122318,-104.166666666667,4,1,1,75,0,0
122488,-102.040816326531,4,1,1,75,0,0
122657,-100,4,1,1,80,0,0
129437,-97.0873786407767,4,1,1,80,0,0
129776,-94.3396226415094,4,1,1,80,0,0
130115,-90.9090909090909,4,1,1,80,0,0
130285,-89.2857142857143,4,1,1,80,0,0
130454,-87.719298245614,4,1,1,80,0,0
130624,-85.4700854700855,4,1,1,80,0,0
130793,-83.3333333333333,4,1,0,90,0,1
131047,-83.3333333333333,4,1,1,90,0,1
131217,-83.3333333333333,4,1,0,90,0,1
131725,-83.3333333333333,4,1,1,90,0,1
131895,-83.3333333333333,4,1,0,90,0,1
132403,-83.3333333333333,4,1,1,90,0,1
135285,-83.3333333333333,4,1,0,90,0,1
136471,-83.3333333333333,4,1,1,90,0,1
136641,-83.3333333333333,4,1,0,90,0,1
137149,-83.3333333333333,4,1,1,90,0,1
137319,-83.3333333333333,4,1,0,90,0,1
137827,-83.3333333333333,4,1,1,90,0,1
137997,-83.3333333333333,4,1,0,90,0,1
138505,-83.3333333333333,4,1,1,90,0,1
138675,-83.3333333333333,4,1,0,90,0,1
139183,-83.3333333333333,4,1,1,90,0,1
139353,-83.3333333333333,4,1,0,90,0,1
139861,-83.3333333333333,4,1,1,90,0,1
140031,-83.3333333333333,4,1,0,90,0,1
140539,-83.3333333333333,4,1,1,90,0,1
140709,-83.3333333333333,4,1,0,90,0,1
141217,-83.3333333333333,4,1,1,90,0,1
141556,-83.3333333333333,4,1,0,90,0,1
141895,-83.3333333333333,4,1,1,90,0,1
142065,-83.3333333333333,4,1,0,90,0,1
142573,-83.3333333333333,4,1,1,90,0,1
142743,-83.3333333333333,4,1,0,90,0,1
143251,-83.3333333333333,4,1,1,90,0,1
143421,-83.3333333333333,4,1,0,90,0,1
143929,-83.3333333333333,4,1,1,90,0,1
144099,-83.3333333333333,4,1,0,90,0,1
144607,-83.3333333333333,4,1,1,90,0,1
144777,-83.3333333333333,4,1,0,90,0,1
145285,-83.3333333333333,4,1,1,90,0,1
145455,-83.3333333333333,4,1,0,90,0,1
145963,-83.3333333333333,4,1,1,90,0,1
146133,-83.3333333333333,4,1,0,90,0,1
147318,-83.3333333333333,4,1,1,90,0,1
147488,-83.3333333333333,4,1,0,90,0,1
147996,-83.3333333333333,4,1,1,90,0,1
148166,-83.3333333333333,4,1,0,90,0,1
148674,-83.3333333333333,4,1,1,90,0,1
148844,-83.3333333333333,4,1,0,90,0,1
149352,-83.3333333333333,4,1,1,90,0,1
149522,-83.3333333333333,4,1,0,90,0,1
150030,-83.3333333333333,4,1,1,90,0,1
150200,-83.3333333333333,4,1,0,90,0,1
150708,-83.3333333333333,4,1,1,90,0,1
150878,-83.3333333333333,4,1,0,90,0,1
151047,-83.3333333333333,4,1,1,90,0,1
151725,-83.3333333333333,4,1,0,90,0,1
152488,-83.3333333333333,4,1,0,85,0,0
152657,-86.9565217391304,4,1,0,85,0,0
152742,-88.4955752212389,4,1,0,85,0,0
152827,-90.0900900900901,4,1,0,85,0,0
152996,-95.2380952380952,4,1,0,85,0,0
157488,-95.2380952380952,4,1,1,85,0,0
157657,-95.2380952380952,4,1,0,85,0,0
160624,-83.3333333333333,4,1,1,85,0,0
161725,-83.3333333333333,4,1,0,85,0,0
161895,-83.3333333333333,4,1,1,85,0,0
163251,-83.3333333333333,4,1,0,85,0,0
163505,-86.9565217391304,4,1,0,85,0,0
163674,-88.4955752212389,4,1,0,85,0,0
163844,-90.0900900900901,4,1,0,85,0,0
163929,-92.5925925925926,4,1,0,85,0,0
164013,-95.2380952380952,4,1,0,85,0,0
168335,-95.2380952380952,4,1,1,85,0,0
168674,-95.2380952380952,4,1,0,85,0,0
171471,-83.3333333333333,4,1,1,85,0,0
172573,-83.3333333333333,4,1,0,85,0,0
172742,-83.3333333333333,4,1,1,85,0,0
174183,-83.3333333333333,4,1,0,85,0,0
174352,-84.7457627118644,4,1,1,85,0,0
174522,-86.9565217391304,4,1,1,85,0,0
174861,-88.4955752212389,4,1,0,85,0,0
175030,-90.0900900900901,4,1,0,85,0,0
175115,-90.0900900900901,4,1,1,85,0,0
175200,-91.743119266055,4,1,1,85,0,0
175285,-91.743119266055,4,1,0,85,0,0
175539,-95.2380952380952,4,1,0,85,0,0
175708,-97.0873786407767,4,1,0,85,0,0
175793,-97.0873786407767,4,1,1,85,0,0
175878,-99.009900990099,4,1,1,85,0,0
175962,-99.009900990099,4,1,0,85,0,0
176047,-100,4,1,0,85,0,0
176471,-100,4,1,1,85,0,0
176640,-100,4,1,0,85,0,0
177149,-100,4,1,1,85,0,0
177318,-100,4,1,0,85,0,0
177827,-100,4,1,1,85,0,0
177996,-100,4,1,0,85,0,0
178505,-100,4,1,1,85,0,0
178674,-100,4,1,0,85,0,0
179183,-100,4,1,1,85,0,0
179352,-100,4,1,0,85,0,0
179861,-100,4,1,1,85,0,0
180030,-100,4,1,0,85,0,0
180539,-100,4,1,1,85,0,0
180708,-100,4,1,0,85,0,0
181217,-100,4,1,1,85,0,0
181386,-100,4,1,0,85,0,0
181895,-100,4,1,1,85,0,0
182064,-100,4,1,0,85,0,0
182573,-100,4,1,1,85,0,0
182742,-100,4,1,0,85,0,0
183251,-100,4,1,1,85,0,0
183420,-100,4,1,0,85,0,0
183929,-100,4,1,1,85,0,0
184098,-100,4,1,0,85,0,0
184607,-100,4,1,1,85,0,0
184776,-100,4,1,0,85,0,0
186005,-100,4,1,1,85,0,0
186131,-100,4,1,0,85,0,0
186640,-100,4,1,1,85,0,0
186809,-100,4,1,0,85,0,0
187361,-100,4,1,1,85,0,0
187487,-100,4,1,0,85,0,0
187996,-100,4,1,1,85,0,0
188165,-100,4,1,0,85,0,0
188674,-100,4,1,1,85,0,0
188843,-100,4,1,0,85,0,0
189352,-100,4,1,1,85,0,0
189521,-100,4,1,0,85,0,0
190030,-100,4,1,1,85,0,0
190199,-100,4,1,0,85,0,0
190708,-100,4,1,1,85,0,0
190877,-100,4,1,0,85,0,0
191386,-100,4,1,1,85,0,0
191555,-100,4,1,0,85,0,0
192064,-100,4,1,1,85,0,0
192191,-100,4,1,0,85,0,0
192742,-100,4,1,1,85,0,0
193929,-100,4,1,0,85,0,0
194098,-100,4,1,1,85,0,0
195285,-100,4,1,0,85,0,0
197149,-100,4,1,1,85,0,0
197318,-100,4,1,0,85,0,0
197912,338.983050847458,4,1,0,90,1,1
197912,-83.3333333333333,4,1,0,90,0,1
198166,-83.3333333333333,4,1,1,90,0,1
198336,-83.3333333333333,4,1,0,90,0,1
198844,-83.3333333333333,4,1,1,90,0,1
199014,-83.3333333333333,4,1,0,90,0,1
199522,-83.3333333333333,4,1,1,90,0,1
202404,-83.3333333333333,4,1,0,90,0,1
203590,-83.3333333333333,4,1,1,90,0,1
203760,-83.3333333333333,4,1,0,90,0,1
204268,-83.3333333333333,4,1,1,90,0,1
204438,-83.3333333333333,4,1,0,90,0,1
204946,-83.3333333333333,4,1,1,90,0,1
205116,-83.3333333333333,4,1,0,90,0,1
205624,-83.3333333333333,4,1,1,90,0,1
205794,-83.3333333333333,4,1,0,90,0,1
206302,-83.3333333333333,4,1,1,90,0,1
206472,-83.3333333333333,4,1,0,90,0,1
206980,-83.3333333333333,4,1,1,90,0,1
207150,-83.3333333333333,4,1,0,90,0,1
207658,-83.3333333333333,4,1,1,90,0,1
207828,-83.3333333333333,4,1,0,90,0,1
209014,-83.3333333333333,4,1,1,90,0,1
209184,-83.3333333333333,4,1,0,90,0,1
209692,-83.3333333333333,4,1,1,90,0,1
209862,-83.3333333333333,4,1,0,90,0,1
210370,-83.3333333333333,4,1,1,90,0,1
210540,-83.3333333333333,4,1,0,90,0,1
211048,-83.3333333333333,4,1,1,90,0,1
211218,-83.3333333333333,4,1,0,90,0,1
211726,-83.3333333333333,4,1,1,90,0,1
211896,-83.3333333333333,4,1,0,90,0,1
212404,-83.3333333333333,4,1,1,90,0,1
212574,-83.3333333333333,4,1,0,90,0,1
213082,-83.3333333333333,4,1,1,90,0,1
213252,-83.3333333333333,4,1,0,90,0,1
214437,-83.3333333333333,4,1,1,90,0,1
214607,-83.3333333333333,4,1,0,90,0,1
215115,-83.3333333333333,4,1,1,90,0,1
215285,-83.3333333333333,4,1,0,90,0,1
215793,-83.3333333333333,4,1,1,90,0,1
215963,-83.3333333333333,4,1,0,90,0,1
216471,-83.3333333333333,4,1,1,90,0,1
216641,-83.3333333333333,4,1,0,90,0,1
217149,-83.3333333333333,4,1,1,90,0,1
217319,-83.3333333333333,4,1,0,90,0,1
217827,-83.3333333333333,4,1,1,90,0,1
217997,-83.3333333333333,4,1,0,90,0,1
218166,-83.3333333333333,4,1,1,90,0,1
219522,-83.3333333333333,4,1,0,90,0,1
219606,-83.3333333333333,4,1,0,85,0,0
219776,-86.9565217391304,4,1,0,85,0,0
219861,-88.4955752212389,4,1,0,85,0,0
219945,-90.0900900900901,4,1,0,85,0,0
220115,-95.2380952380952,4,1,0,85,0,0
224607,-95.2380952380952,4,1,1,85,0,0
224945,-95.2380952380952,4,1,0,85,0,0
227742,-83.3333333333333,4,1,1,85,0,0
228844,-83.3333333333333,4,1,0,85,0,0
229014,-83.3333333333333,4,1,1,85,0,0
229352,-83.3333333333333,4,1,0,85,0,0
229522,-83.3333333333333,4,1,1,85,0,0
230369,-83.3333333333333,4,1,0,85,0,0
230623,-86.9565217391304,4,1,0,85,0,0
230793,-88.4955752212389,4,1,0,85,0,0
230962,-90.0900900900901,4,1,0,85,0,0
231047,-92.5925925925926,4,1,0,85,0,0
231132,-95.2380952380952,4,1,0,85,0,0
238589,-83.3333333333333,4,1,1,85,0,0
239692,-83.3333333333333,4,1,0,85,0,0
239861,-83.3333333333333,4,1,1,85,0,0
240539,-83.3333333333333,4,1,0,85,0,0
240708,-83.3333333333333,4,1,1,85,0,0
241726,-83.3333333333333,4,1,0,80,0,0
242234,-83.3333333333333,4,1,1,80,0,0
242404,-83.3333333333333,4,1,0,80,0,0
242912,-83.3333333333333,4,1,1,80,0,0
243082,-83.3333333333333,4,1,0,80,0,0
243505,-86.9565217391304,4,1,0,80,0,0
243590,-86.9565217391304,4,1,1,80,0,0
243674,-89.2857142857143,4,1,1,80,0,0
243844,-91.743119266055,4,1,0,80,0,0
244013,-94.3396226415094,4,1,0,80,0,0
244183,-97.0873786407767,4,1,0,80,0,0
244268,-97.0873786407767,4,1,1,80,0,0
244352,-100,4,1,1,80,0,0
244437,-100,4,1,0,80,0,0
244946,-100,4,1,1,80,0,0
245116,-100,4,1,0,80,0,0
245624,-100,4,1,1,80,0,0
245794,-100,4,1,0,80,0,0
246302,-100,4,1,1,80,0,0
246472,-100,4,1,0,80,0,0
246979,-100,4,1,1,80,0,0
247150,-100,4,1,0,80,0,0
247658,-100,4,1,1,80,0,0
247828,-100,4,1,0,80,0,0
248336,-100,4,1,1,80,0,0
248506,-100,4,1,0,80,0,0
249014,-100,4,1,1,80,0,0
249184,-100,4,1,0,80,0,0
249691,-100,4,1,1,80,0,0
250327,-100,4,1,0,80,0,0
251048,-100,4,1,1,80,0,0
252657,-100,4,1,0,80,0,0
253081,-100,4,1,1,80,0,0
253251,-100,4,1,0,80,0,0
253759,-100,4,1,1,80,0,0
253928,-100,4,1,0,80,0,0
254437,-100,4,1,1,80,0,0
254606,-100,4,1,0,80,0,0
255115,-100,4,1,1,80,0,0
255284,-100,4,1,0,80,0,0
255793,-100,4,1,1,80,0,0
255962,-100,4,1,0,80,0,0
256471,-100,4,1,1,80,0,0
256640,-100,4,1,0,80,0,0
257149,-100,4,1,1,80,0,0
257318,-100,4,1,0,80,0,0
257827,-100,4,1,1,80,0,0
257996,-100,4,1,0,80,0,0
258505,-100,4,1,1,80,0,0
258674,-100,4,1,0,80,0,0
259183,-100,4,1,1,80,0,0
259352,-100,4,1,0,80,0,0
259861,-100,4,1,1,80,0,0
260030,-100,4,1,0,80,0,0
260539,-100,4,1,1,80,0,0
260708,-100,4,1,0,80,0,0
261217,-100,4,1,1,80,0,0
261386,-100,4,1,0,80,0,0
261895,-100,4,1,1,80,0,0
262742,-100,4,1,0,80,0,0

[HitObjects]
256,192,624,5,8,0:0:0:0:
256,192,793,1,0,0:0:0:0:
256,192,962,1,8,0:0:0:0:
256,192,1301,1,0,0:0:0:0:
256,192,1471,1,8,0:0:0:0:
256,192,1640,1,0,0:0:0:0:
256,192,1810,1,8,0:0:0:0:
256,192,1979,1,8,0:0:0:0:
256,192,2149,1,0,0:0:0:0:
256,192,2318,1,0,0:0:0:0:
256,192,2488,1,8,0:0:0:0:
256,192,2827,1,8,0:0:0:0:
256,192,2996,1,0,0:0:0:0:
256,192,3166,1,0,0:0:0:0:
256,192,3335,1,8,0:0:0:0:
256,192,3505,1,0,0:0:0:0:
256,192,3674,1,8,0:0:0:0:
256,192,4013,1,0,0:0:0:0:
256,192,4183,1,8,0:0:0:0:
256,192,4352,1,0,0:0:0:0:
256,192,4522,1,8,0:0:0:0:
256,192,4691,1,8,0:0:0:0:
256,192,4861,1,0,0:0:0:0:
256,192,5030,1,0,0:0:0:0:
256,192,5200,1,8,0:0:0:0:
256,192,5539,1,8,0:0:0:0:
256,192,5708,1,0,0:0:0:0:
256,192,5878,1,8,0:0:0:0:
256,192,6047,1,4,0:0:0:0:
256,192,6386,1,8,0:0:0:0:
256,192,6556,1,0,0:0:0:0:
256,192,6725,1,0,0:0:0:0:
256,192,6895,1,0,0:0:0:0:
256,192,7064,1,8,0:0:0:0:
256,192,7403,1,0,0:0:0:0:
256,192,7742,1,8,0:0:0:0:
256,192,7912,1,0,0:0:0:0:
256,192,8251,1,0,0:0:0:0:
256,192,8420,1,8,0:0:0:0:
256,192,8759,1,0,0:0:0:0:
256,192,9098,1,8,0:0:0:0:
256,192,9268,1,0,0:0:0:0:
256,192,9437,1,0,0:0:0:0:
256,192,9607,1,0,0:0:0:0:
256,192,9776,1,8,0:0:0:0:
256,192,10115,1,0,0:0:0:0:
256,192,10454,1,8,0:0:0:0:
256,192,10624,1,0,0:0:0:0:
256,192,10962,1,8,0:0:0:0:
256,192,11132,1,8,0:0:0:0:
256,192,11301,1,8,0:0:0:0:
256,192,11471,1,4,0:0:0:0:
256,192,11640,1,0,0:0:0:0:
256,192,11810,1,8,0:0:0:0:
256,192,12149,1,0,0:0:0:0:
256,192,12318,1,8,0:0:0:0:
256,192,12488,1,8,0:0:0:0:
256,192,12657,1,0,0:0:0:0:
256,192,12827,1,8,0:0:0:0:
256,192,12996,1,0,0:0:0:0:
256,192,13166,1,8,0:0:0:0:
256,192,13335,1,0,0:0:0:0:
256,192,13674,1,0,0:0:0:0:
256,192,13844,1,8,0:0:0:0:
256,192,14013,1,0,0:0:0:0:
256,192,14183,1,12,0:0:0:0:
256,192,14352,1,0,0:0:0:0:
256,192,14522,1,8,0:0:0:0:
256,192,14861,1,0,0:0:0:0:
256,192,15030,1,8,0:0:0:0:
256,192,15200,1,8,0:0:0:0:
256,192,15369,1,0,0:0:0:0:
256,192,15539,1,8,0:0:0:0:
256,192,15708,1,0,0:0:0:0:
256,192,15878,1,8,0:0:0:0:
256,192,16047,1,0,0:0:0:0:
256,192,16386,1,0,0:0:0:0:
256,192,16556,1,8,0:0:0:0:
256,192,16725,1,8,0:0:0:0:
256,192,16895,1,4,0:0:0:0:
256,192,17064,1,0,0:0:0:0:
256,192,17149,1,0,0:0:0:0:
256,192,17234,1,8,0:0:0:0:
256,192,17573,1,0,0:0:0:0:
256,192,17742,1,8,0:0:0:0:
256,192,17912,1,8,0:0:0:0:
256,192,18081,1,0,0:0:0:0:
256,192,18251,1,12,0:0:0:0:
256,192,18420,1,0,0:0:0:0:
256,192,18590,1,8,0:0:0:0:
256,192,18759,1,0,0:0:0:0:
256,192,19098,1,0,0:0:0:0:
256,192,19268,1,8,0:0:0:0:
256,192,19437,1,0,0:0:0:0:
256,192,19607,1,4,0:0:0:0:
256,192,19776,1,0,0:0:0:0:
256,192,19861,1,0,0:0:0:0:
256,192,19946,1,8,0:0:0:0:
256,192,20285,1,0,0:0:0:0:
256,192,20454,1,8,0:0:0:0:
256,192,20624,1,8,0:0:0:0:
256,192,20793,1,0,0:0:0:0:
256,192,20878,1,0,0:0:0:0:
256,192,20962,1,0,0:0:0:0:
256,192,21132,1,0,0:0:0:0:
256,192,21301,1,8,0:0:0:0:
256,192,21471,1,0,0:0:0:0:
256,192,21640,1,0,0:0:0:0:
256,192,21810,1,8,0:0:0:0:
256,192,21979,1,8,0:0:0:0:
256,192,22149,1,8,0:0:0:0:
256,192,22318,1,4,0:0:0:0:
256,192,22657,1,0,0:0:0:0:
256,192,22996,1,0,0:0:0:0:
256,192,23335,1,0,0:0:0:0:
256,192,23505,1,0,0:0:0:0:
256,192,23674,1,0,0:0:0:0:
256,192,24013,1,0,0:0:0:0:
256,192,24352,1,0,0:0:0:0:
256,192,24691,1,0,0:0:0:0:
256,192,24861,1,0,0:0:0:0:
256,192,25030,1,0,0:0:0:0:
256,192,25369,1,0,0:0:0:0:
256,192,25708,1,0,0:0:0:0:
256,192,26047,1,0,0:0:0:0:
256,192,26217,1,0,0:0:0:0:
256,192,26386,1,0,0:0:0:0:
256,192,26725,1,0,0:0:0:0:
256,192,27064,1,0,0:0:0:0:
256,192,27403,1,0,0:0:0:0:
256,192,27573,1,0,0:0:0:0:
256,192,27742,1,12,0:0:0:0:
256,192,28081,1,0,0:0:0:0:
256,192,28420,1,0,0:0:0:0:
256,192,28759,1,0,0:0:0:0:
256,192,28929,1,0,0:0:0:0:
256,192,29098,1,0,0:0:0:0:
256,192,29437,1,0,0:0:0:0:
256,192,29776,1,8,0:0:0:0:
256,192,29946,1,0,0:0:0:0:
256,192,30115,1,0,0:0:0:0:
256,192,30285,1,0,0:0:0:0:
256,192,30454,1,12,0:0:0:0:
256,192,30624,1,0,0:0:0:0:
256,192,30708,1,0,0:0:0:0:
256,192,30793,1,8,0:0:0:0:
256,192,30962,1,8,0:0:0:0:
256,192,31047,1,8,0:0:0:0:
256,192,31132,1,0,0:0:0:0:
256,192,31301,1,0,0:0:0:0:
256,192,31471,1,8,0:0:0:0:
256,192,31640,1,0,0:0:0:0:
256,192,31810,1,8,0:0:0:0:
256,192,31979,1,0,0:0:0:0:
256,192,32064,1,0,0:0:0:0:
256,192,32149,1,8,0:0:0:0:
256,192,32318,1,8,0:0:0:0:
256,192,32403,1,8,0:0:0:0:
256,192,32488,1,0,0:0:0:0:
256,192,32657,1,0,0:0:0:0:
256,192,32827,1,8,0:0:0:0:
256,192,32996,1,0,0:0:0:0:
256,192,33166,1,4,0:0:0:0:
256,192,33505,1,8,0:0:0:0:
256,192,33844,1,0,0:0:0:0:
256,192,34183,1,8,0:0:0:0:
256,192,34352,1,0,0:0:0:0:
256,192,34522,1,0,0:0:0:0:
256,192,34861,1,8,0:0:0:0:
256,192,35200,1,0,0:0:0:0:
256,192,35539,1,8,0:0:0:0:
256,192,35708,1,0,0:0:0:0:
256,192,35878,1,0,0:0:0:0:
256,192,36217,1,8,0:0:0:0:
256,192,36556,1,0,0:0:0:0:
256,192,36895,1,8,0:0:0:0:
256,192,37064,1,0,0:0:0:0:
256,192,37234,1,0,0:0:0:0:
256,192,37573,1,8,0:0:0:0:
256,192,37912,1,0,0:0:0:0:
256,192,38251,1,8,0:0:0:0:
256,192,38420,1,0,0:0:0:0:
256,192,38590,1,12,0:0:0:0:
256,192,38929,1,8,0:0:0:0:
256,192,39268,1,0,0:0:0:0:
256,192,39607,1,8,0:0:0:0:
256,192,39776,1,0,0:0:0:0:
256,192,39946,1,0,0:0:0:0:
256,192,40285,1,8,0:0:0:0:
256,192,40624,1,8,0:0:0:0:
256,192,40793,1,8,0:0:0:0:
256,192,40962,1,8,0:0:0:0:
256,192,41132,1,8,0:0:0:0:
256,192,41301,1,4,0:0:0:0:
256,192,41471,1,0,0:0:0:0:
256,192,41810,1,0,0:0:0:0:
256,192,41979,1,8,0:0:0:0:
256,192,42318,1,0,0:0:0:0:
256,192,42488,1,8,0:0:0:0:
256,192,42657,1,0,0:0:0:0:
256,192,42827,1,8,0:0:0:0:
256,192,43166,1,0,0:0:0:0:
256,192,43335,1,8,0:0:0:0:
256,192,43674,1,0,0:0:0:0:
256,192,43844,1,8,0:0:0:0:
256,192,44013,1,4,0:0:0:0:
256,192,44352,1,0,0:0:0:0:
256,192,44522,1,0,0:0:0:0:
256,192,44691,1,8,0:0:0:0:
256,192,45030,1,0,0:0:0:0:
256,192,45200,1,8,0:0:0:0:
256,192,45369,1,0,0:0:0:0:
256,192,45539,1,8,0:0:0:0:
256,192,45878,1,0,0:0:0:0:
256,192,46047,1,8,0:0:0:0:
256,192,46386,1,0,0:0:0:0:
256,192,46725,1,4,0:0:0:0:
256,192,48081,1,8,0:0:0:0:
256,192,48420,1,0,0:0:0:0:
256,192,48759,1,8,0:0:0:0:
256,192,48929,1,8,0:0:0:0:
256,192,49098,1,8,0:0:0:0:
256,192,49268,1,8,0:0:0:0:
256,192,49437,1,4,0:0:0:0:
256,192,49607,1,0,0:0:0:0:
256,192,49776,1,8,0:0:0:0:
256,192,50115,1,8,0:0:0:0:
256,192,50454,1,8,0:0:0:0:
256,192,50624,1,0,0:0:0:0:
256,192,50793,1,8,0:0:0:0:
256,192,50962,1,0,0:0:0:0:
256,192,51132,1,8,0:0:0:0:
256,192,51471,1,0,0:0:0:0:
256,192,51640,1,0,0:0:0:0:
256,192,51810,1,8,0:0:0:0:
256,192,52149,1,4,0:0:0:0:
256,192,52488,1,8,0:0:0:0:
256,192,52827,1,0,0:0:0:0:
256,192,52996,1,0,0:0:0:0:
256,192,53166,1,8,0:0:0:0:
256,192,53335,1,0,0:0:0:0:
256,192,53505,1,0,0:0:0:0:
256,192,53844,1,8,0:0:0:0:
256,192,54183,1,0,0:0:0:0:
256,192,54352,1,0,0:0:0:0:
256,192,54522,1,8,0:0:0:0:
256,192,54607,1,8,0:0:0:0:
256,192,54691,1,0,0:0:0:0:
256,192,54861,1,4,0:0:0:0:
256,192,55030,1,0,0:0:0:0:
256,192,55200,1,8,0:0:0:0:
256,192,55539,1,8,0:0:0:0:
256,192,55878,1,8,0:0:0:0:
256,192,56047,1,0,0:0:0:0:
256,192,56217,1,12,0:0:0:0:
256,192,56386,1,0,0:0:0:0:
256,192,56556,1,8,0:0:0:0:
256,192,56895,1,0,0:0:0:0:
256,192,57064,1,0,0:0:0:0:
256,192,57234,1,8,0:0:0:0:
256,192,57573,1,4,0:0:0:0:
256,192,57912,1,8,0:0:0:0:
256,192,58251,1,0,0:0:0:0:
256,192,58590,1,8,0:0:0:0:
256,192,58759,1,0,0:0:0:0:
256,192,58929,1,0,0:0:0:0:
256,192,59268,1,12,0:0:0:0:
256,192,59607,1,0,0:0:0:0:
256,192,59776,1,8,0:0:0:0:
256,192,59946,1,8,0:0:0:0:
256,192,60115,1,8,0:0:0:0:
256,192,60285,1,4,0:0:0:0:
256,192,60454,1,0,0:0:0:0:
256,192,60624,1,8,0:0:0:0:
256,192,60962,1,8,0:0:0:0:
256,192,61301,1,8,0:0:0:0:
256,192,61471,1,0,0:0:0:0:
256,192,61640,1,8,0:0:0:0:
256,192,61810,1,0,0:0:0:0:
256,192,61979,1,8,0:0:0:0:
256,192,62318,1,0,0:0:0:0:
256,192,62488,1,0,0:0:0:0:
256,192,62657,1,8,0:0:0:0:
256,192,62996,1,4,0:0:0:0:
256,192,63335,1,8,0:0:0:0:
256,192,63674,1,0,0:0:0:0:
256,192,64013,1,8,0:0:0:0:
256,192,64183,1,0,0:0:0:0:
256,192,64352,1,0,0:0:0:0:
256,192,64691,1,8,0:0:0:0:
256,192,65030,1,0,0:0:0:0:
256,192,65200,1,0,0:0:0:0:
256,192,65369,1,8,0:0:0:0:
256,192,65454,1,8,0:0:0:0:
256,192,65539,1,8,0:0:0:0:
256,192,65708,1,4,0:0:0:0:
256,192,65878,1,0,0:0:0:0:
256,192,66047,1,8,0:0:0:0:
256,192,66386,1,8,0:0:0:0:
256,192,66725,1,8,0:0:0:0:
256,192,66895,1,0,0:0:0:0:
256,192,67064,1,12,0:0:0:0:
256,192,67234,1,0,0:0:0:0:
256,192,67403,1,8,0:0:0:0:
256,192,67742,1,0,0:0:0:0:
256,192,67912,1,0,0:0:0:0:
256,192,68081,1,8,0:0:0:0:
256,192,68420,1,4,0:0:0:0:
256,192,68759,1,8,0:0:0:0:
256,192,69098,1,0,0:0:0:0:
256,192,69437,1,8,0:0:0:0:
256,192,69607,1,0,0:0:0:0:
256,192,69776,1,12,0:0:0:0:
256,192,69946,1,8,0:0:0:0:
256,192,70115,1,8,0:0:0:0:
256,192,70285,1,8,0:0:0:0:
256,192,70454,1,0,0:0:0:0:
256,192,70624,1,0,0:0:0:0:
256,192,70708,1,0,0:0:0:0:
256,192,70793,1,0,0:0:0:0:
256,192,70962,1,0,0:0:0:0:
256,192,71132,1,12,0:0:0:0:
256,192,71301,1,0,0:0:0:0:
256,192,71386,1,0,0:0:0:0:
256,192,71471,1,8,0:0:0:0:
256,192,71640,1,0,0:0:0:0:
256,192,71979,1,8,0:0:0:0:
256,192,72149,1,0,0:0:0:0:
256,192,72318,1,8,0:0:0:0:
256,192,72488,1,8,0:0:0:0:
256,192,72657,1,0,0:0:0:0:
256,192,72827,1,0,0:0:0:0:
256,192,72996,1,8,0:0:0:0:
256,192,73335,1,0,0:0:0:0:
256,192,73505,1,8,0:0:0:0:
256,192,73844,1,8,0:0:0:0:
256,192,74013,1,0,0:0:0:0:
256,192,74098,1,0,0:0:0:0:
256,192,74183,1,8,0:0:0:0:
256,192,74352,1,0,0:0:0:0:
256,192,74691,1,8,0:0:0:0:
256,192,74861,1,0,0:0:0:0:
256,192,75030,1,8,0:0:0:0:
256,192,75200,1,8,0:0:0:0:
256,192,75369,1,0,0:0:0:0:
256,192,75539,1,0,0:0:0:0:
256,192,75708,1,8,0:0:0:0:
256,192,76047,1,0,0:0:0:0:
256,192,76217,1,8,0:0:0:0:
256,192,76386,1,8,0:0:0:0:
256,192,76556,1,12,0:0:0:0:
256,192,76725,1,0,0:0:0:0:
256,192,76810,1,0,0:0:0:0:
256,192,76895,1,8,0:0:0:0:
256,192,77064,1,0,0:0:0:0:
256,192,77403,1,8,0:0:0:0:
256,192,77573,1,0,0:0:0:0:
256,192,77742,1,8,0:0:0:0:
256,192,77912,1,4,0:0:0:0:
256,192,78081,1,0,0:0:0:0:
256,192,78251,1,8,0:0:0:0:
256,192,78420,1,0,0:0:0:0:
256,192,78759,1,0,0:0:0:0:
256,192,78929,1,8,0:0:0:0:
256,192,79268,1,4,0:0:0:0:
256,192,79607,1,8,0:0:0:0:
256,192,79946,1,0,0:0:0:0:
256,192,80285,1,8,0:0:0:0:
256,192,80454,1,8,0:0:0:0:
256,192,80624,1,0,0:0:0:0:
256,192,80962,1,0,0:0:0:0:
256,192,81301,1,4,0:0:0:0:
256,192,81471,1,8,0:0:0:0:
256,192,81640,1,8,0:0:0:0:
256,192,81810,1,8,0:0:0:0:
256,192,81979,1,12,0:0:0:0:
256,192,82149,1,0,0:0:0:0:
256,192,82318,1,8,0:0:0:0:
256,192,82488,1,0,0:0:0:0:
256,192,82573,1,0,0:0:0:0:
256,192,82657,1,0,0:0:0:0:
256,192,82827,1,8,0:0:0:0:
256,192,82996,1,0,0:0:0:0:
256,192,83166,1,8,0:0:0:0:
256,192,83335,1,8,0:0:0:0:
256,192,83505,1,0,0:0:0:0:
256,192,83674,1,8,0:0:0:0:
256,192,83844,1,0,0:0:0:0:
256,192,84183,1,0,0:0:0:0:
256,192,84352,1,8,0:0:0:0:
256,192,84691,1,12,0:0:0:0:
256,192,84861,1,0,0:0:0:0:
256,192,85030,1,8,0:0:0:0:
256,192,85200,1,0,0:0:0:0:
256,192,85285,1,0,0:0:0:0:
256,192,85369,1,0,0:0:0:0:
256,192,85539,1,8,0:0:0:0:
256,192,85708,1,0,0:0:0:0:
256,192,85878,1,8,0:0:0:0:
256,192,86047,1,8,0:0:0:0:
256,192,86217,1,0,0:0:0:0:
256,192,86386,1,8,0:0:0:0:
256,192,86556,1,0,0:0:0:0:
256,192,86895,1,0,0:0:0:0:
256,192,87064,1,8,0:0:0:0:
256,192,87234,1,0,0:0:0:0:
256,192,87403,1,12,0:0:0:0:
256,192,87573,1,0,0:0:0:0:
256,192,87742,1,8,0:0:0:0:
256,192,87912,1,0,0:0:0:0:
256,192,87996,1,0,0:0:0:0:
256,192,88081,1,0,0:0:0:0:
256,192,88251,1,8,0:0:0:0:
256,192,88420,1,0,0:0:0:0:
256,192,88590,1,8,0:0:0:0:
256,192,88759,1,4,0:0:0:0:
256,192,88929,1,0,0:0:0:0:
256,192,89098,1,8,0:0:0:0:
256,192,89268,1,0,0:0:0:0:
256,192,89607,1,0,0:0:0:0:
256,192,89776,1,8,0:0:0:0:
256,192,90115,1,4,0:0:0:0:
256,192,90454,1,8,0:0:0:0:
256,192,90793,1,0,0:0:0:0:
256,192,91132,1,8,0:0:0:0:
256,192,91301,1,8,0:0:0:0:
256,192,91471,1,0,0:0:0:0:
256,192,91640,1,0,0:0:0:0:
256,192,91725,1,0,0:0:0:0:
256,192,91810,1,0,0:0:0:0:
256,192,91979,1,0,0:0:0:0:
256,192,92149,1,8,0:0:0:0:
256,192,92318,1,0,0:0:0:0:
256,192,92403,1,8,0:0:0:0:
256,192,92488,1,0,0:0:0:0:
256,192,92657,1,0,0:0:0:0:
256,192,92827,1,4,0:0:0:0:
256,192,92996,1,0,0:0:0:0:
256,192,93166,1,8,0:0:0:0:
256,192,93505,1,0,0:0:0:0:
256,192,93674,1,8,0:0:0:0:
256,192,93844,1,8,0:0:0:0:
256,192,94013,1,0,0:0:0:0:
256,192,94183,1,8,0:0:0:0:
256,192,94352,1,0,0:0:0:0:
256,192,94522,1,8,0:0:0:0:
256,192,94691,1,0,0:0:0:0:
256,192,95030,1,0,0:0:0:0:
256,192,95200,1,8,0:0:0:0:
256,192,95369,1,0,0:0:0:0:
256,192,95539,1,12,0:0:0:0:
256,192,95708,1,0,0:0:0:0:
256,192,95878,1,8,0:0:0:0:
256,192,96217,1,0,0:0:0:0:
256,192,96386,1,8,0:0:0:0:
256,192,96556,1,8,0:0:0:0:
256,192,96725,1,0,0:0:0:0:
256,192,96895,1,8,0:0:0:0:
256,192,97064,1,0,0:0:0:0:
256,192,97234,1,8,0:0:0:0:
256,192,97403,1,0,0:0:0:0:
256,192,97742,1,0,0:0:0:0:
256,192,97912,1,8,0:0:0:0:
256,192,98081,1,8,0:0:0:0:
256,192,98251,1,4,0:0:0:0:
256,192,98420,1,0,0:0:0:0:
256,192,98505,1,0,0:0:0:0:
256,192,98590,1,8,0:0:0:0:
256,192,98929,1,0,0:0:0:0:
256,192,99098,1,8,0:0:0:0:
256,192,99268,1,8,0:0:0:0:
256,192,99437,1,0,0:0:0:0:
256,192,99607,1,12,0:0:0:0:
256,192,99776,1,0,0:0:0:0:
256,192,99946,1,8,0:0:0:0:
256,192,100115,1,0,0:0:0:0:
256,192,100454,1,0,0:0:0:0:
256,192,100624,1,8,0:0:0:0:
256,192,100793,1,0,0:0:0:0:
256,192,100962,1,12,0:0:0:0:
256,192,101132,1,0,0:0:0:0:
256,192,101217,1,0,0:0:0:0:
256,192,101301,1,8,0:0:0:0:
256,192,101640,1,0,0:0:0:0:
256,192,101810,1,8,0:0:0:0:
256,192,101895,1,8,0:0:0:0:
256,192,101979,1,8,0:0:0:0:
256,192,102149,1,0,0:0:0:0:
256,192,102234,1,0,0:0:0:0:
256,192,102318,1,0,0:0:0:0:
256,192,102488,1,8,0:0:0:0:
256,192,102657,1,8,0:0:0:0:
256,192,102827,1,0,0:0:0:0:
256,192,102996,1,0,0:0:0:0:
256,192,103166,1,8,0:0:0:0:
256,192,103335,1,8,0:0:0:0:
256,192,103505,1,8,0:0:0:0:
256,192,103674,1,4,0:0:0:0:
256,192,104013,1,8,0:0:0:0:
256,192,104352,1,0,0:0:0:0:
256,192,104522,1,0,0:0:0:0:
256,192,104691,1,8,0:0:0:0:
256,192,104861,1,0,0:0:0:0:
256,192,105030,1,0,0:0:0:0:
256,192,105369,1,8,0:0:0:0:
256,192,105708,1,0,0:0:0:0:
256,192,106047,1,8,0:0:0:0:
256,192,106217,1,0,0:0:0:0:
256,192,106386,1,0,0:0:0:0:
256,192,106725,1,8,0:0:0:0:
256,192,107064,1,0,0:0:0:0:
256,192,107234,1,0,0:0:0:0:
256,192,107403,1,8,0:0:0:0:
256,192,107573,1,0,0:0:0:0:
256,192,107742,1,0,0:0:0:0:
256,192,108081,1,8,0:0:0:0:
256,192,108420,1,0,0:0:0:0:
256,192,108759,1,8,0:0:0:0:
256,192,108929,1,0,0:0:0:0:
256,192,109098,1,12,0:0:0:0:
256,192,109437,1,8,0:0:0:0:
256,192,109776,1,0,0:0:0:0:
256,192,109946,1,0,0:0:0:0:
256,192,110115,1,8,0:0:0:0:
256,192,110285,1,0,0:0:0:0:
256,192,110454,1,0,0:0:0:0:
256,192,110793,1,8,0:0:0:0:
256,192,111132,1,8,0:0:0:0:
256,192,111301,1,8,0:0:0:0:
256,192,111471,1,8,0:0:0:0:
256,192,111640,1,8,0:0:0:0:
256,192,111810,1,4,0:0:0:0:
256,192,111979,1,0,0:0:0:0:
256,192,112064,1,0,0:0:0:0:
256,192,112149,1,8,0:0:0:0:
256,192,112318,1,8,0:0:0:0:
256,192,112403,1,8,0:0:0:0:
256,192,112488,1,0,0:0:0:0:
256,192,112657,1,0,0:0:0:0:
256,192,112827,1,8,0:0:0:0:
256,192,112996,1,0,0:0:0:0:
256,192,113166,1,8,0:0:0:0:
256,192,113335,1,0,0:0:0:0:
256,192,113420,1,0,0:0:0:0:
256,192,113505,1,8,0:0:0:0:
256,192,113674,1,8,0:0:0:0:
256,192,113759,1,8,0:0:0:0:
256,192,113844,1,0,0:0:0:0:
256,192,114013,1,0,0:0:0:0:
256,192,114183,1,8,0:0:0:0:
256,192,114352,1,0,0:0:0:0:
256,192,114522,1,4,0:0:0:0:
256,192,114861,1,8,0:0:0:0:
256,192,115200,1,0,0:0:0:0:
256,192,115369,1,0,0:0:0:0:
256,192,115539,1,8,0:0:0:0:
256,192,115708,1,8,0:0:0:0:
256,192,115793,1,0,0:0:0:0:
256,192,115878,1,0,0:0:0:0:
256,192,116047,1,0,0:0:0:0:
256,192,116217,1,8,0:0:0:0:
256,192,116556,1,0,0:0:0:0:
256,192,116725,1,0,0:0:0:0:
256,192,116895,1,8,0:0:0:0:
256,192,117064,1,0,0:0:0:0:
256,192,117234,1,0,0:0:0:0:
256,192,117573,1,8,0:0:0:0:
256,192,117912,1,0,0:0:0:0:
256,192,118081,1,0,0:0:0:0:
256,192,118251,1,8,0:0:0:0:
256,192,118420,1,8,0:0:0:0:
256,192,118505,1,0,0:0:0:0:
256,192,118590,1,0,0:0:0:0:
256,192,118759,1,0,0:0:0:0:
256,192,118929,1,8,0:0:0:0:
256,192,119268,1,0,0:0:0:0:
256,192,119437,1,0,0:0:0:0:
256,192,119607,1,8,0:0:0:0:
256,192,119776,1,0,0:0:0:0:
256,192,119946,1,12,0:0:0:0:
256,192,120285,1,8,0:0:0:0:
256,192,120624,1,0,0:0:0:0:
256,192,120793,1,0,0:0:0:0:
256,192,120962,1,8,0:0:0:0:
256,192,121132,1,8,0:0:0:0:
256,192,121217,1,8,0:0:0:0:
256,192,121301,1,0,0:0:0:0:
256,192,121471,1,0,0:0:0:0:
256,192,121640,1,8,0:0:0:0:
256,192,121979,1,0,0:0:0:0:
256,192,122149,1,0,0:0:0:0:
256,192,122318,1,8,0:0:0:0:
256,192,122488,1,0,0:0:0:0:
256,192,122657,1,4,0:0:0:0:
256,192,122827,1,0,0:0:0:0:
256,192,123166,1,0,0:0:0:0:
256,192,123335,1,8,0:0:0:0:
256,192,123674,1,0,0:0:0:0:
256,192,123844,1,8,0:0:0:0:
256,192,124013,1,0,0:0:0:0:
256,192,124183,1,8,0:0:0:0:
256,192,124522,1,0,0:0:0:0:
256,192,124691,1,8,0:0:0:0:
256,192,125030,1,0,0:0:0:0:
256,192,125200,1,8,0:0:0:0:
256,192,125369,1,4,0:0:0:0:
256,192,125708,1,0,0:0:0:0:
256,192,125878,1,0,0:0:0:0:
256,192,126047,1,8,0:0:0:0:
256,192,126386,1,0,0:0:0:0:
256,192,126556,1,8,0:0:0:0:
256,192,126725,1,0,0:0:0:0:
256,192,126895,1,8,0:0:0:0:
256,192,127234,1,0,0:0:0:0:
256,192,127403,1,8,0:0:0:0:
256,192,127742,1,0,0:0:0:0:
256,192,128081,1,4,0:0:0:0:
256,192,129437,1,8,0:0:0:0:
256,192,129776,1,0,0:0:0:0:
256,192,130115,1,8,0:0:0:0:
256,192,130285,1,8,0:0:0:0:
256,192,130454,1,8,0:0:0:0:
256,192,130624,1,8,0:0:0:0:
256,192,130793,1,4,0:0:0:0:
256,192,130962,1,0,0:0:0:0:
256,192,131132,1,8,0:0:0:0:
256,192,131471,1,8,0:0:0:0:
256,192,131810,1,8,0:0:0:0:
256,192,131979,1,0,0:0:0:0:
256,192,132149,1,8,0:0:0:0:
256,192,132318,1,0,0:0:0:0:
256,192,132488,1,8,0:0:0:0:
256,192,132827,1,0,0:0:0:0:
256,192,132996,1,0,0:0:0:0:
256,192,133166,1,8,0:0:0:0:
256,192,133505,1,0,0:0:0:0:
256,192,133844,1,8,0:0:0:0:
256,192,134183,1,0,0:0:0:0:
256,192,134352,1,0,0:0:0:0:
256,192,134522,1,8,0:0:0:0:
256,192,134691,1,0,0:0:0:0:
256,192,134861,1,0,0:0:0:0:
256,192,135200,1,8,0:0:0:0:
256,192,135539,1,0,0:0:0:0:
256,192,135708,1,0,0:0:0:0:
256,192,135878,1,8,0:0:0:0:
256,192,136047,1,8,0:0:0:0:
256,192,136217,1,4,0:0:0:0:
256,192,136386,1,0,0:0:0:0:
256,192,136556,1,8,0:0:0:0:
256,192,136895,1,8,0:0:0:0:
256,192,137234,1,8,0:0:0:0:
256,192,137403,1,0,0:0:0:0:
256,192,137573,1,12,0:0:0:0:
256,192,137742,1,0,0:0:0:0:
256,192,137912,1,8,0:0:0:0:
256,192,138251,1,0,0:0:0:0:
256,192,138420,1,0,0:0:0:0:
256,192,138590,1,8,0:0:0:0:
256,192,138929,1,4,0:0:0:0:
256,192,139268,1,8,0:0:0:0:
256,192,139607,1,0,0:0:0:0:
256,192,139946,1,8,0:0:0:0:
256,192,140115,1,0,0:0:0:0:
256,192,140285,1,0,0:0:0:0:
256,192,140624,1,12,0:0:0:0:
256,192,140962,1,0,0:0:0:0:
256,192,141132,1,8,0:0:0:0:
256,192,141217,1,0,0:0:0:0:
256,192,141301,1,8,0:0:0:0:
256,192,141471,1,0,0:0:0:0:
256,192,141640,1,4,0:0:0:0:
256,192,141810,1,0,0:0:0:0:
256,192,141979,1,8,0:0:0:0:
256,192,142318,1,8,0:0:0:0:
256,192,142657,1,8,0:0:0:0:
256,192,142827,1,0,0:0:0:0:
256,192,142996,1,8,0:0:0:0:
256,192,143166,1,0,0:0:0:0:
256,192,143335,1,8,0:0:0:0:
256,192,143674,1,0,0:0:0:0:
256,192,143844,1,0,0:0:0:0:
256,192,144013,1,8,0:0:0:0:
256,192,144352,1,4,0:0:0:0:
256,192,144691,1,8,0:0:0:0:
256,192,145030,1,0,0:0:0:0:
256,192,145369,1,8,0:0:0:0:
256,192,145539,1,0,0:0:0:0:
256,192,145708,1,0,0:0:0:0:
256,192,146047,1,8,0:0:0:0:
256,192,146386,1,0,0:0:0:0:
256,192,146556,1,0,0:0:0:0:
256,192,146725,1,12,0:0:0:0:
256,192,147064,1,4,0:0:0:0:
256,192,147234,1,0,0:0:0:0:
256,192,147403,1,8,0:0:0:0:
256,192,147742,1,8,0:0:0:0:
256,192,148081,1,8,0:0:0:0:
256,192,148251,1,0,0:0:0:0:
256,192,148420,1,12,0:0:0:0:
256,192,148590,1,0,0:0:0:0:
256,192,148759,1,8,0:0:0:0:
256,192,149098,1,0,0:0:0:0:
256,192,149268,1,0,0:0:0:0:
256,192,149437,1,8,0:0:0:0:
256,192,149776,1,4,0:0:0:0:
256,192,150115,1,8,0:0:0:0:
256,192,150454,1,0,0:0:0:0:
256,192,150793,1,8,0:0:0:0:
256,192,150962,1,0,0:0:0:0:
256,192,151132,1,8,0:0:0:0:
256,192,151301,5,0,0:0:0:0:
256,192,151471,1,8,0:0:0:0:
256,192,151640,1,8,0:0:0:0:
256,192,151810,1,0,0:0:0:0:
256,192,151979,1,0,0:0:0:0:
256,192,152064,1,0,0:0:0:0:
256,192,152149,1,0,0:0:0:0:
256,192,152234,1,0,0:0:0:0:
256,192,152318,1,0,0:0:0:0:
256,192,152488,5,12,0:0:0:0:
256,192,152657,1,0,0:0:0:0:
256,192,152742,1,0,0:0:0:0:
256,192,152827,1,8,0:0:0:0:
256,192,152996,1,0,0:0:0:0:
256,192,153335,1,8,0:0:0:0:
256,192,153505,1,0,0:0:0:0:
256,192,153674,1,8,0:0:0:0:
256,192,153844,1,8,0:0:0:0:
256,192,154013,1,0,0:0:0:0:
256,192,154183,1,0,0:0:0:0:
256,192,154352,1,8,0:0:0:0:
256,192,154691,1,0,0:0:0:0:
256,192,154861,1,8,0:0:0:0:
256,192,155200,1,8,0:0:0:0:
256,192,155369,1,0,0:0:0:0:
256,192,155454,1,0,0:0:0:0:
256,192,155539,1,8,0:0:0:0:
256,192,155708,1,0,0:0:0:0:
256,192,156047,1,8,0:0:0:0:
256,192,156217,1,0,0:0:0:0:
256,192,156386,1,8,0:0:0:0:
256,192,156556,1,8,0:0:0:0:
256,192,156725,1,0,0:0:0:0:
256,192,156895,1,0,0:0:0:0:
256,192,157064,1,8,0:0:0:0:
256,192,157403,1,0,0:0:0:0:
256,192,157573,1,8,0:0:0:0:
256,192,157742,1,0,0:0:0:0:
256,192,157912,1,12,0:0:0:0:
256,192,158081,1,0,0:0:0:0:
256,192,158166,1,0,0:0:0:0:
256,192,158251,1,8,0:0:0:0:
256,192,158420,1,0,0:0:0:0:
256,192,158759,1,8,0:0:0:0:
256,192,158929,1,0,0:0:0:0:
256,192,159098,1,8,0:0:0:0:
256,192,159268,1,4,0:0:0:0:
256,192,159437,1,0,0:0:0:0:
256,192,159607,1,8,0:0:0:0:
256,192,159776,1,0,0:0:0:0:
256,192,160115,1,0,0:0:0:0:
256,192,160285,1,8,0:0:0:0:
256,192,160624,1,4,0:0:0:0:
256,192,160962,1,8,0:0:0:0:
256,192,161301,1,0,0:0:0:0:
256,192,161640,1,8,0:0:0:0:
256,192,161810,1,8,0:0:0:0:
256,192,161979,1,0,0:0:0:0:
256,192,162318,1,0,0:0:0:0:
256,192,162488,1,0,0:0:0:0:
256,192,162573,1,0,0:0:0:0:
256,192,162657,1,0,0:0:0:0:
256,192,162827,1,0,0:0:0:0:
256,192,162912,1,0,0:0:0:0:
256,192,162996,1,8,0:0:0:0:
256,192,163166,1,8,0:0:0:0:
256,192,163335,1,12,0:0:0:0:
256,192,163505,1,0,0:0:0:0:
256,192,163674,1,8,0:0:0:0:
256,192,163844,1,0,0:0:0:0:
256,192,163929,1,0,0:0:0:0:
256,192,164013,1,0,0:0:0:0:
256,192,164183,1,8,0:0:0:0:
256,192,164352,1,0,0:0:0:0:
256,192,164522,1,8,0:0:0:0:
256,192,164691,1,8,0:0:0:0:
256,192,164861,1,0,0:0:0:0:
256,192,165030,1,8,0:0:0:0:
256,192,165200,1,0,0:0:0:0:
256,192,165539,1,0,0:0:0:0:
256,192,165708,1,8,0:0:0:0:
256,192,166047,1,12,0:0:0:0:
256,192,166217,1,0,0:0:0:0:
256,192,166386,1,8,0:0:0:0:
256,192,166556,1,0,0:0:0:0:
256,192,166640,1,0,0:0:0:0:
256,192,166725,1,0,0:0:0:0:
256,192,166895,1,8,0:0:0:0:
256,192,167064,1,0,0:0:0:0:
256,192,167234,1,8,0:0:0:0:
256,192,167403,1,8,0:0:0:0:
256,192,167573,1,0,0:0:0:0:
256,192,167742,1,8,0:0:0:0:
256,192,167912,1,0,0:0:0:0:
256,192,168251,1,0,0:0:0:0:
256,192,168420,1,8,0:0:0:0:
256,192,168590,1,8,0:0:0:0:
256,192,168759,1,12,0:0:0:0:
256,192,168929,1,0,0:0:0:0:
256,192,169098,1,8,0:0:0:0:
256,192,169268,1,0,0:0:0:0:
256,192,169352,1,0,0:0:0:0:
256,192,169437,1,0,0:0:0:0:
256,192,169607,1,8,0:0:0:0:
256,192,169776,1,0,0:0:0:0:
256,192,169946,1,8,0:0:0:0:
256,192,170115,1,4,0:0:0:0:
256,192,170285,1,0,0:0:0:0:
256,192,170454,1,8,0:0:0:0:
256,192,170624,1,0,0:0:0:0:
256,192,170962,1,0,0:0:0:0:
256,192,171132,1,8,0:0:0:0:
256,192,171471,1,4,0:0:0:0:
256,192,171810,1,8,0:0:0:0:
256,192,172149,1,0,0:0:0:0:
256,192,172488,1,8,0:0:0:0:
256,192,172657,1,8,0:0:0:0:
256,192,172827,1,4,0:0:0:0:
256,192,172996,1,8,0:0:0:0:
256,192,173081,1,0,0:0:0:0:
256,192,173166,1,8,0:0:0:0:
256,192,173335,1,8,0:0:0:0:
256,192,173420,1,8,0:0:0:0:
256,192,173505,1,0,0:0:0:0:
256,192,173674,1,8,0:0:0:0:
256,192,173759,1,8,0:0:0:0:
256,192,173844,1,0,0:0:0:0:
256,192,173929,1,0,0:0:0:0:
256,192,174013,1,0,0:0:0:0:
256,192,174183,1,4,0:0:0:0:
256,192,174352,1,0,0:0:0:0:
256,192,174522,1,8,0:0:0:0:
256,192,174861,1,8,0:0:0:0:
256,192,175030,1,0,0:0:0:0:
256,192,175200,1,8,0:0:0:0:
256,192,175539,1,8,0:0:0:0:
256,192,175708,1,0,0:0:0:0:
256,192,175878,1,8,0:0:0:0:
256,192,176047,1,0,0:0:0:0:
256,192,176386,1,0,0:0:0:0:
256,192,176556,1,8,0:0:0:0:
256,192,176895,1,4,0:0:0:0:
256,192,177234,1,8,0:0:0:0:
256,192,177573,1,8,0:0:0:0:
256,192,177742,1,0,0:0:0:0:
256,192,177912,1,8,0:0:0:0:
256,192,178251,1,0,0:0:0:0:
256,192,178420,1,8,0:0:0:0:
256,192,178590,1,8,0:0:0:0:
256,192,178759,1,0,0:0:0:0:
256,192,179098,1,0,0:0:0:0:
256,192,179268,1,12,0:0:0:0:
256,192,179607,1,4,0:0:0:0:
256,192,179776,1,0,0:0:0:0:
256,192,179946,1,8,0:0:0:0:
256,192,180285,1,8,0:0:0:0:
256,192,180454,1,0,0:0:0:0:
256,192,180624,1,8,0:0:0:0:
256,192,180962,1,12,0:0:0:0:
256,192,181132,1,0,0:0:0:0:
256,192,181301,1,8,0:0:0:0:
256,192,181471,1,0,0:0:0:0:
256,192,181810,1,0,0:0:0:0:
256,192,181979,1,8,0:0:0:0:
256,192,182318,1,4,0:0:0:0:
256,192,182657,1,8,0:0:0:0:
256,192,182996,1,8,0:0:0:0:
256,192,183166,1,0,0:0:0:0:
256,192,183335,1,8,0:0:0:0:
256,192,183674,1,4,0:0:0:0:
256,192,183844,1,0,0:0:0:0:
256,192,183929,1,0,0:0:0:0:
256,192,184013,1,8,0:0:0:0:
256,192,184183,1,8,0:0:0:0:
256,192,184268,1,0,0:0:0:0:
256,192,184352,1,0,0:0:0:0:
256,192,184437,1,0,0:0:0:0:
256,192,184522,1,0,0:0:0:0:
256,192,184691,1,8,0:0:0:0:
256,192,184861,1,0,0:0:0:0:
256,192,185030,1,4,0:0:0:0:
256,192,185200,1,8,0:0:0:0:
256,192,185369,1,0,0:0:0:0:
256,192,185708,1,8,0:0:0:0:
256,192,185878,1,0,0:0:0:0:
256,192,185962,1,8,0:0:0:0:
256,192,186047,1,8,0:0:0:0:
256,192,186217,1,8,0:0:0:0:
256,192,186386,1,0,0:0:0:0:
256,192,186556,1,8,0:0:0:0:
256,192,186725,1,8,0:0:0:0:
256,192,186895,1,0,0:0:0:0:
256,192,186979,1,0,0:0:0:0:
256,192,187064,1,8,0:0:0:0:
256,192,187149,1,8,0:0:0:0:
256,192,187234,1,0,0:0:0:0:
256,192,187403,1,8,0:0:0:0:
256,192,187573,1,8,0:0:0:0:
256,192,187742,1,0,0:0:0:0:
256,192,188081,1,8,0:0:0:0:
256,192,188251,1,0,0:0:0:0:
256,192,188335,1,8,0:0:0:0:
256,192,188420,1,8,0:0:0:0:
256,192,188590,1,0,0:0:0:0:
256,192,188759,1,8,0:0:0:0:
256,192,188929,1,8,0:0:0:0:
256,192,189013,1,8,0:0:0:0:
256,192,189098,1,0,0:0:0:0:
256,192,189183,1,0,0:0:0:0:
256,192,189268,1,8,0:0:0:0:
256,192,189437,1,8,0:0:0:0:
256,192,189607,1,0,0:0:0:0:
256,192,189691,1,0,0:0:0:0:
256,192,189776,1,8,0:0:0:0:
256,192,189861,1,8,0:0:0:0:
256,192,189946,1,0,0:0:0:0:
256,192,190115,1,8,0:0:0:0:
256,192,190285,1,8,0:0:0:0:
256,192,190454,1,4,0:0:0:0:
256,192,190624,1,0,0:0:0:0:
256,192,190793,1,8,0:0:0:0:
256,192,190962,1,0,0:0:0:0:
256,192,191047,1,8,0:0:0:0:
256,192,191132,1,0,0:0:0:0:
256,192,191301,1,8,0:0:0:0:
256,192,191471,1,8,0:0:0:0:
256,192,191640,1,8,0:0:0:0:
256,192,191810,1,0,0:0:0:0:
256,192,191979,1,0,0:0:0:0:
256,192,192149,1,8,0:0:0:0:
256,192,192234,1,8,0:0:0:0:
256,192,192318,1,0,0:0:0:0:
256,192,192403,1,0,0:0:0:0:
256,192,192488,1,8,0:0:0:0:
256,192,192657,1,0,0:0:0:0:
256,192,192827,1,8,0:0:0:0:
256,192,193166,1,8,0:0:0:0:
256,192,193335,1,0,0:0:0:0:
256,192,193505,1,8,0:0:0:0:
256,192,193674,1,0,0:0:0:0:
256,192,193844,1,8,0:0:0:0:
256,192,194013,1,8,0:0:0:0:
256,192,194183,1,8,0:0:0:0:
256,192,194352,1,0,0:0:0:0:
256,192,194522,1,4,0:0:0:0:
256,192,194691,1,8,0:0:0:0:
256,192,194861,1,8,0:0:0:0:
256,192,195030,1,0,0:0:0:0:
256,192,195115,1,8,0:0:0:0:
256,192,195200,1,0,0:0:0:0:
256,192,195369,1,0,0:0:0:0:
256,192,195454,1,0,0:0:0:0:
256,192,195539,1,0,0:0:0:0:
256,192,195624,1,0,0:0:0:0:
256,192,195708,1,8,0:0:0:0:
256,192,195878,1,4,0:0:0:0:
256,192,196217,1,0,0:0:0:0:
256,192,196556,1,8,0:0:0:0:
256,192,196895,1,8,0:0:0:0:
256,192,197234,1,8,0:0:0:0:
256,192,197403,1,0,0:0:0:0:
256,192,197573,1,12,0:0:0:0:
256,192,197912,1,4,0:0:0:0:
256,192,198081,1,0,0:0:0:0:
256,192,198250,1,8,0:0:0:0:
256,192,198589,1,8,0:0:0:0:
256,192,198928,1,8,0:0:0:0:
256,192,199098,1,0,0:0:0:0:
256,192,199267,1,8,0:0:0:0:
256,192,199437,1,0,0:0:0:0:
256,192,199606,1,8,0:0:0:0:
256,192,199945,1,0,0:0:0:0:
256,192,200115,1,0,0:0:0:0:
256,192,200284,1,8,0:0:0:0:
256,192,200623,1,0,0:0:0:0:
256,192,200962,1,8,0:0:0:0:
256,192,201301,1,0,0:0:0:0:
256,192,201471,1,0,0:0:0:0:
256,192,201640,1,8,0:0:0:0:
256,192,201810,1,0,0:0:0:0:
256,192,201979,1,0,0:0:0:0:
256,192,202318,1,8,0:0:0:0:
256,192,202657,1,0,0:0:0:0:
256,192,202827,1,0,0:0:0:0:
256,192,202996,1,8,0:0:0:0:
256,192,203081,1,8,0:0:0:0:
256,192,203166,1,0,0:0:0:0:
256,192,203335,1,4,0:0:0:0:
256,192,203505,1,0,0:0:0:0:
256,192,203674,1,8,0:0:0:0:
256,192,204013,1,8,0:0:0:0:
256,192,204352,1,8,0:0:0:0:
256,192,204522,1,0,0:0:0:0:
256,192,204691,1,12,0:0:0:0:
256,192,204861,1,0,0:0:0:0:
256,192,205030,1,8,0:0:0:0:
256,192,205369,1,0,0:0:0:0:
256,192,205539,1,0,0:0:0:0:
256,192,205708,1,8,0:0:0:0:
256,192,206047,1,4,0:0:0:0:
256,192,206386,1,8,0:0:0:0:
256,192,206725,1,0,0:0:0:0:
256,192,207064,1,8,0:0:0:0:
256,192,207234,1,0,0:0:0:0:
256,192,207403,1,0,0:0:0:0:
256,192,207742,1,12,0:0:0:0:
256,192,208081,1,0,0:0:0:0:
256,192,208166,1,0,0:0:0:0:
256,192,208250,1,0,0:0:0:0:
256,192,208335,1,0,0:0:0:0:
256,192,208420,1,8,0:0:0:0:
256,192,208589,1,8,0:0:0:0:
256,192,208759,1,4,0:0:0:0:
256,192,208928,1,0,0:0:0:0:
256,192,209098,1,8,0:0:0:0:
256,192,209437,1,8,0:0:0:0:
256,192,209776,1,8,0:0:0:0:
256,192,209945,1,0,0:0:0:0:
256,192,210115,1,8,0:0:0:0:
256,192,210284,1,0,0:0:0:0:
256,192,210454,1,8,0:0:0:0:
256,192,210793,1,0,0:0:0:0:
256,192,210962,1,0,0:0:0:0:
256,192,211132,1,8,0:0:0:0:
256,192,211471,1,4,0:0:0:0:
256,192,211810,1,8,0:0:0:0:
256,192,212149,1,0,0:0:0:0:
256,192,212488,1,8,0:0:0:0:
256,192,212657,1,0,0:0:0:0:
256,192,212827,1,0,0:0:0:0:
256,192,213166,1,8,0:0:0:0:
256,192,213505,1,0,0:0:0:0:
256,192,213674,1,0,0:0:0:0:
256,192,213844,1,8,0:0:0:0:
256,192,213928,1,8,0:0:0:0:
256,192,214013,1,8,0:0:0:0:
256,192,214183,1,4,0:0:0:0:
256,192,214352,1,0,0:0:0:0:
256,192,214522,1,8,0:0:0:0:
256,192,214861,1,8,0:0:0:0:
256,192,215200,1,8,0:0:0:0:
256,192,215369,1,0,0:0:0:0:
256,192,215539,1,12,0:0:0:0:
256,192,215708,1,0,0:0:0:0:
256,192,215878,1,8,0:0:0:0:
256,192,216217,1,0,0:0:0:0:
256,192,216386,1,0,0:0:0:0:
256,192,216556,1,8,0:0:0:0:
256,192,216895,1,4,0:0:0:0:
256,192,217234,1,8,0:0:0:0:
256,192,217573,1,0,0:0:0:0:
256,192,217912,1,8,0:0:0:0:
256,192,218081,1,0,0:0:0:0:
256,192,218250,1,8,0:0:0:0:
256,192,218589,1,12,0:0:0:0:
256,192,218928,1,0,0:0:0:0:
256,192,219098,1,0,0:0:0:0:
256,192,219183,1,0,0:0:0:0:
256,192,219267,1,8,0:0:0:0:
256,192,219437,1,0,0:0:0:0:
256,192,219606,1,12,0:0:0:0:
256,192,219776,1,0,0:0:0:0:
256,192,219861,1,0,0:0:0:0:
256,192,219945,1,8,0:0:0:0:
256,192,220115,1,0,0:0:0:0:
256,192,220454,1,8,0:0:0:0:
256,192,220623,1,0,0:0:0:0:
256,192,220793,1,8,0:0:0:0:
256,192,220962,1,8,0:0:0:0:
256,192,221132,1,0,0:0:0:0:
256,192,221301,1,0,0:0:0:0:
256,192,221471,1,8,0:0:0:0:
256,192,221810,1,0,0:0:0:0:
256,192,221979,1,8,0:0:0:0:
256,192,222318,1,8,0:0:0:0:
256,192,222488,1,0,0:0:0:0:
256,192,222573,1,0,0:0:0:0:
256,192,222657,1,8,0:0:0:0:
256,192,222827,1,0,0:0:0:0:
256,192,223166,1,8,0:0:0:0:
256,192,223335,1,0,0:0:0:0:
256,192,223505,1,8,0:0:0:0:
256,192,223674,1,8,0:0:0:0:
256,192,223844,1,0,0:0:0:0:
256,192,224013,1,0,0:0:0:0:
256,192,224183,1,8,0:0:0:0:
256,192,224522,1,0,0:0:0:0:
256,192,224691,1,8,0:0:0:0:
256,192,224861,1,8,0:0:0:0:
256,192,225030,1,12,0:0:0:0:
256,192,225200,1,0,0:0:0:0:
256,192,225284,1,0,0:0:0:0:
256,192,225369,1,8,0:0:0:0:
256,192,225539,1,0,0:0:0:0:
256,192,225878,1,8,0:0:0:0:
256,192,226047,1,0,0:0:0:0:
256,192,226217,1,8,0:0:0:0:
256,192,226386,1,4,0:0:0:0:
256,192,226556,1,0,0:0:0:0:
256,192,226725,1,8,0:0:0:0:
256,192,226895,1,0,0:0:0:0:
256,192,227234,1,0,0:0:0:0:
256,192,227403,1,8,0:0:0:0:
256,192,227742,1,4,0:0:0:0:
256,192,228081,1,8,0:0:0:0:
256,192,228420,1,0,0:0:0:0:
256,192,228759,1,8,0:0:0:0:
256,192,228928,1,8,0:0:0:0:
256,192,229098,1,0,0:0:0:0:
256,192,229437,1,8,0:0:0:0:
256,192,229776,1,4,0:0:0:0:
256,192,229945,1,8,0:0:0:0:
256,192,230115,1,8,0:0:0:0:
256,192,230284,1,8,0:0:0:0:
256,192,230454,1,12,0:0:0:0:
256,192,230623,1,0,0:0:0:0:
256,192,230793,1,8,0:0:0:0:
256,192,230962,1,0,0:0:0:0:
256,192,231047,1,0,0:0:0:0:
256,192,231132,1,0,0:0:0:0:
256,192,231301,1,8,0:0:0:0:
256,192,231471,1,0,0:0:0:0:
256,192,231640,1,8,0:0:0:0:
256,192,231810,1,8,0:0:0:0:
256,192,231979,1,0,0:0:0:0:
256,192,232149,1,8,0:0:0:0:
256,192,232318,1,0,0:0:0:0:
256,192,232657,1,0,0:0:0:0:
256,192,232827,1,8,0:0:0:0:
256,192,233166,1,12,0:0:0:0:
256,192,233335,1,0,0:0:0:0:
256,192,233505,1,8,0:0:0:0:
256,192,233674,1,0,0:0:0:0:
256,192,233759,1,0,0:0:0:0:
256,192,233844,1,0,0:0:0:0:
256,192,234013,1,8,0:0:0:0:
256,192,234183,1,0,0:0:0:0:
256,192,234352,1,8,0:0:0:0:
256,192,234522,1,8,0:0:0:0:
256,192,234691,1,0,0:0:0:0:
256,192,234861,1,8,0:0:0:0:
256,192,235030,1,0,0:0:0:0:
256,192,235369,1,0,0:0:0:0:
256,192,235539,1,12,0:0:0:0:
256,192,235708,1,0,0:0:0:0:
256,192,235878,1,12,0:0:0:0:
256,192,236047,1,0,0:0:0:0:
256,192,236217,1,8,0:0:0:0:
256,192,236386,1,0,0:0:0:0:
256,192,236471,1,0,0:0:0:0:
256,192,236556,1,0,0:0:0:0:
256,192,236725,1,8,0:0:0:0:
256,192,236895,1,0,0:0:0:0:
256,192,237064,1,8,0:0:0:0:
256,192,237234,1,4,0:0:0:0:
256,192,237403,1,0,0:0:0:0:
256,192,237573,1,8,0:0:0:0:
256,192,237742,1,0,0:0:0:0:
256,192,238081,1,0,0:0:0:0:
256,192,238250,1,8,0:0:0:0:
256,192,238589,1,4,0:0:0:0:
256,192,238928,1,8,0:0:0:0:
256,192,239267,1,0,0:0:0:0:
256,192,239606,1,8,0:0:0:0:
256,192,239776,1,8,0:0:0:0:
256,192,239945,1,4,0:0:0:0:
256,192,240115,1,8,0:0:0:0:
256,192,240200,1,8,0:0:0:0:
256,192,240284,1,8,0:0:0:0:
256,192,240454,1,8,0:0:0:0:
256,192,240623,1,4,0:0:0:0:
256,192,240793,1,0,0:0:0:0:
256,192,240878,1,0,0:0:0:0:
256,192,240962,1,8,0:0:0:0:
256,192,241047,1,8,0:0:0:0:
256,192,241132,1,0,0:0:0:0:
256,192,241301,1,4,0:0:0:0:
256,192,241471,1,0,0:0:0:0:
256,192,241640,1,8,0:0:0:0:
256,192,241979,1,0,0:0:0:0:
256,192,242149,1,8,0:0:0:0:
256,192,242318,1,8,0:0:0:0:
256,192,242488,1,0,0:0:0:0:
256,192,242657,1,8,0:0:0:0:
256,192,242827,1,0,0:0:0:0:
256,192,242996,1,8,0:0:0:0:
256,192,243166,1,0,0:0:0:0:
256,192,243505,1,0,0:0:0:0:
256,192,243674,1,8,0:0:0:0:
256,192,243844,1,0,0:0:0:0:
256,192,244013,1,12,0:0:0:0:
256,192,244183,1,0,0:0:0:0:
256,192,244352,1,8,0:0:0:0:
256,192,244691,1,0,0:0:0:0:
256,192,244861,1,8,0:0:0:0:
256,192,245030,1,8,0:0:0:0:
256,192,245200,1,0,0:0:0:0:
256,192,245369,1,8,0:0:0:0:
256,192,245539,1,0,0:0:0:0:
256,192,245708,1,8,0:0:0:0:
256,192,245878,1,0,0:0:0:0:
256,192,246217,1,0,0:0:0:0:
256,192,246386,1,8,0:0:0:0:
256,192,246556,1,8,0:0:0:0:
256,192,246725,1,4,0:0:0:0:
256,192,246895,1,0,0:0:0:0:
256,192,246979,1,0,0:0:0:0:
256,192,247064,1,8,0:0:0:0:
256,192,247403,1,0,0:0:0:0:
256,192,247573,1,8,0:0:0:0:
256,192,247742,1,8,0:0:0:0:
256,192,247912,1,0,0:0:0:0:
256,192,248081,1,12,0:0:0:0:
256,192,248250,1,0,0:0:0:0:
256,192,248420,1,8,0:0:0:0:
256,192,248589,1,0,0:0:0:0:
256,192,248928,1,0,0:0:0:0:
256,192,249098,1,8,0:0:0:0:
256,192,249267,1,0,0:0:0:0:
256,192,249437,1,12,0:0:0:0:
256,192,249606,1,0,0:0:0:0:
256,192,249691,1,0,0:0:0:0:
256,192,249776,1,8,0:0:0:0:
256,192,250115,1,0,0:0:0:0:
256,192,250284,1,8,0:0:0:0:
256,192,250454,1,8,0:0:0:0:
256,192,250623,1,0,0:0:0:0:
256,192,250793,1,4,0:0:0:0:
256,192,250962,1,0,0:0:0:0:
256,192,251047,1,0,0:0:0:0:
256,192,251132,1,8,0:0:0:0:
256,192,251301,1,0,0:0:0:0:
256,192,251386,1,8,0:0:0:0:
256,192,251471,1,0,0:0:0:0:
256,192,251640,1,0,0:0:0:0:
256,192,251810,1,8,0:0:0:0:
256,192,251895,1,8,0:0:0:0:
256,192,251979,1,8,0:0:0:0:
256,192,252064,1,8,0:0:0:0:
256,192,252149,1,4,0:0:0:0:
256,192,252318,1,0,0:0:0:0:
256,192,252488,1,8,0:0:0:0:
256,192,252827,1,8,0:0:0:0:
256,192,252996,1,0,0:0:0:0:
256,192,253166,1,8,0:0:0:0:
256,192,253505,1,8,0:0:0:0:
256,192,253674,1,0,0:0:0:0:
256,192,253844,1,8,0:0:0:0:
256,192,254013,1,0,0:0:0:0:
256,192,254352,1,0,0:0:0:0:
256,192,254522,1,8,0:0:0:0:
256,192,254861,1,4,0:0:0:0:
256,192,255200,1,8,0:0:0:0:
256,192,255539,1,8,0:0:0:0:
256,192,255708,1,0,0:0:0:0:
256,192,255878,1,8,0:0:0:0:
256,192,256217,1,0,0:0:0:0:
256,192,256386,1,8,0:0:0:0:
256,192,256556,1,8,0:0:0:0:
256,192,256725,1,0,0:0:0:0:
256,192,257064,1,0,0:0:0:0:
256,192,257234,1,12,0:0:0:0:
256,192,257573,1,4,0:0:0:0:
256,192,257742,1,0,0:0:0:0:
256,192,257912,1,8,0:0:0:0:
256,192,258251,1,8,0:0:0:0:
256,192,258420,1,0,0:0:0:0:
256,192,258590,1,8,0:0:0:0:
256,192,258928,1,12,0:0:0:0:
256,192,259098,1,0,0:0:0:0:
256,192,259267,1,8,0:0:0:0:
256,192,259437,1,0,0:0:0:0:
256,192,259776,1,0,0:0:0:0:
256,192,259945,1,8,0:0:0:0:
256,192,260284,1,4,0:0:0:0:
256,192,260623,1,8,0:0:0:0:
256,192,260962,1,8,0:0:0:0:
256,192,261132,1,0,0:0:0:0:
256,192,261301,1,8,0:0:0:0:
256,192,261640,1,4,0:0:0:0:
256,192,261810,1,0,0:0:0:0:
256,192,261895,1,0,0:0:0:0:
256,192,261979,1,8,0:0:0:0:
256,192,262149,1,0,0:0:0:0:
256,192,262234,1,8,0:0:0:0:
256,192,262318,1,8,0:0:0:0:
256,192,262403,1,8,0:0:0:0:
256,192,262488,1,8,0:0:0:0:
256,192,262657,1,8,0:0:0:0:
256,192,262742,1,0,0:0:0:0:
256,192,262827,1,0,0:0:0:0:
224,96,262996,2,0,L|192:128,12,35
256,192,264183,1,4,0:0:0:0:
