osu file format v14

[General]
AudioFilename: audio.mp3
AudioLeadIn: 0
PreviewTime:49388
Countdown: 0
SampleSet: Soft
StackLeniency: 0.3
Mode: 0
LetterboxInBreaks: 0
WidescreenStoryboard: 1

[Editor]
DistanceSpacing: 1.1
BeatDivisor: 4
GridSize: 32
TimelineZoom: 1.7

[Metadata]
Title:QUESTION (Cut Ver.)
TitleUnicode:QUESTION (Cut Ver.)
Artist:3 Nen E Gumi Utatan
ArtistUnicode:3年E組うた担
Creator:Nevo
Version:Shira's Insane
Source:暗殺教室 第2期
Tags:assassination classroom anime japanese shira shiratoi -Mercury- Shiota 潮田 Fuchigami Mai 渕上 舞 Kaede カエデ Suzaki Aya 洲崎 綾 Akabane Karma Karuma 赤羽 Okamoto Nobuhiko 岡本 信彦 Yuuma 悠馬 Osaka Ryota Ryōta Ōsaka Ohsaka 逢坂 良太 Hiroto 陽斗 Asanuma Shintaro 浅沼 晋太郎 arc [arc] aakki Sip of Mercury Sip_of_Mercury pop Nagisa Kayano Isogai Maehara final season second 2nd Ansatsu Kyoushitsu Kyoshitsu jpop j-pop jrock j-rock rock
BeatmapID:2717343
BeatmapSetID:1266361

[Difficulty]
HPDrainRate:5
CircleSize:4
OverallDifficulty:8
ApproachRate:9
SliderMultiplier:1.8
SliderTickRate:1

[Events]
//Background and Video events
0,0,"48955615_p0.jpg",0,0
//Break Periods
//Storyboard Layer 0 (Background)
//Storyboard Layer 1 (Fail)
//Storyboard Layer 2 (Pass)
//Storyboard Layer 3 (Foreground)
//Storyboard Layer 4 (Overlay)
//Storyboard Sound Samples

[TimingPoints]
670,338.983050847458,4,2,50,40,1,0
670,-142.857142857143,4,2,50,40,0,0
6093,-125,4,2,50,70,0,0
8212,-125,4,2,50,5,0,0
8297,-125,4,2,50,70,0,0
10924,-125,4,2,50,5,0,0
11008,-125,4,2,50,70,0,0
11093,-125,4,2,50,5,0,0
11178,-125,4,2,50,70,0,0
11263,-125,4,2,50,5,0,0
11347,-125,4,2,50,70,0,0
11432,-125,4,2,50,5,0,0
11517,-111.111111111111,4,2,50,70,0,0
13636,-111.111111111111,4,2,50,5,0,0
13720,-111.111111111111,4,2,50,70,0,0
16347,-111.111111111111,4,2,50,5,0,0
16432,-111.111111111111,4,2,50,70,0,0
16517,-111.111111111111,4,2,50,5,0,0
16602,-111.111111111111,4,2,50,70,0,0
16686,-111.111111111111,4,2,50,5,0,0
16771,-111.111111111111,4,2,50,70,0,0
16856,-111.111111111111,4,2,50,5,0,0
16941,-111.111111111111,4,2,50,70,0,0
19059,-111.111111111111,4,2,50,5,0,0
19144,-111.111111111111,4,2,50,70,0,0
21771,-111.111111111111,4,2,50,5,0,0
21856,-111.111111111111,4,2,50,70,0,0
21941,-111.111111111111,4,2,50,5,0,0
22025,-111.111111111111,4,2,50,70,0,0
22110,-111.111111111111,4,2,50,5,0,0
22195,-111.111111111111,4,2,50,70,0,0
22280,-111.111111111111,4,2,50,5,0,0
22364,-142.857142857143,4,2,50,50,0,0
29907,-142.857142857143,4,2,50,5,0,0
29992,-142.857142857143,4,2,50,50,0,0
30500,-117.647058823529,4,2,50,70,0,0
33212,-125,4,2,50,60,0,0
34144,-125,4,2,50,5,0,0
34229,-125,4,2,50,60,0,0
34822,-125,4,2,50,5,0,0
34907,-125,4,2,50,60,0,0
36856,-125,4,2,50,5,0,0
36941,-125,4,2,50,60,0,0
39568,-125,4,2,50,5,0,0
39653,-125,4,2,50,60,0,0
40754,-125,4,2,50,5,0,0
40839,-125,4,2,50,60,0,0
40924,-125,4,2,50,5,0,0
41008,-125,4,2,50,60,0,0
41093,-125,4,2,50,5,0,0
41178,-125,4,2,50,60,0,0
41263,-125,4,2,50,5,0,0
41347,-133.333333333333,4,2,50,50,0,0
41771,-133.333333333333,4,2,50,5,0,0
41856,-133.333333333333,4,2,50,50,0,0
43127,-133.333333333333,4,2,50,5,0,0
43212,-133.333333333333,4,2,50,50,0,0
45839,-133.333333333333,4,2,50,5,0,0
45924,-133.333333333333,4,2,50,50,0,0
46771,-200,4,2,50,50,0,0
48127,-111.111111111111,4,2,50,60,0,0
49483,-100,4,2,50,80,0,1
50076,-100,4,2,50,5,0,1
50161,-100,4,2,50,80,0,1
51432,-100,4,2,50,5,0,1
51517,-100,4,2,50,80,0,1
52449,-100,4,2,50,5,0,1
52534,-100,4,2,50,80,0,1
54822,-100,4,2,50,5,0,1
54907,-100,4,2,50,80,0,1
55839,-100,4,2,50,5,0,1
55924,-100,4,2,50,80,0,1
56856,-100,4,2,50,5,0,1
56941,-100,4,2,50,80,0,1
57873,-100,4,2,50,5,0,1
57958,-100,4,2,50,80,0,1
59653,-111.111111111111,4,2,50,70,0,0
60331,-100,4,2,50,80,0,1
60924,-100,4,2,50,5,0,1
61008,-100,4,2,50,80,0,1
62280,-100,4,2,50,5,0,1
62364,-100,4,2,50,80,0,1
63297,-100,4,2,50,5,0,1
63381,-100,4,2,50,80,0,1
66347,-100,4,2,50,5,0,1
66432,-100,4,2,50,80,0,1
67703,-100,4,2,50,5,0,1
67788,-100,4,2,50,80,0,1
68720,-100,4,2,50,5,0,1
68805,-100,4,2,50,80,0,1
71178,-111.111111111111,4,2,50,70,0,0
86856,-111.111111111111,4,2,50,5,0,0
86941,-111.111111111111,4,2,50,70,0,0
89568,-111.111111111111,4,2,50,5,0,0
89653,-111.111111111111,4,2,50,70,0,0
93127,-111.111111111111,4,2,50,5,0,0
93212,-111.111111111111,4,2,50,70,0,0
94992,-111.111111111111,4,2,50,5,0,0
95076,-111.111111111111,4,2,50,70,0,0
95839,-111.111111111111,4,2,50,5,0,0
95924,-111.111111111111,4,2,50,70,0,0
97703,-111.111111111111,4,2,50,5,0,0
97788,-111.111111111111,4,2,50,70,0,0
98551,-111.111111111111,4,2,50,5,0,0
98636,-111.111111111111,4,2,50,70,0,0
100415,-111.111111111111,4,2,50,5,0,0
100500,-111.111111111111,4,2,50,70,0,0
103975,-111.111111111111,4,2,50,5,0,0
104059,-111.111111111111,4,2,50,70,0,0

[Colours]
Combo1 : 0,179,255
Combo2 : 9,132,255
Combo3 : 192,192,192

[HitObjects]
391,263,670,6,0,L|399:337,1,62.9999980773926,2|2,0:0|0:0,0:0:0:0:
302,232,1008,2,0,L|321:95,1,125.999996154785,2|0,0:0|0:0,0:0:0:0:
259,33,1517,1,2,0:0:0:0:
381,99,1686,2,0,L|299:109,1,62.9999980773926,2|2,0:0|0:0,0:0:0:0:
196,23,2025,6,0,L|277:35,1,62.9999980773926,2|2,0:0|0:0,0:0:0:0:
181,137,2364,1,2,0:0:0:0:
98,53,2534,2,0,B|123:121|71:112|107:177,1,125.999996154785,2|2,0:0|0:0,0:0:0:0:
6,225,3042,1,2,0:0:0:0:
105,174,3212,1,2,0:0:0:0:
184,274,3381,6,0,L|264:261,1,62.9999980773926,2|2,0:0|0:0,0:0:0:0:
184,369,3720,2,0,L|37:349,1,125.999996154785,2|0,0:0|0:0,0:0:0:0:
184,274,4229,1,2,0:0:0:0:
59,352,4398,2,0,L|72:275,1,62.9999980773926,2|2,0:0|0:0,0:0:0:0:
172,212,4737,6,0,L|184:275,1,62.9999980773926,2|2,0:0|0:0,0:0:0:0:
269,159,5076,1,2,0:0:0:0:
329,274,5246,2,0,B|398:234|393:308|459:257,1,125.999996154785,2|2,0:0|0:0,0:0:0:0:
366,353,5754,1,2,0:0:0:0:
447,264,5924,1,2,0:0:0:0:
339,147,6093,6,0,L|250:162,1,72,6|0,1:0|0:0,0:0:0:0:
380,29,6432,1,8,0:0:0:0:
436,97,6602,2,0,L|423:194,1,72,0|2,1:0|0:0,0:0:0:0:
291,40,6941,1,0,1:0:0:0:
426,168,7110,2,0,L|513:152,1,72,8|0,0:0|0:0,0:0:0:0:
329,274,7449,5,2,1:0:0:0:
256,205,7619,1,2,0:0:0:0:
192,369,7788,1,8,0:0:0:0:
63,185,7958,2,0,L|52:304,1,108,2|0,1:2|0:0,0:0:0:0:
54,293,8297,1,0,1:0:0:0:
148,145,8466,1,8,0:0:0:0:
180,240,8636,1,2,0:0:0:0:
342,182,8805,6,0,B|352:143|352:143|338:110,1,72,2|0,1:0|0:0,0:0:0:0:
227,22,9144,1,8,0:0:0:0:
137,73,9314,2,0,L|149:154,1,72,0|2,1:0|0:0,0:0:0:0:
311,36,9653,1,0,1:0:0:0:
147,144,9822,2,0,L|66:136,1,72,8|0,0:0|0:0,0:0:0:0:
266,244,10161,5,2,1:0:0:0:
256,133,10331,1,2,0:0:0:0:
152,317,10500,1,8,0:0:0:0:
24,196,10670,2,0,L|33:308,1,108,2|0,1:2|1:0,0:0:0:0:
32,303,11008,6,0,L|87:297,1,36,8|0,0:0|0:0,0:0:0:0:
182,152,11178,2,0,L|146:144,1,36,8|0,0:0|0:0,0:0:0:0:
245,331,11347,2,0,L|305:320,1,36,8|0,0:0|0:0,0:0:0:0:
342,223,11517,5,6,1:0:0:0:
422,370,11686,1,2,0:0:0:0:
439,260,11856,2,0,B|401:300|352:293|352:293|334:249|281:250,1,161.999995056153,8|2,0:0|0:0,0:0:0:0:
382,100,12364,1,0,1:0:0:0:
304,252,12534,1,8,0:0:0:0:
290,138,12703,1,2,0:0:0:0:
453,180,12873,6,0,L|435:278,1,80.9999975280763,2|2,1:0|0:0,0:0:0:0:
382,100,13212,1,8,0:0:0:0:
290,138,13381,2,0,B|219:109|243:171|156:137,1,121.499996292114,2|0,1:2|0:0,0:0:0:0:
173,143,13720,1,0,1:0:0:0:
306,40,13890,1,12,0:0:0:0:
290,138,14059,1,2,0:0:0:0:
128,42,14229,5,6,1:0:0:0:
61,146,14398,1,2,0:0:0:0:
10,62,14568,2,0,L|26:223,1,161.999995056153,8|2,0:0|0:0,0:0:0:0:
123,297,15076,1,0,1:0:0:0:
26,223,15246,1,8,0:0:0:0:
22,340,15415,1,2,0:0:0:0:
202,312,15585,6,0,L|104:293,1,80.9999975280763,2|2,1:0|0:0,0:0:0:0:
261,205,15924,1,8,0:0:0:0:
299,290,16093,2,0,B|365:261|351:325|432:280,1,121.499996292114,2|0,1:2|0:0,0:0:0:0:
415,288,16432,2,0,L|404:238,1,40.4999987640381,10|0,0:0|0:0,0:0:0:0:
270,165,16602,2,0,L|260:208,1,40.4999987640381,8|0,0:0|0:0,0:0:0:0:
122,296,16771,2,0,L|107:238,1,40.4999987640381,8|0,0:0|0:0,0:0:0:0:
182,148,16941,5,6,1:0:0:0:
111,256,17110,1,2,0:0:0:0:
146,76,17280,2,0,B|177:114|221:104|221:104|255:76|304:95,1,161.999995056153,8|2,0:0|0:0,0:0:0:0:
384,232,17788,1,0,1:0:0:0:
461,76,17958,1,8,0:0:0:0:
486,178,18127,1,2,0:0:0:0:
293,91,18297,6,0,L|280:189,1,80.9999975280763,6|2,1:0|0:0,0:0:0:0:
370,20,18636,1,8,0:0:0:0:
293,91,18805,2,0,B|221:63|234:121|166:89,1,121.499996292114,2|0,1:2|0:0,0:0:0:0:
176,93,19144,1,0,1:0:0:0:
189,254,19314,1,8,0:0:0:0:
130,165,19483,1,2,0:0:0:0:
283,266,19653,5,6,1:0:0:0:
341,173,19823,1,2,0:0:0:0:
347,331,19992,2,0,B|312:299|261:307|261:307|238:343|191:340,1,161.999995056153,8|2,0:0|0:0,0:0:0:0:
88,249,20500,1,0,1:0:0:0:
203,340,20670,1,8,0:0:0:0:
283,266,20839,1,2,0:0:0:0:
427,320,21008,6,0,L|332:332,1,80.9999975280763,2|0,1:0|1:0,0:0:0:0:
483,221,21347,1,8,0:0:0:0:
389,170,21517,2,0,B|410:103|357:125|381:43,1,121.499996292114,2|0,0:0|0:0,0:0:0:0:
378,53,21856,2,0,P|345:69|314:67,1,40.4999987640381,8|0,0:0|0:0,0:0:0:0:
184,23,22025,2,0,P|199:56|197:87,1,40.4999987640381,8|0,0:0|0:0,0:0:0:0:
244,216,22195,2,0,P|256:181|279:160,1,40.4999987640381,8|0,0:0|0:0,0:0:0:0:
389,170,22364,5,6,1:0:0:0:
304,219,22534,2,0,P|256:221|236:210,1,62.9999980773926,0|2,0:0|0:0,0:0:0:0:
179,136,22873,1,0,0:0:0:0:
99,216,23042,2,0,L|119:343,1,125.999996154785,2|2,0:0|0:0,0:0:0:0:
12,210,23551,1,0,1:0:0:0:
180,327,23720,6,0,L|106:342,1,62.9999980773926,2|0,1:0|0:0,0:0:0:0:
243,215,24059,1,2,0:0:0:0:
308,292,24229,2,0,L|294:380,1,62.9999980773926,0|2,0:0|0:0,0:0:0:0:
410,258,24568,1,0,0:0:0:0:
341,199,24737,1,2,0:0:0:0:
456,106,24907,1,0,1:0:0:0:
321,40,25076,5,2,1:0:0:0:
393,115,25246,2,0,L|466:104,1,62.9999980773926,0|2,0:0|0:0,0:0:0:0:
506,195,25585,1,0,0:0:0:0:
410,258,25754,2,0,P|390:328|418:372,1,125.999996154785,2|2,0:0|0:0,0:0:0:0:
341,199,26263,1,0,1:0:0:0:
415,370,26432,6,0,L|332:366,1,62.9999980773926,2|0,1:0|0:0,0:0:0:0:
245,247,26771,1,2,0:0:0:0:
341,199,26941,2,0,P|350:163|340:128,1,62.9999980773926,0|2,0:0|0:0,0:0:0:0:
268,62,27280,1,0,0:0:0:0:
344,138,27449,1,2,0:0:0:0:
245,247,27619,1,0,1:0:0:0:
352,366,27788,5,6,1:0:0:0:
236,309,27958,2,0,L|246:236,1,62.9999980773926,0|2,0:0|0:0,0:0:0:0:
174,158,28297,1,0,0:0:0:0:
118,256,28466,2,0,L|251:246,1,125.999996154785,2|2,0:0|0:0,0:0:0:0:
67,157,28975,1,0,1:0:0:0:
243,246,29144,6,0,B|259:213|259:213|248:171,1,62.9999980773926,2|0,1:0|0:0,0:0:0:0:
118,256,29483,1,2,0:0:0:0:
174,158,29653,1,0,0:0:0:0:
227,371,29822,2,0,L|269:364,1,31.4999990386963,8|0,0:0|0:0,0:0:0:0:
320,296,29992,1,0,1:0:0:0:
457,372,30161,1,0,1:0:0:0:
367,177,30331,1,0,1:0:0:0:
457,372,30500,6,0,B|475:331|475:331|460:292,1,76.5000014591217,6|2,1:0|0:0,0:0:0:0:
295,211,30839,1,8,0:0:0:0:
511,184,31008,2,0,B|423:137|449:216|363:175,1,153.000002918243,0|0,1:0|1:0,0:0:0:0:
487,76,31517,1,8,0:0:0:0:
366,176,31686,1,2,0:0:0:0:
259,21,31856,6,0,L|243:108,1,76.5000014591217,2|2,1:0|1:0,0:0:0:0:
393,21,32195,1,8,0:0:0:0:
245,96,32364,2,0,B|281:58|331:67|331:67|353:99|392:96,1,153.000002918243,0|0,1:0|1:0,0:0:0:0:
210,189,32873,1,8,0:0:0:0:
152,83,33042,1,2,0:0:0:0:
99,248,33212,6,0,L|113:326,1,72,6|0,1:0|0:0,0:0:0:0:
210,189,33551,1,8,0:0:0:0:
78,153,33720,1,0,0:0:0:0:
200,279,33890,2,0,B|269:261|269:261|314:278,1,108,2|0,0:0|0:0,0:0:0:0:
303,273,34229,1,8,0:0:0:0:
362,124,34398,1,0,1:0:0:0:
511,211,34568,6,0,L|382:225,1,108,2|0,1:0|0:0,0:0:0:0:
403,222,34907,1,8,0:0:0:0:
461,127,35076,1,0,0:0:0:0:
352,52,35246,2,0,L|361:123,1,72,2|0,0:0|0:0,0:0:0:0:
210,189,35585,1,8,0:0:0:0:
361,123,35754,1,0,1:0:0:0:
214,257,35924,6,0,B|200:223|200:223|212:178,1,72,2|0,1:0|0:0,0:0:0:0:
324,307,36263,1,8,0:0:0:0:
208,367,36432,1,0,0:0:0:0:
324,307,36602,2,0,L|446:309,1,108,2|0,0:0|0:0,0:0:0:0:
431,308,36941,1,8,0:0:0:0:
303,227,37110,1,0,1:0:0:0:
439,40,37280,5,2,1:0:0:0:
440,140,37449,1,0,0:0:0:0:
276,57,37619,1,8,0:0:0:0:
312,156,37788,2,0,L|302:239,1,72,0|2,0:0|0:0,0:0:0:0:
159,251,38127,1,0,0:0:0:0:
202,108,38297,1,8,0:0:0:0:
258,310,38466,1,0,1:0:0:0:
135,123,38636,6,0,B|170:104|170:104|224:110,1,72,6|0,1:0|0:0,0:0:0:0:
303,227,38975,1,8,0:0:0:0:
202,108,39144,1,0,0:0:0:0:
159,251,39314,2,0,L|35:237,1,108,2|0,0:0|0:0,0:0:0:0:
51,238,39653,1,8,0:0:0:0:
167,356,39822,1,0,1:0:0:0:
304,228,39992,5,2,1:0:0:0:
289,330,40161,1,0,0:0:0:0:
188,178,40331,2,0,L|204:91,1,72,8|2,0:0|0:0,0:0:0:0:
47,206,40670,6,0,L|58:251,1,36,8|0,0:0|0:0,0:0:0:0:
167,356,40839,2,0,L|175:321,1,36,8|0,0:0|0:0,0:0:0:0:
295,193,41008,2,0,L|306:238,1,36,8|0,0:0|0:0,0:0:0:0:
414,362,41178,2,0,L|422:327,1,36,8|0,0:0|0:0,0:0:0:0:
499,187,41347,5,6,1:0:0:0:
399,224,41517,2,0,B|338:211|338:211|284:236,1,101.250003862381
302,227,41856,1,0,1:0:0:0:
197,148,42025,2,0,B|230:67|160:90|193:4,1,135.000005149842,8|2,0:0|0:0,0:0:0:0:
101,123,42534,1,8,0:0:0:0:
277,33,42703,5,2,1:0:0:0:
308,232,42873,2,0,L|326:111,1,101.250003862381,8|0,0:0|0:0,0:0:0:0:
322,131,43212,1,0,1:0:0:0:
194,236,43381,2,0,L|213:369,1,135.000005149842,8|2,0:0|0:0,0:0:0:0:
308,232,43890,1,8,0:0:0:0:
213,369,44059,6,0,B|244:333|291:343|291:343|313:372|353:367,1,135.000005149842,6|2,1:0|0:0,0:0:0:0:
194,236,44568,1,0,1:0:0:0:
65,228,44737,2,0,B|145:197|128:264|199:233,1,135.000005149842,8|2,0:0|0:0,0:0:0:0:
94,322,45246,1,8,0:0:0:0:
182,141,45415,5,2,1:0:0:0:
297,222,45585,2,0,L|183:236,1,101.250003862381,8|0,0:0|0:0,0:0:0:0:
196,234,45924,1,0,1:0:0:0:
318,122,46093,2,0,L|454:138,1,135.000005149842,8|2,0:0|0:0,0:0:0:0:
297,222,46602,1,0,0:0:0:0:
430,296,46771,6,0,P|414:224|367:322,1,270,6|2,1:0|0:0,0:0:0:0:
364,321,48127,6,0,L|281:331,1,80.9999975280763,12|0,0:0|1:0,0:0:0:0:
154,226,48466,2,0,L|237:236,1,80.9999975280763,8|0,0:0|1:0,0:0:0:0:
3,348,48805,5,12,0:0:0:0:
105,128,48975,1,8,0:0:0:0:
89,374,49144,1,8,0:0:0:0:
0,121,49314,1,8,0:0:0:0:
150,310,49483,6,0,B|167:266|167:266|152:222,1,90,6|2,1:0|0:0,0:0:0:0:
255,356,49822,2,0,L|409:341,1,135,8|0,0:0|0:0,0:0:0:0:
389,342,50161,1,2,1:0:0:0:
301,245,50331,1,0,1:0:0:0:
437,96,50500,1,8,0:0:0:0:
424,214,50670,1,2,0:0:0:0:
320,47,50839,6,0,B|275:31|275:31|220:53,1,90,2|2,1:0|0:0,0:0:0:0:
119,178,51178,2,0,L|151:317,1,135,8|0,0:0|0:0,0:0:0:0:
149,309,51517,1,2,1:0:0:0:
218,215,51686,1,0,1:0:0:0:
346,307,51856,2,0,P|299:323|247:300,1,90,8|2,0:0|0:0,0:0:0:0:
290,115,52195,6,0,B|268:182|324:171|300:248,1,135,6|0,1:0|0:0,0:0:0:0:
300,244,52534,2,0,P|347:228|399:251,1,90,8|2,0:0|0:0,0:0:0:0:
478,355,52873,1,2,1:0:0:0:
384,239,53042,1,0,1:0:0:0:
489,69,53212,1,8,0:0:0:0:
386,109,53381,1,2,0:0:0:0:
478,270,53551,6,0,B|493:314|493:314|473:366,1,90,2|2,1:0|0:0,0:0:0:0:
293,374,53890,2,0,L|191:359,1,90,8|2,0:0|0:0,0:0:0:0:
162,170,54229,1,2,1:0:0:0:
102,369,54398,1,0,1:0:0:0:
244,229,54568,2,0,B|278:193|278:193|283:145|234:98,1,135,12|0,0:0|0:0,0:0:0:0:
249,114,54907,6,0,P|301:131|343:109,1,90,6|2,1:0|0:0,0:0:0:0:
228,12,55246,1,8,0:0:0:0:
332,119,55415,1,2,0:0:0:0:
228,12,55585,2,0,L|66:27,1,135,2|0,1:0|0:0,0:0:0:0:
93,24,55924,1,8,0:0:0:0:
249,114,56093,1,2,0:0:0:0:
105,210,56263,6,0,B|83:164|83:164|101:103,1,90,6|2,1:0|0:0,0:0:0:0:
237,238,56602,2,0,L|224:378,1,135,8|0,0:0|0:0,0:0:0:0:
224,372,56941,1,2,1:0:0:0:
138,299,57110,1,0,1:0:0:0:
325,254,57280,2,0,L|222:235,1,90,8|2,0:0|0:0,0:0:0:0:
377,364,57619,6,0,B|461:340|461:340|521:364,1,135,6|0,1:0|0:0,0:0:0:0:
505,357,57958,2,0,L|489:254,1,90,8|2,0:0|0:0,0:0:0:0:
338,165,58297,2,0,L|324:253,1,90,2|0,1:0|1:0,0:0:0:0:
464,136,58636,1,8,0:0:0:0:
380,46,58805,1,2,0:0:0:0:
248,176,58975,6,0,L|366:161,1,90,2|0,1:0|1:0,0:0:0:0:
191,47,59314,2,0,L|73:32,1,90,12|2,0:0|0:0,0:0:0:0:
169,195,59653,5,0,1:0:0:0:
101,35,59822,1,8,0:0:0:0:
55,242,59992,1,8,0:0:0:0:
191,47,60161,1,8,0:0:0:0:
55,242,60331,6,0,B|33:195|33:195|48:154,1,90,6|2,1:0|0:0,0:0:0:0:
174,292,60670,2,0,L|334:275,1,135,8|0,0:0|0:0,0:0:0:0:
308,277,61008,1,2,1:0:0:0:
248,176,61178,1,0,1:0:0:0:
430,276,61347,1,8,0:0:0:0:
481,165,61517,1,2,0:0:0:0:
430,358,61686,6,0,B|447:312|447:312|425:267,1,90,2|2,1:0|0:0,0:0:0:0:
248,176,62025,2,0,L|408:159,1,135,8|0,0:0|0:0,0:0:0:0:
382,161,62363,1,2,1:0:0:0:
324,49,62534,1,0,1:0:0:0:
173,129,62703,2,0,P|157:180|181:229,1,90,8|2,0:0|0:0,0:0:0:0:
241,375,63042,6,0,B|279:334|279:334|274:283|216:249,1,135,6|0,1:0|0:0,0:0:0:0:
240,266,63381,2,0,P|283:277|325:261,1,90,8|2,0:0|0:0,0:0:0:0:
173,129,63720,1,2,1:0:0:0:
240,266,63890,1,0,1:0:0:0:
324,49,64059,1,8,0:0:0:0:
282,158,64229,1,2,0:0:0:0:
146,34,64398,6,0,B|100:18|100:18|47:39,1,90,2|0,1:0|1:0,0:0:0:0:
5,198,64737,2,0,L|27:304,1,90,8|2,0:0|0:0,0:0:0:0:
173,129,65076,1,2,1:0:0:0:
116,321,65246,1,0,1:0:0:0:
79,116,65415,1,8,0:0:0:0:
240,266,65585,1,8,0:0:0:0:
324,49,65754,6,0,L|217:61,1,90,6|2,1:0|0:0,0:0:0:0:
375,149,66093,2,0,L|514:164,1,135,8|0,0:0|0:0,0:0:0:0:
509,164,66432,1,2,1:0:0:0:
434,51,66602,1,0,1:0:0:0:
438,256,66771,1,8,0:0:0:0:
375,149,66941,1,2,0:0:0:0:
240,266,67110,6,0,B|287:280|287:280|355:255,1,90,6|2,1:0|0:0,0:0:0:0:
173,129,67449,2,0,L|33:144,1,135,8|0,0:0|0:0,0:0:0:0:
38,144,67788,1,2,1:0:0:0:
138,227,67958,1,0,1:0:0:0:
243,80,68127,2,0,P|260:127|243:174,1,90,8|2,0:0|0:0,0:0:0:0:
131,356,68466,6,0,B|96:267|163:300|131:205,1,135,6|0,1:0|0:0,0:0:0:0:
137,226,68805,2,0,L|11:240,1,90,8|2,0:0|0:0,0:0:0:0:
230,323,69144,2,0,L|355:337,1,90,2|0,1:0|1:0,0:0:0:0:
395,160,69483,1,8,0:0:0:0:
319,333,69653,1,2,0:0:0:0:
150,136,69822,6,0,L|134:236,1,90,2|0,1:0|1:0,0:0:0:0:
280,112,70161,2,0,L|265:23,1,90,8|2,0:0|0:0,0:0:0:0:
106,131,70500,6,0,L|162:138,3,45,12|8|8|8,0:0|0:0|0:0|0:0,0:0:0:0:
262,210,70839,2,0,L|218:216,1,45,8|8,0:0|0:0,0:0:0:0:
280,112,71008,2,0,L|324:117,1,45,8|8,0:0|0:0,0:0:0:0:
370,247,71178,5,6,1:0:0:0:
370,247,71517,2,0,L|470:232,1,80.9999975280763,8|2,0:0|0:0,0:0:0:0:
335,337,71856,1,0,1:0:0:0:
254,325,72025,2,0,L|343:338,1,80.9999975280763,2|8,0:0|0:0,0:0:0:0:
181,222,72364,6,0,L|281:207,1,80.9999975280763,2|2,0:0|1:0,0:0:0:0:
159,314,72703,1,2,0:0:0:0:
261,209,72873,1,8,0:0:0:0:
145,160,73042,2,0,B|194:241|104:223|165:326,1,161.999995056153,2|2,0:0|0:0,0:0:0:0:
63,193,73551,2,0,P|58:132|87:98,1,80.9999975280763,8|2,0:0|0:0,0:0:0:0:
207,55,73890,5,2,1:0:0:0:
207,55,74229,2,0,L|295:65,1,80.9999975280763,8|2,0:0|0:0,0:0:0:0:
145,160,74568,1,0,1:0:0:0:
225,150,74737,2,0,L|137:160,1,80.9999975280763,2|8,0:0|0:0,0:0:0:0:
249,243,75076,6,0,L|337:253,1,80.9999975280763,2|2,0:0|1:0,0:0:0:0:
392,151,75415,1,2,0:0:0:0:
415,314,75585,1,8,0:0:0:0:
500,276,75754,2,0,B|458:254|451:209|451:209|486:172|463:113,1,161.999995056153,2|2,0:0|0:0,0:0:0:0:
346,32,76263,1,8,0:0:0:0:
470,139,76432,1,8,0:0:0:0:
329,252,76602,5,6,1:0:0:0:
329,252,76941,2,0,L|249:243,1,80.9999975280763,8|2,0:0|0:0,0:0:0:0:
192,359,77280,1,2,1:0:0:0:
112,369,77449,2,0,L|192:359,1,80.9999975280763,2|8,0:0|0:0,0:0:0:0:
102,240,77788,1,2,0:0:0:0:
215,152,77958,6,0,B|174:138|174:138|133:156,1,80.9999975280763,6|2,1:0|0:0,0:0:0:0:
16,224,78297,1,8,0:0:0:0:
88,79,78466,2,0,L|103:246,1,161.999995056153,2|2,0:0|0:0,0:0:0:0:
192,359,78975,2,0,L|199:278,1,80.9999975280763,8|2,0:0|0:0,0:0:0:0:
386,291,79314,6,0,B|344:306|344:306|298:287,1,80.9999975280763,6|2,1:0|0:0,0:0:0:0:
274,121,79653,2,0,B|288:162|288:162|269:209,1,80.9999975280763,8|2,0:0|0:0,0:0:0:0:
146,332,79992,2,0,B|165:291|165:291|211:272,1,80.9999975280763,2|2,1:0|0:0,0:0:0:0:
311,378,80331,1,8,0:0:0:0:
198,277,80500,1,2,0:0:0:0:
354,131,80670,6,0,L|260:119,1,80.9999975280763,6|8,1:0|0:0,0:0:0:0:
411,17,81008,1,8,0:0:0:0:
457,233,81178,1,8,0:0:0:0:
509,64,81347,1,6,1:0:0:0:
358,171,81517,2,0,L|352:121,2,40.4999987640381,8|8|8,0:0|0:0|0:0,0:0:0:0:
445,309,81856,1,8,0:0:0:0:
452,268,81941,1,8,0:0:0:0:
457,233,82025,5,12,0:0:0:0:
256,192,82110,12,8,84398,0:2:0:0:
49,305,84737,5,6,0:0:0:0:
127,233,84907,1,2,0:0:0:0:
211,276,85076,2,0,L|223:363,1,80.9999975280763,8|0,0:0|1:0,0:0:0:0:
337,221,85415,1,2,0:0:0:0:
235,162,85585,1,0,1:0:0:0:
325,301,85754,2,0,L|336:220,1,80.9999975280763,8|2,0:0|0:0,0:0:0:0:
482,146,86093,5,2,1:0:0:0:
435,239,86263,1,0,1:0:0:0:
349,113,86432,1,8,0:0:0:0:
235,162,86602,2,0,B|259:134|259:134|266:90|229:57,1,121.499996292114,0|0,1:0|0:0,0:0:0:0:
230,58,86941,1,0,1:0:0:0:
145,185,87110,1,12,0:0:0:0:
48,29,87280,1,2,0:0:0:0:
63,235,87449,5,6,1:0:0:0:
0,108,87618,1,2,0:0:0:0:
82,148,87788,2,0,B|101:202|63:235|63:235|48:282|97:322,1,161.999995056153,8|2,0:0|0:0,0:0:0:0:
161,372,88297,1,0,1:0:0:0:
221,191,88466,1,8,0:0:0:0:
270,300,88636,1,2,0:0:0:0:
145,185,88805,6,0,B|186:201|186:201|252:183,1,80.9999975280763,6|0,1:0|1:0,0:0:0:0:
304,84,89144,1,8,0:0:0:0:
342,178,89314,2,0,B|408:146|399:212|473:173,1,121.499996292114,0|0,1:0|0:0,0:0:0:0:
458,179,89653,1,0,1:0:0:0:
379,18,89822,1,8,0:0:0:0:
464,71,89992,1,2,0:0:0:0:
372,255,90161,5,6,1:0:0:0:
304,84,90331,1,2,0:0:0:0:
287,236,90500,2,0,B|322:134|322:134|294:56,1,161.999995056153,8|2,0:0|0:0,0:0:0:0:
202,164,91008,1,0,1:0:0:0:
129,11,91178,1,8,0:0:0:0:
87,127,91347,1,2,0:0:0:0:
303,83,91517,6,0,L|246:76,2,40.4999987640381,6|8|8,1:0|0:0|0:0,0:0:0:0:
377,35,91771,1,8,0:0:0:0:
388,43,91856,1,8,0:0:0:0:
446,138,92025,1,8,0:0:0:0:
442,153,92110,1,8,0:0:0:0:
437,169,92195,1,2,1:0:0:0:
344,219,92364,1,8,0:0:0:0:
348,234,92449,1,8,0:0:0:0:
353,250,92534,1,8,0:0:0:0:
357,267,92619,1,8,0:0:0:0:
361,282,92704,1,8,0:0:0:0:
366,298,92789,1,8,0:0:0:0:
370,312,92873,6,0,L|235:295,1,121.499996292114,6|0,1:0|0:0,0:0:0:0:
249,296,93212,2,0,B|265:343|265:343|246:387,1,80.9999975280763,8|0,0:0|1:0,0:0:0:0:
150,249,93551,1,2,0:0:0:0:
86,359,93720,1,0,1:0:0:0:
5,183,93890,2,0,L|92:173,1,80.9999975280763,8|0,0:0|0:0,0:0:0:0:
147,107,94144,1,0,1:0:0:0:
147,107,94229,6,0,L|227:116,1,80.9999975280763,2|0,1:0|1:0,0:0:0:0:
349,241,94568,1,8,0:0:0:0:
428,142,94737,2,0,B|398:214|459:191|426:280,1,121.499996292114,2|0,1:0|0:0,0:0:0:0:
432,258,95076,1,0,1:0:0:0:
332,125,95246,1,12,0:0:0:0:
212,235,95415,1,0,0:0:0:0:
219,244,95500,1,0,1:0:0:0:
228,254,95585,6,0,L|348:240,1,121.499996292114,6|0,1:0|0:0,0:0:0:0:
348,240,95924,2,0,B|335:282|335:282|357:340,1,80.9999975280763,8|0,0:0|1:0,0:0:0:0:
510,366,96263,1,2,0:0:0:0:
348,316,96432,1,0,1:0:0:0:
508,153,96602,2,0,L|427:141,1,80.9999975280763,8|0,0:0|0:0,0:0:0:0:
354,84,96856,1,0,1:0:0:0:
354,84,96941,6,0,L|273:95,1,80.9999975280763,2|0,1:0|1:0,0:0:0:0:
189,230,97280,1,8,0:0:0:0:
95,67,97449,2,0,B|119:139|119:139|87:194,1,121.499996292114,2|0,1:0|0:0,0:0:0:0:
96,178,97788,1,0,1:0:0:0:
203,36,97958,1,12,0:0:0:0:
283,213,98127,1,0,0:0:0:0:
283,213,98212,1,0,1:0:0:0:
283,213,98297,6,0,B|349:174|347:245|421:195,1,121.499996292114,6|0,1:0|0:0,0:0:0:0:
399,207,98636,2,0,B|385:248|385:248|403:300,1,80.9999975280763,8|0,0:0|1:0,0:0:0:0:
506,130,98975,1,2,0:0:0:0:
485,293,99144,1,0,1:0:0:0:
418,110,99314,2,0,L|314:122,1,80.9999975280763,8|0,0:0|1:0,0:0:0:0:
283,213,99568,1,0,1:0:0:0:
283,213,99653,6,0,L|202:203,1,80.9999975280763,6|0,1:0|1:0,0:0:0:0:
97,334,99992,1,8,0:0:0:0:
18,249,100161,2,0,B|-7:204|2:180|2:180|31:159|32:118,1,121.499996292114,2|0,1:0|0:0,0:0:0:0:
28,140,100500,1,0,1:0:0:0:
151,274,100670,1,8,0:0:0:0:
229,127,100839,1,0,0:0:0:0:
229,127,100924,1,0,1:0:0:0:
229,127,101008,6,0,L|210:32,1,80.9999975280763,6|2,1:0|0:0,0:0:0:0:
358,190,101347,2,0,L|342:269,1,80.9999975280763,8|0,0:0|1:0,0:0:0:0:
229,127,101686,1,2,0:0:0:0:
360,61,101856,1,0,1:0:0:0:
437,204,102025,2,0,L|349:188,1,80.9999975280763,8|0,0:0|0:0,0:0:0:0:
264,250,102280,1,0,1:0:0:0:
264,250,102364,6,0,L|224:257,3,40.4999987640381,12|8|8|8,0:0|0:0|0:0|0:0,0:0:0:0:
182,334,102703,1,8,0:0:0:0:
43,249,102873,1,0,1:0:0:0:
48,259,102958,1,8,0:0:0:0:
54,267,103042,2,0,L|93:259,1,40.4999987640381,8|8,0:0|0:0,0:0:0:0:
185,181,103212,2,0,L|145:173,1,40.4999987640381,8|8,0:0|0:0,0:0:0:0:
35,108,103381,2,0,L|74:100,1,40.4999987640381,8|8,0:0|0:0,0:0:0:0:
166,22,103551,2,0,L|126:14,1,40.4999987640381,8|8,0:0|0:0,0:0:0:0:
242,100,103720,6,0,B|312:123|312:123|377:90,1,121.499996292114,6|0,1:0|0:0,0:0:0:0:
354,101,104059,2,0,B|339:145|339:145|366:196,1,80.9999975280763,8|0,0:0|1:0,0:0:0:0:
489,270,104398,1,2,1:0:0:0:
446,86,104568,1,2,0:0:0:0:
372,311,104737,1,8,0:0:0:0:
512,153,104907,1,12,0:0:0:0:
