osu file format v14

[General]
AudioFilename: audio.mp3
AudioLeadIn: 0
PreviewTime:49388
Countdown: 0
SampleSet: Soft
StackLeniency: 0.4
Mode: 0
LetterboxInBreaks: 0
WidescreenStoryboard: 1

[Editor]
Bookmarks: 11507,22354,41337,82015,105575
DistanceSpacing: 2
BeatDivisor: 4
GridSize: 4
TimelineZoom: 1.6

[Metadata]
Title:QUESTION (Cut Ver.)
TitleUnicode:QUESTION (Cut Ver.)
Artist:3 Nen E Gumi Utatan
ArtistUnicode:3年E組うた担
Creator:Nevo
Version:Arc's Hard
Source:暗殺教室 第2期
Tags:assassination classroom anime japanese shira shiratoi -Mercury- Shiota 潮田 Fuchigami Mai 渕上 舞 Kaede カエデ Suzaki Aya 洲崎 綾 Akabane Karma Karuma 赤羽 Okamoto Nobuhiko 岡本 信彦 Yuuma 悠馬 Osaka Ryota Ryōta Ōsaka Ohsaka 逢坂 良太 Hiroto 陽斗 Asanuma Shintaro 浅沼 晋太郎 arc [arc] aakki Sip of Mercury Sip_of_Mercury pop Nagisa Kayano Isogai Maehara final season second 2nd Ansatsu Kyoushitsu Kyoshitsu jpop j-pop jrock j-rock rock
BeatmapID:2718239
BeatmapSetID:1266361

[Difficulty]
HPDrainRate:5
CircleSize:3.8
OverallDifficulty:6.5
ApproachRate:8
SliderMultiplier:1.7
SliderTickRate:1

[Events]
//Background and Video events
0,0,"48955615_p0.jpg",0,0
//Break Periods
//Storyboard Layer 0 (Background)
//Storyboard Layer 1 (Fail)
//Storyboard Layer 2 (Pass)
//Storyboard Layer 3 (Foreground)
//Storyboard Layer 4 (Overlay)
//Storyboard Sound Samples

[TimingPoints]
670,338.983050847458,4,2,50,40,1,0
670,-133.333333333333,4,2,50,40,0,0
6093,-111.111111111111,4,2,50,70,0,0
8212,-111.111111111111,4,2,50,5,0,0
8297,-111.111111111111,4,2,50,70,0,0
10924,-111.111111111111,4,2,50,5,0,0
11008,-111.111111111111,4,2,50,70,0,0
11093,-111.111111111111,4,2,50,5,0,0
11178,-111.111111111111,4,2,50,70,0,0
11263,-111.111111111111,4,2,50,5,0,0
11347,-111.111111111111,4,2,50,70,0,0
11432,-111.111111111111,4,2,50,5,0,0
11517,-99.9999999999999,4,2,50,70,0,0
13636,-99.9999999999999,4,2,50,5,0,0
13720,-99.9999999999999,4,2,50,70,0,0
16347,-99.9999999999999,4,2,50,5,0,0
16432,-99.9999999999999,4,2,50,70,0,0
16517,-99.9999999999999,4,2,50,5,0,0
16602,-99.9999999999999,4,2,50,70,0,0
16686,-99.9999999999999,4,2,50,5,0,0
16771,-99.9999999999999,4,2,50,70,0,0
16856,-99.9999999999999,4,2,50,5,0,0
16941,-99.9999999999999,4,2,50,70,0,0
19059,-99.9999999999999,4,2,50,5,0,0
19144,-99.9999999999999,4,2,50,70,0,0
21771,-99.9999999999999,4,2,50,5,0,0
21856,-99.9999999999999,4,2,50,70,0,0
21941,-99.9999999999999,4,2,50,5,0,0
22025,-99.9999999999999,4,2,50,70,0,0
22110,-99.9999999999999,4,2,50,5,0,0
22195,-99.9999999999999,4,2,50,70,0,0
22280,-99.9999999999999,4,2,50,5,0,0
22364,-99.9999999999999,4,2,50,50,0,0
29907,-99.9999999999999,4,2,50,5,0,0
29992,-99.9999999999999,4,2,50,50,0,0
30500,-99.9999999999999,4,2,50,70,0,0
33212,-111.111111111111,4,2,50,60,0,0
34144,-111.111111111111,4,2,50,5,0,0
34229,-111.111111111111,4,2,50,60,0,0
34822,-111.111111111111,4,2,50,5,0,0
34907,-111.111111111111,4,2,50,60,0,0
36856,-111.111111111111,4,2,50,5,0,0
36941,-111.111111111111,4,2,50,60,0,0
39568,-111.111111111111,4,2,50,5,0,0
39653,-111.111111111111,4,2,50,60,0,0
40754,-111.111111111111,4,2,50,5,0,0
40839,-111.111111111111,4,2,50,60,0,0
40924,-111.111111111111,4,2,50,5,0,0
41008,-111.111111111111,4,2,50,60,0,0
41093,-111.111111111111,4,2,50,5,0,0
41178,-111.111111111111,4,2,50,60,0,0
41263,-111.111111111111,4,2,50,5,0,0
41347,-133.333333333333,4,2,50,50,0,0
41771,-133.333333333333,4,2,50,5,0,0
41856,-133.333333333333,4,2,50,50,0,0
43127,-133.333333333333,4,2,50,5,0,0
43212,-133.333333333333,4,2,50,50,0,0
45839,-133.333333333333,4,2,50,5,0,0
45924,-133.333333333333,4,2,50,50,0,0
46771,-200,4,2,50,50,0,0
48127,-142.857142857143,4,2,50,60,0,0
48466,-111.111111111111,4,2,50,60,0,0
49483,-90.9090909090909,4,2,50,80,0,1
50076,-90.9090909090909,4,2,50,5,0,1
50161,-90.9090909090909,4,2,50,80,0,1
51432,-90.9090909090909,4,2,50,5,0,1
51517,-90.9090909090909,4,2,50,80,0,1
52449,-90.9090909090909,4,2,50,5,0,1
52534,-90.9090909090909,4,2,50,80,0,1
54822,-90.9090909090909,4,2,50,5,0,1
54907,-90.9090909090909,4,2,50,80,0,1
55839,-90.9090909090909,4,2,50,5,0,1
55924,-90.9090909090909,4,2,50,80,0,1
56856,-90.9090909090909,4,2,50,5,0,1
56941,-90.9090909090909,4,2,50,80,0,1
57873,-90.9090909090909,4,2,50,5,0,1
57958,-90.9090909090909,4,2,50,80,0,1
59653,-90.9090909090909,4,2,50,70,0,1
60331,-90.9090909090909,4,2,50,80,0,1
60924,-90.9090909090909,4,2,50,5,0,1
61008,-90.9090909090909,4,2,50,80,0,1
62280,-90.9090909090909,4,2,50,5,0,1
62364,-90.9090909090909,4,2,50,80,0,1
63297,-90.9090909090909,4,2,50,5,0,1
63381,-90.9090909090909,4,2,50,80,0,1
66347,-90.9090909090909,4,2,50,5,0,1
66432,-90.9090909090909,4,2,50,80,0,1
67703,-90.9090909090909,4,2,50,5,0,1
67788,-90.9090909090909,4,2,50,80,0,1
68720,-90.9090909090909,4,2,50,5,0,1
68805,-90.9090909090909,4,2,50,80,0,1
71178,-100,4,2,50,70,0,0
86856,-100,4,2,50,5,0,0
86941,-100,4,2,50,70,0,0
89568,-100,4,2,50,5,0,0
89653,-100,4,2,50,70,0,0
92873,-111.111111111111,4,2,50,70,0,0
93127,-111.111111111111,4,2,50,5,0,0
93212,-111.111111111111,4,2,50,70,0,0
94992,-111.111111111111,4,2,50,5,0,0
95076,-111.111111111111,4,2,50,70,0,0
95839,-111.111111111111,4,2,50,5,0,0
95924,-111.111111111111,4,2,50,70,0,0
97703,-111.111111111111,4,2,50,5,0,0
97788,-111.111111111111,4,2,50,70,0,0
98551,-111.111111111111,4,2,50,5,0,0
98636,-111.111111111111,4,2,50,70,0,0
100415,-111.111111111111,4,2,50,5,0,0
100500,-111.111111111111,4,2,50,70,0,0
103975,-111.111111111111,4,2,50,5,0,0
104059,-111.111111111111,4,2,50,70,0,0

[Colours]
Combo1 : 0,179,255
Combo2 : 9,132,255
Combo3 : 192,192,192

[HitObjects]
95,77,670,6,0,L|101:142,1,63.7500024318696,2|2,0:0|0:0,0:0:0:0:
180,184,1008,2,0,L|193:50,1,127.500004863739,2|0,0:0|0:0,0:0:0:0:
268,23,1517,6,0,B|303:20|303:20|344:39,1,63.7500024318696,2|2,0:0|0:0,0:0:0:0:
383,98,1856,1,2,0:0:0:0:
383,98,2025,2,0,B|414:108|414:108|446:102,1,63.7500024318696,2|2,0:0|0:0,0:0:0:0:
502,44,2364,5,2,0:0:0:0:
502,44,2534,2,0,L|484:187,1,127.500004863739,2|2,0:0|0:0,0:0:0:0:
422,246,3042,2,0,L|400:168,1,63.7500024318696,2|2,0:0|0:0,0:0:0:0:
497,295,3381,6,0,L|480:364,1,63.7500024318696,2|2,0:0|0:0,0:0:0:0:
387,370,3720,2,0,B|328:357|328:357|302:291,1,127.500004863739,2|0,0:0|0:0,0:0:0:0:
279,224,4229,6,0,L|212:240,1,63.7500024318696,2|2,0:0|0:0,0:0:0:0:
165,303,4568,1,2,0:0:0:0:
165,303,4737,2,0,L|91:283,1,63.7500024318696,2|2,0:0|0:0,0:0:0:0:
61,221,5076,5,2,0:0:0:0:
61,221,5246,2,0,B|74:174|74:174|50:84,1,127.500004863739,2|2,0:0|0:0,0:0:0:0:
153,45,5754,2,0,L|140:122,1,63.7500024318696,2|2,0:0|0:0,0:0:0:0:
212,179,6093,5,6,1:0:0:0:
346,82,6432,2,0,L|355:170,1,76.4999976654053,8|0,0:0|1:0,0:0:0:0:
314,238,6771,2,0,L|327:141,1,76.4999976654053,2|0,0:0|1:0,0:0:0:0:
427,232,7110,1,8,0:0:0:0:
427,232,7449,5,2,1:0:0:0:
324,328,7788,1,8,0:0:0:0:
324,328,7958,2,0,B|379:318|379:318|422:336|422:336|496:327,1,152.999995330811,2|0,1:2|1:0,0:0:0:0:
512,253,8466,2,0,L|504:171,1,76.4999976654053,8|2,0:0|0:0,0:0:0:0:
490,81,8805,5,2,1:0:0:0:
356,151,9144,2,0,L|367:53,1,76.4999976654053,8|0,0:0|1:0,0:0:0:0:
377,0,9483,2,0,L|392:104,1,76.4999976654053,2|0,0:0|1:0,0:0:0:0:
258,114,9822,1,8,0:0:0:0:
258,114,10161,5,2,1:0:0:0:
139,32,10500,1,8,0:0:0:0:
139,32,10670,2,0,B|155:131|155:131|142:186,1,152.999995330811,2|8,1:2|0:0,0:0:0:0:
81,249,11178,1,8,0:0:0:0:
105,333,11347,1,8,0:0:0:0:
198,365,11517,6,0,B|227:377|273:355|272:332|275:299|318:282|360:300,1,170,6|8,1:0|0:0,0:0:0:0:
412,351,12025,1,0,1:0:0:0:
351,182,12364,1,0,1:0:0:0:
437,174,12534,2,0,L|419:267,1,85,8|2,0:0|0:0,0:0:0:0:
331,175,12873,6,0,L|319:78,1,85,2|2,1:0|0:0,0:0:0:0:
237,146,13212,1,8,0:0:0:0:
237,146,13381,2,0,P|169:170|97:105,1,170,2|0,1:2|1:0,0:0:0:0:
187,0,13890,2,0,L|178:93,1,85,12|2,0:0|0:0,0:0:0:0:
81,129,14229,6,0,P|95:201|100:313,1,170,6|8,1:0|0:0,0:0:0:0:
167,358,14737,1,0,1:0:0:0:
327,268,15076,1,0,1:0:0:0:
252,220,15246,2,0,L|237:335,1,85,8|2,0:0|0:0,0:0:0:0:
350,281,15585,6,0,P|391:255|406:202,1,85,2|2,1:0|0:0,0:0:0:0:
413,134,15924,1,8,0:0:0:0:
413,134,16093,2,0,P|376:84|259:78,1,170,2|10,1:2|0:0,0:0:0:0:
206,128,16602,1,8,0:0:0:0:
149,63,16771,1,8,0:0:0:0:
73,113,16941,6,0,B|106:225|106:225|93:285,1,170,6|8,1:0|0:0,0:0:0:0:
78,358,17449,2,0,L|169:376,1,85,0|2,1:0|0:0,0:0:0:0:
265,279,17788,2,0,L|175:293,1,85,0|8,1:0|0:0,0:0:0:0:
180,175,18127,5,2,0:0:0:0:
180,175,18297,2,0,P|226:103|320:118,1,170,6|8,1:0|0:0,0:0:0:0:
366,170,18805,2,0,P|419:176|452:152,1,85,2|0,1:2|0:0,0:0:0:0:
474,45,19144,1,0,1:0:0:0:
382,9,19314,2,0,L|395:105,1,85,8|2,0:0|0:0,0:0:0:0:
294,190,19653,6,0,L|307:77,1,85,6|2,1:0|0:0,0:0:0:0:
405,201,19992,2,0,L|415:300,1,85,8|0,0:0|1:0,0:0:0:0:
203,337,20500,5,0,1:0:0:0:
161,263,20670,2,0,P|205:252|248:268,1,85,8|2,0:0|0:0,0:0:0:0:
96,350,21008,2,0,P|49:360|16:338,1,85,2|0,1:0|1:0,0:0:0:0:
63,185,21347,1,8,0:0:0:0:
63,185,21517,2,0,L|71:286,1,85,2|0,0:0|0:0,0:0:0:0:
155,168,21856,5,8,0:0:0:0:
199,79,22025,1,8,0:0:0:0:
139,10,22195,1,8,0:0:0:0:
49,27,22364,1,6,1:0:0:0:
256,192,22449,12,2,23720,1:0:0:0:
285,198,24907,5,0,1:0:0:0:
285,198,25076,1,2,1:0:0:0:
387,292,26263,5,0,1:0:0:0:
387,292,26432,1,2,1:0:0:0:
480,114,27619,5,0,1:0:0:0:
501,189,27788,1,6,1:0:0:0:
347,26,28975,5,0,1:0:0:0:
347,26,29144,1,2,1:0:0:0:
294,262,29822,1,8,0:0:0:0:
244,168,29992,1,0,1:0:0:0:
244,168,30161,1,0,1:0:0:0:
202,234,30331,5,0,1:0:0:0:
202,234,30500,2,0,P|120:238|23:248,1,170,6|8,1:0|0:0,0:0:0:0:
32,246,31008,1,0,1:0:0:0:
199,359,31347,1,0,1:0:0:0:
199,359,31517,2,0,P|244:355|296:348,1,85,8|2,0:0|0:0,0:0:0:0:
371,305,31856,6,0,P|386:256|334:143,1,170,2|8,1:0|0:0,0:0:0:0:
343,150,32364,1,0,1:0:0:0:
457,58,32703,1,0,1:0:0:0:
457,58,32873,2,0,P|445:122|445:154,1,85,8|2,0:0|0:0,0:0:0:0:
502,213,33212,5,6,1:0:0:0:
363,77,33551,1,8,0:0:0:0:
363,77,33720,2,0,L|192:97,1,152.999995330811
211,94,34229,2,0,L|134:76,1,76.4999976654053,8|0,0:0|1:0,0:0:0:0:
117,2,34568,5,2,1:0:0:0:
159,164,34907,1,8,0:0:0:0:
159,164,35076,2,0,P|159:226|99:301,1,152.999995330811
29,319,35585,2,0,L|12:245,1,76.4999976654053,8|0,0:0|1:0,0:0:0:0:
89,374,35924,6,0,B|139:368|139:368|183:380|183:380|251:370,1,152.999995330811,2|8,1:0|0:0,0:0:0:0:
291,307,36432,2,0,B|341:281|362:313|383:351|453:309,1,152.999995330811
406,167,36941,2,0,P|401:208|402:257,1,76.4999976654053,8|0,0:0|1:0,0:0:0:0:
508,219,37280,5,2,1:0:0:0:
357,87,37619,1,8,0:0:0:0:
357,87,37788,2,0,L|512:62,1,152.999995330811
508,62,38297,1,8,0:0:0:0:
423,0,38466,5,0,1:0:0:0:
423,0,38636,2,0,P|402:55|439:149,1,152.999995330811,6|8,1:0|0:0,0:0:0:0:
472,210,39144,2,0,P|416:158|331:153,1,152.999995330811
306,222,39653,2,0,P|261:235|219:220,1,76.4999976654053,8|0,0:0|1:0,0:0:0:0:
172,174,39992,1,2,1:0:0:0:
209,325,40331,1,8,0:0:0:0:
89,191,40670,5,8,0:0:0:0:
115,113,40839,1,8,0:0:0:0:
194,96,41008,1,8,0:0:0:0:
255,147,41178,1,8,0:0:0:0:
334,116,41347,6,0,B|293:82|293:82|315:220,1,191.250007295609,6|0,1:0|1:0,0:0:0:0:
400,323,42025,2,0,L|424:189,1,127.500004863739,8|2,0:0|0:0,0:0:0:0:
422,197,42534,1,8,0:0:0:0:
508,262,42703,5,2,1:0:0:0:
508,262,42873,2,0,P|453:297|379:293,1,127.500004863739,8|0,0:0|1:0,0:0:0:0:
294,322,43381,2,0,B|299:262|299:262|272:191,1,127.500004863739,8|2,0:0|0:0,0:0:0:0:
275,199,43890,1,8,0:0:0:0:
224,282,44059,6,0,P|292:301|371:201,2,191.250007295609,6|0|0,1:0|1:0|0:0,0:0:0:0:
224,282,45246,1,8,0:0:0:0:
129,318,45415,5,2,1:0:0:0:
129,318,45585,2,0,L|109:183,1,127.500004863739,8|0,0:0|1:0,0:0:0:0:
143,116,46093,1,8,0:0:0:0:
68,22,46432,1,2,0:0:0:0:
249,8,46771,6,0,B|207:65|238:129|238:129|217:163|217:163|222:204|222:204|190:258,1,255,6|2,1:0|0:0,0:0:0:0:
368,95,48127,6,0,L|307:77,1,59.4999981842042,12|0,0:0|1:0,0:0:0:0:
357,182,48466,2,0,L|451:156,1,76.4999976654053,8|0,0:0|1:0,0:0:0:0:
322,266,48805,1,12,0:0:0:0:
252,229,48975,1,8,0:0:0:0:
306,350,49144,1,8,0:0:0:0:
388,324,49314,1,8,0:0:0:0:
478,350,49483,6,0,P|494:269|519:227,1,93.5000028533936,6|2,1:0|0:0,0:0:0:0:
512,161,49822,2,0,L|406:180,1,93.5000028533936,8|0,0:0|0:0,0:0:0:0:
332,226,50161,2,0,P|331:179|314:136,1,93.5000028533936,2|0,1:0|1:0,0:0:0:0:
219,115,50500,5,8,0:0:0:0:
219,115,50670,1,2,0:0:0:0:
236,28,50839,2,0,L|342:2,1,93.5000028533936,2|2,1:0|0:0,0:0:0:0:
140,97,51178,2,0,L|32:74,1,93.5000028533936,8|0,0:0|0:0,0:0:0:0:
1,171,51517,5,2,1:0:0:0:
1,171,51686,1,0,1:0:0:0:
51,244,51856,2,0,P|102:230|134:179,1,93.5000028533936,8|2,0:0|0:0,0:0:0:0:
141,97,52195,6,0,L|159:284,2,187.000005706787,6|8|2,1:0|0:0|1:0,0:0:0:0:
237,311,53212,5,8,0:0:0:0:
316,317,53381,1,2,0:0:0:0:
361,248,53551,2,0,L|341:129,1,93.5000028533936,2|2,1:0|0:0,0:0:0:0:
439,291,53890,2,0,L|422:399,1,93.5000028533936,8|2,0:0|0:0,0:0:0:0:
508,238,54229,1,2,1:0:0:0:
508,238,54398,1,0,1:0:0:0:
508,238,54568,2,0,P|495:176|489:87,1,140.25000428009,12|0,0:0|0:0,0:0:0:0:
508,84,54907,6,0,L|402:73,1,93.5000028533936,6|2,1:0|0:0,0:0:0:0:
299,54,55246,2,0,P|346:36|367:-13,1,93.5000028533936,8|2,0:0|0:0,0:0:0:0:
205,41,55585,2,0,P|224:99|236:165,1,93.5000028533936,2|0,1:0|0:0,0:0:0:0:
219,229,55924,5,8,0:0:0:0:
219,229,56093,1,2,0:0:0:0:
131,199,56263,2,0,L|26:222,1,93.5000028533936,6|2,1:0|0:0,0:0:0:0:
152,318,56602,2,0,L|261:337,1,93.5000028533936,8|0,0:0|0:0,0:0:0:0:
340,378,56941,5,2,1:0:0:0:
340,378,57110,1,0,1:0:0:0:
364,282,57280,2,0,P|359:228|359:182,1,93.5000028533936,8|2,0:0|0:0,0:0:0:0:
246,114,57619,6,0,P|244:162|236:221,1,93.5000028533936,6|0,1:0|0:0,0:0:0:0:
278,318,57958,2,0,P|315:298|370:279,1,93.5000028533936,8|2,0:0|0:0,0:0:0:0:
512,273,58297,2,0,P|464:248|417:215,1,93.5000028533936,2|0,1:0|1:0,0:0:0:0:
431,226,58636,5,8,0:0:0:0:
458,144,58805,1,2,0:0:0:0:
401,86,58975,2,0,L|413:-20,1,93.5000028533936,2|0,1:0|1:0,0:0:0:0:
323,113,59314,1,12,0:0:0:0:
323,113,59653,5,0,1:0:0:0:
266,181,59822,1,8,0:0:0:0:
180,155,59992,1,8,0:0:0:0:
162,71,60161,1,8,0:0:0:0:
245,11,60331,6,0,P|253:68|240:101,1,93.5000028533936,6|2,1:0|0:0,0:0:0:0:
149,160,60670,2,0,L|47:147,1,93.5000028533936,8|0,0:0|0:0,0:0:0:0:
47,275,61008,2,0,L|153:258,1,93.5000028533936,2|0,1:0|1:0,0:0:0:0:
234,290,61347,5,8,0:0:0:0:
234,290,61517,1,2,0:0:0:0:
334,245,61686,2,0,P|324:285|327:346,1,93.5000028533936,2|2,1:0|0:0,0:0:0:0:
437,264,62025,2,0,P|433:210|416:167,1,93.5000028533936,8|0,0:0|0:0,0:0:0:0:
300,256,62364,6,0,P|290:307|292:350,1,93.5000028533936,2|0,1:0|1:0,0:0:0:0:
405,361,62703,2,0,L|508:334,1,93.5000028533936,8|2,0:0|0:0,0:0:0:0:
474,198,63042,6,0,P|382:216|327:117,2,187.000005706787,6|8|2,1:0|0:0|1:0,0:0:0:0:
317,70,64059,5,8,0:0:0:0:
248,119,64229,1,2,0:0:0:0:
169,93,64398,2,0,L|175:-18,1,93.5000028533936,2|0,1:0|1:0,0:0:0:0:
111,150,64737,2,0,L|131:245,1,93.5000028533936,8|2,0:0|0:0,0:0:0:0:
75,300,65076,5,2,1:0:0:0:
130,241,65246,1,0,1:0:0:0:
210,268,65415,1,8,0:0:0:0:
232,351,65585,1,8,0:0:0:0:
318,365,65754,6,0,P|335:312|339:257,1,93.5000028533936,6|2,1:0|0:0,0:0:0:0:
223,174,66093,2,0,L|237:278,1,93.5000028533936,8|0,0:0|0:0,0:0:0:0:
403,202,66432,2,0,P|370:181|317:179,1,93.5000028533936,2|0,1:0|1:0,0:0:0:0:
273,94,66771,5,8,0:0:0:0:
273,94,66941,1,2,0:0:0:0:
195,34,67110,2,0,L|94:56,1,93.5000028533936,6|2,1:0|0:0,0:0:0:0:
0,149,67449,2,0,P|52:156|103:169,1,93.5000028533936,8|0,0:0|0:0,0:0:0:0:
150,237,67788,5,2,1:0:0:0:
150,237,67958,1,0,1:0:0:0:
236,196,68127,2,0,L|335:178,1,93.5000028533936,8|2,0:0|0:0,0:0:0:0:
297,287,68466,6,0,P|298:343|280:384,1,93.5000028533936,6|0,1:0|0:0,0:0:0:0:
163,327,68805,2,0,P|147:277|150:232,1,93.5000028533936,8|2,0:0|0:0,0:0:0:0:
186,122,69144,2,0,P|198:66|190:23,1,93.5000028533936,2|0,1:0|1:0,0:0:0:0:
192,30,69483,5,8,0:0:0:0:
277,67,69653,1,2,0:0:0:0:
341,7,69822,2,0,L|441:-1,1,93.5000028533936,2|0,1:0|1:0,0:0:0:0:
472,113,70161,2,0,L|374:100,1,93.5000028533936,8|2,0:0|0:0,0:0:0:0:
313,210,70500,6,0,L|411:199,1,93.5000028533936,12|8,0:0|0:0,0:0:0:0:
441,204,70754,1,8,0:0:0:0:
441,204,70839,2,0,L|428:249,3,46.7500014266968,8|8|8|8,0:0|0:0|0:0|0:0,0:0:0:0:
410,267,71178,6,0,P|399:320|416:362,1,85,6|0,1:0|0:0,0:0:0:0:
497,375,71517,2,0,L|317:350,1,170,8|0,0:0|1:0,0:0:0:0:
223,363,72025,6,0,P|234:314|217:270,1,85,2|8,0:0|0:0,0:0:0:0:
148,239,72364,1,2,0:0:0:0:
16,368,72873,5,8,0:0:0:0:
16,368,73042,2,0,L|-2:186,1,170,2|2,0:0|0:0,0:0:0:0:
96,143,73551,2,0,L|85:232,1,85,8|2,0:0|0:0,0:0:0:0:
149,278,73890,6,0,P|190:279|225:255,1,85,2|0,1:0|0:0,0:0:0:0:
292,192,74229,2,0,L|318:359,1,170,8|0,0:0|1:0,0:0:0:0:
467,342,74737,6,0,P|431:317|376:320,1,85,2|8,0:0|0:0,0:0:0:0:
309,374,75076,1,2,0:0:0:0:
470,228,75585,5,8,0:0:0:0:
470,228,75754,2,0,P|469:157|482:52,1,170,2|2,0:0|0:0,0:0:0:0:
408,16,76263,1,8,0:0:0:0:
334,47,76432,1,8,0:0:0:0:
255,13,76602,6,0,P|199:8|163:24,1,85,6|0,1:0|0:0,0:0:0:0:
129,97,76941,2,0,P|147:153|162:269,1,170,8|2,0:0|1:0,0:0:0:0:
0,247,77449,6,0,P|34:223|76:222,1,85,2|8,0:0|0:0,0:0:0:0:
69,322,77788,1,2,0:0:0:0:
69,322,77958,2,0,L|13:139,1,170,6|8,1:0|0:0,0:0:0:0:
124,45,78466,6,0,L|103:164,1,85,2|0,0:0|0:0,0:0:0:0:
183,187,78805,1,2,0:0:0:0:
183,187,78975,2,0,P|241:190|284:162,1,85,8|2,0:0|0:0,0:0:0:0:
399,100,79314,6,0,P|351:87|302:103,1,85,6|2,1:0|0:0,0:0:0:0:
279,192,79653,2,0,P|292:241|294:287,1,85,8|2,0:0|0:0,0:0:0:0:
176,355,79992,1,2,1:0:0:0:
176,355,80331,2,0,L|184:261,1,85,8|2,0:0|0:0,0:0:0:0:
294,275,80670,5,6,1:0:0:0:
370,330,80839,1,8,0:0:0:0:
449,282,81008,1,8,0:0:0:0:
442,187,81178,1,8,0:0:0:0:
363,148,81347,2,0,P|353:102|367:54,1,85,6|8,1:0|0:0,0:0:0:0:
381,46,81602,1,8,0:0:0:0:
381,46,81686,2,0,L|435:57,3,42.5,8|8|8|8,0:0|0:0|0:0|0:0,0:0:0:0:
462,37,82025,5,12,0:0:0:0:
256,192,82110,12,8,84398,0:2:0:0:
93,367,84737,6,0,P|155:312|243:340,1,170,6|8,0:0|0:0,0:0:0:0:
329,337,85246,1,0,1:0:0:0:
329,337,85415,2,0,L|310:239,1,85,2|0,0:0|1:0,0:0:0:0:
428,187,85754,2,0,L|412:277,1,85,8|2,0:0|0:0,0:0:0:0:
335,155,86093,6,0,P|286:149|209:238,1,170,2|8,1:0|0:0,0:0:0:0:
187,325,86602,2,0,B|78:301|78:301|35:243,1,170,0|0,1:0|1:0,0:0:0:0:
114,191,87110,1,12,0:0:0:0:
31,6,87449,6,0,B|51:28|55:69|41:86|10:97|0:141|44:183,1,170,6|8,1:0|0:0,0:0:0:0:
131,188,87958,1,0,1:0:0:0:
264,80,88297,1,0,1:0:0:0:
189,38,88466,2,0,L|180:146,1,85,8|2,0:0|0:0,0:0:0:0:
262,246,88805,6,0,L|253:157,1,85,6|0,1:0|1:0,0:0:0:0:
363,198,89144,1,8,0:0:0:0:
363,198,89314,2,0,B|354:253|354:253|366:297|366:297|356:375,1,170,0|0,1:0|1:0,0:0:0:0:
468,374,89822,2,0,L|453:286,1,85,8|2,0:0|0:0,0:0:0:0:
491,205,90161,6,0,P|472:154|517:48,1,170,6|8,1:0|0:0,0:0:0:0:
512,51,90670,1,0,1:0:0:0:
338,109,91008,1,0,1:0:0:0:
319,23,91178,2,0,L|427:48,1,85,8|2,0:0|0:0,0:0:0:0:
330,126,91517,6,0,L|227:152,1,85,6|8,1:0|0:0,0:0:0:0:
245,170,91771,1,8,0:0:0:0:
245,170,91856,1,8,0:0:0:0:
158,121,92025,2,0,L|146:76,2,42.5,8|8|2,0:0|0:0|1:0,0:0:0:0:
106,196,92364,1,8,0:0:0:0:
106,196,92449,1,8,0:0:0:0:
106,196,92534,2,0,L|93:243,3,42.5,8|8|8|8,0:0|0:0|0:0|0:0,0:0:0:0:
114,262,92873,6,0,P|159:299|113:386,1,152.999995330811,6|8,1:0|0:0,0:0:0:0:
131,378,93381,2,0,P|218:362|302:362,1,152.999995330811,0|0,1:0|1:0,0:0:0:0:
358,383,93890,1,8,0:0:0:0:
314,195,94229,6,0,L|304:281,1,76.4999976654053,2|0,1:0|1:0,0:0:0:0:
412,246,94568,1,8,0:0:0:0:
412,246,94737,2,0,L|401:85,1,152.999995330811,2|0,1:0|1:0,0:0:0:0:
401,93,95246,2,0,L|413:12,1,76.4999976654053,12|0,0:0|0:0,0:0:0:0:
321,26,95585,6,0,P|252:57|192:-20,1,152.999995330811,6|8,1:0|0:0,0:0:0:0:
196,13,96093,1,0,1:0:0:0:
103,122,96432,1,0,1:0:0:0:
103,122,96602,1,8,0:0:0:0:
207,237,96941,6,0,P|212:186|201:143,1,76.4999976654053,2|0,1:0|1:0,0:0:0:0:
95,225,97280,1,8,0:0:0:0:
95,225,97449,2,0,P|89:274|114:381,1,152.999995330811,2|0,1:0|1:0,0:0:0:0:
110,374,97958,2,0,L|214:357,1,76.4999976654053,12|0,0:0|0:0,0:0:0:0:
259,309,98297,6,0,B|294:292|325:300|333:323|349:344|387:349|416:328,1,152.999995330811,6|8,1:0|0:0,0:0:0:0:
400,335,98805,1,0,1:0:0:0:
468,215,99144,1,0,1:0:0:0:
468,215,99314,2,0,L|476:109,1,76.4999976654053,8|0,0:0|1:0,0:0:0:0:
367,101,99653,6,0,L|382:266,1,152.999995330811,6|8,1:0|0:0,0:0:0:0:
296,243,100161,1,2,1:0:0:0:
223,114,100500,1,0,1:0:0:0:
223,114,100670,2,0,P|238:64|272:36,1,76.4999976654053,8|0,0:0|0:0,0:0:0:0:
332,10,101008,6,0,P|377:50|491:41,1,152.999995330811,6|8,1:0|0:0,0:0:0:0:
466,53,101517,2,0,L|453:219,1,152.999995330811,0|0,1:0|1:0,0:0:0:0:
397,260,102025,2,0,L|412:337,1,76.4999976654053,8|0,0:0|0:0,0:0:0:0:
412,334,102364,5,12,0:0:0:0:
336,375,102534,1,8,0:0:0:0:
272,311,102703,1,8,0:0:0:0:
299,228,102873,1,0,1:0:0:0:
299,228,102958,1,8,0:0:0:0:
299,228,103042,2,0,L|304:180,3,38.2499988327027,8|8|8|8,0:0|0:0|0:0|0:0,0:0:0:0:
263,160,103381,2,0,L|253:115,3,38.2499988327027,8|8|8|8,0:0|0:0|0:0|0:0,0:0:0:0:
245,92,103720,5,6,1:0:0:0:
117,215,104059,1,8,0:0:0:0:
81,48,104398,1,2,1:0:0:0:
81,48,104483,1,2,1:0:0:0:
81,48,104568,1,2,0:0:0:0:
146,115,104737,5,8,0:0:0:0:
146,115,104907,1,12,0:0:0:0:
