osu file format v14

[General]
AudioFilename: audio.mp3
AudioLeadIn: 0
PreviewTime:49388
Countdown: 0
SampleSet: Soft
StackLeniency: 0.7
Mode: 0
LetterboxInBreaks: 0
WidescreenStoryboard: 1

[Editor]
Bookmarks: 76592,87439
DistanceSpacing: 1
BeatDivisor: 4
GridSize: 4
TimelineZoom: 1.9

[Metadata]
Title:QUESTION (Cut Ver.)
TitleUnicode:QUESTION (Cut Ver.)
Artist:3 Nen E Gumi Utatan
ArtistUnicode:3年E組うた担
Creator:Nevo
Version:Aakki's Another
Source:暗殺教室 第2期
Tags:assassination classroom anime japanese shira shiratoi -Mercury- Shiota 潮田 Fuchigami Mai 渕上 舞 Kaede カエデ Suzaki Aya 洲崎 綾 Akabane Karma Karuma 赤羽 Okamoto Nobuhiko 岡本 信彦 Yuuma 悠馬 Osaka Ryota Ryōta Ōsaka Ohsaka 逢坂 良太 Hiroto 陽斗 Asanuma Shintaro 浅沼 晋太郎 arc [arc] aakki Sip of Mercury Sip_of_Mercury pop Nagisa Kayano Isogai Maehara final season second 2nd Ansatsu Kyoushitsu Kyoshitsu jpop j-pop jrock j-rock rock
BeatmapID:2718238
BeatmapSetID:1266361

[Difficulty]
HPDrainRate:5.4
CircleSize:3.8
OverallDifficulty:8.4
ApproachRate:9
SliderMultiplier:1.7
SliderTickRate:1

[Events]
//Background and Video events
0,0,"48955615_p0.jpg",0,0
//Break Periods
//Storyboard Layer 0 (Background)
//Storyboard Layer 1 (Fail)
//Storyboard Layer 2 (Pass)
//Storyboard Layer 3 (Foreground)
//Storyboard Layer 4 (Overlay)
//Storyboard Sound Samples

[TimingPoints]
670,338.983050847458,4,2,50,40,1,0
670,-133.333333333333,4,2,50,40,0,0
6093,-100,4,2,50,70,0,0
8212,-100,4,2,50,5,0,0
8297,-100,4,2,50,70,0,0
10924,-100,4,2,50,5,0,0
11008,-100,4,2,50,70,0,0
11093,-100,4,2,50,5,0,0
11178,-100,4,2,50,70,0,0
11263,-100,4,2,50,5,0,0
11347,-100,4,2,50,70,0,0
11432,-100,4,2,50,5,0,0
11517,-100,4,2,50,70,0,0
13636,-100,4,2,50,5,0,0
13720,-100,4,2,50,70,0,0
16347,-100,4,2,50,5,0,0
16432,-100,4,2,50,70,0,0
16517,-100,4,2,50,5,0,0
16602,-100,4,2,50,70,0,0
16686,-100,4,2,50,5,0,0
16771,-100,4,2,50,70,0,0
16856,-100,4,2,50,5,0,0
16941,-100,4,2,50,70,0,0
19059,-100,4,2,50,5,0,0
19144,-100,4,2,50,70,0,0
21771,-100,4,2,50,5,0,0
21856,-100,4,2,50,70,0,0
21941,-100,4,2,50,5,0,0
22025,-100,4,2,50,70,0,0
22110,-100,4,2,50,5,0,0
22195,-100,4,2,50,70,0,0
22280,-100,4,2,50,5,0,0
22364,-133.333333333333,4,2,50,50,0,0
29907,-133.333333333333,4,2,50,5,0,0
29992,-133.333333333333,4,2,50,50,0,0
30500,-100,4,2,50,70,0,0
33212,-133.333333333333,4,2,50,60,0,0
34144,-133.333333333333,4,2,50,5,0,0
34229,-133.333333333333,4,2,50,60,0,0
34822,-133.333333333333,4,2,50,5,0,0
34907,-133.333333333333,4,2,50,60,0,0
36856,-133.333333333333,4,2,50,5,0,0
36941,-133.333333333333,4,2,50,60,0,0
39568,-133.333333333333,4,2,50,5,0,0
39653,-133.333333333333,4,2,50,60,0,0
40754,-133.333333333333,4,2,50,5,0,0
40839,-133.333333333333,4,2,50,60,0,0
40924,-133.333333333333,4,2,50,5,0,0
41008,-133.333333333333,4,2,50,60,0,0
41093,-133.333333333333,4,2,50,5,0,0
41178,-133.333333333333,4,2,50,60,0,0
41263,-133.333333333333,4,2,50,5,0,0
41347,-133.333333333333,4,2,50,50,0,0
41771,-133.333333333333,4,2,50,5,0,0
41856,-133.333333333333,4,2,50,50,0,0
43127,-133.333333333333,4,2,50,5,0,0
43212,-133.333333333333,4,2,50,50,0,0
45839,-133.333333333333,4,2,50,5,0,0
45924,-133.333333333333,4,2,50,50,0,0
46771,-181.818181818181,4,2,50,50,0,0
48127,-181.818181818181,4,2,50,60,0,0
48466,-133.333333333333,4,2,50,60,0,0
49483,-83.3333333333333,4,2,50,80,0,1
50076,-83.3333333333333,4,2,50,5,0,1
50161,-83.3333333333333,4,2,50,80,0,1
51432,-83.3333333333333,4,2,50,5,0,1
51517,-83.3333333333333,4,2,50,80,0,1
52449,-83.3333333333333,4,2,50,5,0,1
52534,-83.3333333333333,4,2,50,80,0,1
54822,-83.3333333333333,4,2,50,5,0,1
54907,-83.3333333333333,4,2,50,80,0,1
55839,-83.3333333333333,4,2,50,5,0,1
55924,-83.3333333333333,4,2,50,80,0,1
56856,-83.3333333333333,4,2,50,5,0,1
56941,-83.3333333333333,4,2,50,80,0,1
57873,-83.3333333333333,4,2,50,5,0,1
57958,-83.3333333333333,4,2,50,80,0,1
59653,-83.3333333333333,4,2,50,70,0,1
60331,-83.3333333333333,4,2,50,80,0,1
60924,-83.3333333333333,4,2,50,5,0,1
61008,-83.3333333333333,4,2,50,80,0,1
62280,-83.3333333333333,4,2,50,5,0,1
62364,-83.3333333333333,4,2,50,80,0,1
63297,-83.3333333333333,4,2,50,5,0,1
63381,-83.3333333333333,4,2,50,80,0,1
66347,-83.3333333333333,4,2,50,5,0,1
66432,-83.3333333333333,4,2,50,80,0,1
67703,-83.3333333333333,4,2,50,5,0,1
67788,-83.3333333333333,4,2,50,80,0,1
68720,-83.3333333333333,4,2,50,5,0,1
68805,-83.3333333333333,4,2,50,80,0,1
71178,-100,4,2,50,70,0,0
79314,-100,4,2,50,70,0,0
86856,-100,4,2,50,5,0,0
86941,-100,4,2,50,70,0,0
89568,-100,4,2,50,5,0,0
89653,-100,4,2,50,70,0,0
93127,-100,4,2,50,5,0,0
93212,-100,4,2,50,70,0,0
94992,-100,4,2,50,5,0,0
95076,-100,4,2,50,70,0,0
95839,-100,4,2,50,5,0,0
95924,-100,4,2,50,70,0,0
97703,-100,4,2,50,5,0,0
97788,-100,4,2,50,70,0,0
98551,-100,4,2,50,5,0,0
98636,-100,4,2,50,70,0,0
100415,-100,4,2,50,5,0,0
100500,-100,4,2,50,70,0,0
104059,-100,4,2,50,70,0,0
105585,-100,4,2,50,5,0,0

[Colours]
Combo1 : 0,179,255
Combo2 : 9,132,255
Combo3 : 192,192,192

[HitObjects]
396,52,670,6,0,P|360:32|316:32,1,63.7500024318696,2|2,0:0|0:0,0:0:0:0:
209,110,1008,2,0,B|264:143|264:143|328:104,1,127.500004863739,2|0,0:0|0:0,0:0:0:0:
204,29,1517,2,0,P|172:34|146:51,1,63.7500024318696,2|2,0:0|0:0,0:0:0:0:
144,155,1856,1,2,0:0:0:0:
209,110,2025,5,2,0:0:0:0:
156,237,2195,1,2,0:0:0:0:
220,185,2364,1,2,0:0:0:0:
73,122,2534,2,0,B|42:109|42:109|22:122|18:165|41:204,1,127.500004863739,2|2,0:0|0:0,0:0:0:0:
149,297,3042,2,0,P|160:268|149:225,1,63.7500024318696,2|2,0:0|0:0,0:0:0:0:
28,363,3381,6,0,L|99:356,1,63.7500024318696,2|2,0:0|0:0,0:0:0:0:
149,297,3720,2,0,B|203:264|203:264|258:297,1,127.500004863739,2|0,0:0|0:0,0:0:0:0:
301,366,4229,2,0,L|364:372,1,63.7500024318696,2|2,0:0|0:0,0:0:0:0:
465,266,4568,1,2,0:0:0:0:
426,333,4737,5,2,0:0:0:0:
385,269,4907,1,2,0:0:0:0:
506,339,5076,1,2,0:0:0:0:
418,198,5246,2,0,P|382:188|309:241,1,127.500004863739,2|2,0:0|0:0,0:0:0:0:
253,307,5754,1,2,0:0:0:0:
224,227,5924,1,2,0:0:0:0:
341,340,6093,6,0,L|437:331,1,85,6|0,1:0|0:0,0:0:0:0:
313,235,6432,1,8,0:0:0:0:
274,379,6602,2,0,P|226:382|150:290,1,170,0|0,1:0|1:0,0:0:0:0:
189,151,7110,1,8,0:0:0:0:
253,307,7280,1,0,0:0:0:0:
123,209,7449,5,2,1:0:0:0:
297,146,7619,1,2,0:0:0:0:
185,256,7788,1,8,0:0:0:0:
262,63,7958,2,0,P|307:56|398:153,1,170,2|0,1:2|1:0,0:0:0:0:
335,253,8466,1,8,0:0:0:0:
297,146,8636,1,2,0:0:0:0:
419,260,8805,6,0,P|471:276|522:261,1,85,2|0,1:0|0:0,0:0:0:0:
395,131,9144,1,8,0:0:0:0:
339,332,9314,2,0,B|301:354|258:310|280:301|240:261|192:275,1,170,0|0,1:0|1:0,0:0:0:0:
27,345,9822,1,8,0:0:0:0:
92,232,9992,1,0,0:0:0:0:
149,323,10161,5,2,1:0:0:0:
19,266,10331,1,2,0:0:0:0:
178,223,10500,1,8,0:0:0:0:
27,345,10670,2,0,P|11:287|27:252,1,85,2|0,1:2|0:0,0:0:0:0:
146,52,11008,5,8,0:0:0:0:
92,232,11178,1,8,0:0:0:0:
21,32,11347,1,8,0:0:0:0:
139,291,11517,6,0,P|199:298|234:271,1,85,6|2,1:0|0:0,0:0:0:0:
344,107,11856,2,0,P|287:116|260:218,1,170,8|2,0:0|0:0,0:0:0:0:
371,306,12364,1,0,1:0:0:0:
328,189,12534,1,8,0:0:0:0:
288,332,12703,1,2,0:0:0:0:
421,208,12873,5,2,1:0:0:0:
249,264,13042,1,2,0:0:0:0:
425,365,13212,1,8,0:0:0:0:
240,188,13381,2,0,B|143:170|175:233|71:215,1,170,2|0,1:2|1:0,0:0:0:0:
23,69,13890,1,12,0:0:0:0:
106,296,14059,1,2,0:0:0:0:
211,78,14229,6,0,P|251:69|293:90,1,85,6|2,1:0|0:0,0:0:0:0:
396,210,14568,2,0,B|356:243|311:205|322:194|265:153|215:205,1,170,8|2,0:0|0:0,0:0:0:0:
189,339,15076,1,0,1:0:0:0:
268,255,15246,1,8,0:0:0:0:
117,294,15415,1,2,0:0:0:0:
277,333,15585,5,2,1:0:0:0:
174,189,15754,1,2,0:0:0:0:
120,372,15924,1,8,0:0:0:0:
269,176,16093,2,0,L|359:193,1,85,2|0,1:2|0:0,0:0:0:0:
486,337,16432,1,10,0:0:0:0:
428,142,16602,1,8,0:0:0:0:
337,296,16771,1,8,0:0:0:0:
502,173,16941,6,0,P|507:122|489:91,1,85,6|2,1:0|0:0,0:0:0:0:
314,227,17280,2,0,B|358:206|407:243|390:256|427:285|489:255,1,170,8|2,0:0|0:0,0:0:0:0:
288,148,17788,1,0,1:0:0:0:
337,296,17958,1,8,0:0:0:0:
363,140,18127,1,2,0:0:0:0:
237,251,18297,5,6,1:0:0:0:
397,215,18466,1,2,0:0:0:0:
217,140,18636,1,8,0:0:0:0:
445,327,18805,2,0,B|478:331|495:301|495:301|468:172,1,170,2|0,1:2|1:0,0:0:0:0:
327,67,19314,1,8,0:0:0:0:
397,215,19483,1,2,0:0:0:0:
503,42,19653,6,0,P|463:22|421:34,1,85,6|2,1:0|0:0,0:0:0:0:
322,193,19992,2,0,B|263:180|263:180|220:202|220:202|134:181,1,170,8|2,0:0|0:0,0:0:0:0:
34,73,20500,1,0,1:0:0:0:
82,217,20670,1,8,0:0:0:0:
114,119,20839,1,2,0:0:0:0:
10,190,21008,6,0,P|3:231|23:271,1,85,2|0,1:0|1:0,0:0:0:0:
160,187,21347,1,8,0:0:0:0:
0,342,21517,2,0,P|41:349|81:329,1,85,2|0,0:0|0:0,0:0:0:0:
260,157,21856,5,8,0:0:0:0:
175,328,22025,1,8,0:0:0:0:
114,119,22195,1,8,0:0:0:0:
302,296,22364,6,0,B|338:352|414:352|449:291|436:240|421:210|375:204|348:187|346:148|363:115|405:95|439:115|449:144|437:164|421:172|411:173|398:171,1,382.500014591218,6|2,1:0|0:0,0:0:0:0:
300,216,23551,1,0,1:0:0:0:
300,216,23720,6,0,L|235:208,1,63.7500024318696,2|0,1:0|0:0,0:0:0:0:
156,155,24059,1,2,0:0:0:0:
156,155,24229,2,0,B|107:187|107:187|136:270,1,127.500004863739
201,343,24737,1,2,0:0:0:0:
239,281,24907,1,0,1:0:0:0:
338,340,25076,6,0,B|345:366|376:381|376:381|439:361|409:255|377:299|339:228|373:161|373:161|379:206|417:219,1,382.500014591218,2|2,1:0|0:0,0:0:0:0:
451,152,26263,1,0,1:0:0:0:
451,152,26432,6,0,P|461:112|456:83,1,63.7500024318696,2|0,1:0|0:0,0:0:0:0:
301,167,26771,1,2,0:0:0:0:
354,3,26941,2,0,B|386:35|386:35|368:134,1,127.500004863739
279,248,27449,1,2,0:0:0:0:
301,167,27619,1,0,1:0:0:0:
375,345,27788,6,0,B|414:317|414:317|325:324|325:324|299:355|299:355|218:361|218:361|153:312|205:245,1,382.500014591218,6|2,1:0|0:0,0:0:0:0:
227,190,28975,1,0,1:0:0:0:
227,190,29144,6,0,B|236:156|236:156|221:122,1,63.7500024318696,2|0,1:0|0:0,0:0:0:0:
116,52,29483,1,2,0:0:0:0:
146,153,29653,1,0,0:0:0:0:
248,17,29822,5,8,0:0:0:0:
76,125,29992,1,0,1:0:0:0:
227,190,30161,1,0,1:0:0:0:
212,98,30331,1,0,1:0:0:0:
92,215,30500,6,0,L|106:302,1,85,6|2,1:0|0:0,0:0:0:0:
249,368,30839,1,8,0:0:0:0:
227,190,31008,2,0,P|266:167|357:240,1,170,0|0,1:0|1:0,0:0:0:0:
459,383,31517,2,0,L|472:299,1,85,8|2,0:0|0:0,0:0:0:0:
510,165,31856,5,2,1:0:0:0:
395,304,32025,2,0,P|349:313|311:291,1,85,2|8,1:0|0:0,0:0:0:0:
345,81,32364,2,0,B|364:111|397:127|397:127|360:235,1,170,0|0,1:0|1:0,0:0:0:0:
287,372,32873,2,0,P|251:350|236:311,1,85,8|2,0:0|0:0,0:0:0:0:
218,158,33212,6,0,B|176:155|149:184|167:181|134:219|95:205,1,127.500004863739,6|8,1:0|0:0,0:0:0:0:
21,159,33720,1,0,0:0:0:0:
21,159,33890,2,0,B|10:65|10:65|23:87|46:96,1,127.500004863739,2|8,0:0|0:0,0:0:0:0:
117,38,34398,1,0,1:0:0:0:
117,38,34568,6,0,P|157:16|190:20,1,63.7500024318696,2|0,1:0|0:0,0:0:0:0:
243,124,34907,1,8,0:0:0:0:
160,197,35076,2,0,P|138:173|171:91,1,127.500004863739
274,35,35585,1,8,0:0:0:0:
243,124,35754,1,0,1:0:0:0:
356,34,35924,6,0,P|429:29|473:82,1,127.500004863739,2|8,1:0|0:0,0:0:0:0:
482,172,36432,1,0,0:0:0:0:
393,100,36602,2,0,B|366:136|366:136|389:224,1,127.500004863739,2|8,0:0|0:0,0:0:0:0:
420,327,37110,1,0,1:0:0:0:
308,225,37280,6,0,P|268:211|230:218,1,63.7500024318696,2|0,1:0|0:0,0:0:0:0:
115,279,37619,1,8,0:0:0:0:
179,367,37788,2,0,B|206:330|206:330|177:238,1,127.500004863739
62,128,38297,1,8,0:0:0:0:
120,202,38466,1,0,1:0:0:0:
169,59,38636,6,0,B|223:65|223:65|230:70|230:70|317:80,1,127.500004863739,6|8,1:0|0:0,0:0:0:0:
380,28,39144,1,0,0:0:0:0:
484,139,39314,2,0,B|453:108|453:108|361:133,1,127.500004863739,2|8,0:0|0:0,0:0:0:0:
260,165,39822,1,0,1:0:0:0:
338,284,39992,6,0,P|347:243|333:214,1,63.7500024318696,2|0,1:0|0:0,0:0:0:0:
213,303,40331,1,8,0:0:0:0:
300,353,40500,1,2,0:0:0:0:
138,311,40670,5,8,0:0:0:0:
338,161,40839,1,8,0:0:0:0:
216,382,41008,1,8,0:0:0:0:
166,139,41178,1,8,0:0:0:0:
373,345,41347,6,0,B|411:379|411:379|454:347|467:295|425:258,1,191.250007295609,6|0,1:0|1:0,0:0:0:0:
348,181,42025,2,0,B|296:190|296:190|281:210|281:210|223:221,1,127.500004863739,8|2,0:0|0:0,0:0:0:0:
93,139,42534,1,8,0:0:0:0:
141,240,42703,5,2,1:0:0:0:
198,142,42873,2,0,B|246:132|246:132|261:112|261:112|313:103,1,127.500004863739,8|0,0:0|1:0,0:0:0:0:
409,75,43381,2,0,P|351:9|250:24,1,191.250007295609,8|8,0:0|0:0,0:0:0:0:
270,233,44059,6,0,B|313:258|369:216|341:208|401:165|444:195,1,191.250007295609,6|0,1:0|1:0,0:0:0:0:
295,161,44737,2,0,P|261:130|161:138,1,127.500004863739,8|0,0:0|0:0,0:0:0:0:
42,194,45246,1,8,0:0:0:0:
79,84,45415,5,2,1:0:0:0:
128,197,45585,2,0,P|162:228|262:220,1,127.500004863739,8|0,0:0|1:0,0:0:0:0:
411,270,46093,2,0,B|366:240|315:287|331:296|286:340|225:308,1,191.250007295609,8|0,0:0|0:0,0:0:0:0:
190,81,46771,6,0,B|221:39|280:47|316:100|298:157|240:172|240:172|240:240,1,280.500008560181,6|2,1:0|0:0,0:0:0:0:
239,314,48127,5,12,0:0:0:0:
326,241,48297,1,0,1:0:0:0:
151,297,48466,1,8,0:0:0:0:
344,361,48636,1,0,1:0:0:0:
215,152,48805,5,12,0:0:0:0:
161,373,48975,1,8,0:0:0:0:
311,143,49144,1,8,0:0:0:0:
344,361,49314,1,8,0:0:0:0:
172,239,49483,5,6,1:0:0:0:
411,164,49653,1,2,0:0:0:0:
239,314,49822,2,0,L|248:208,1,101.999996887207,8|0,0:0|0:0,0:0:0:0:
468,289,50161,2,0,P|419:304|358:259,1,101.999996887207,2|0,1:0|1:0,0:0:0:0:
317,58,50500,1,8,0:0:0:0:
424,233,50670,1,2,0:0:0:0:
246,115,50839,6,0,B|197:93|197:93|148:104,1,101.999996887207,2|2,1:0|0:0,0:0:0:0:
180,306,51178,2,0,L|188:197,1,101.999996887207,8|0,0:0|0:0,0:0:0:0:
37,68,51517,1,2,1:0:0:0:
95,218,51686,1,0,1:0:0:0:
226,30,51856,2,0,L|340:58,1,101.999996887207,8|2,0:0|0:0,0:0:0:0:
488,188,52195,6,0,B|434:158|376:198|406:221|339:260|287:218,2,203.999993774414,6|8|2,1:0|0:0|1:0,0:0:0:0:
319,318,53042,1,0,1:0:0:0:
363,125,53212,1,8,0:0:0:0:
459,274,53381,1,2,0:0:0:0:
279,148,53551,6,0,L|170:133,1,101.999996887207,2|2,1:0|0:0,0:0:0:0:
54,335,53890,2,0,L|163:320,1,101.999996887207,8|2,0:0|0:0,0:0:0:0:
82,56,54229,2,0,B|50:94|16:102|16:102|71:244,1,203.999993774414,2|12,1:0|0:0,0:0:0:0:
228,322,54737,1,0,0:0:0:0:
348,101,54907,6,0,P|306:65|233:83,1,101.999996887207,6|2,1:0|0:0,0:0:0:0:
167,256,55246,2,0,L|283:236,1,101.999996887207,8|2,0:0|0:0,0:0:0:0:
473,108,55585,1,2,1:0:0:0:
396,276,55754,1,0,0:0:0:0:
343,67,55924,1,8,0:0:0:0:
463,209,56093,1,2,0:0:0:0:
264,88,56263,6,0,B|221:57|158:84|183:115|113:148|65:103,1,203.999993774414,6|8,1:0|0:0,0:0:0:0:
224,235,56771,1,0,0:0:0:0:
116,43,56941,1,2,1:0:0:0:
66,251,57110,1,0,1:0:0:0:
222,150,57280,2,0,L|332:170,1,101.999996887207,8|2,0:0|0:0,0:0:0:0:
460,359,57619,6,0,B|467:341|496:328|496:328|458:301|415:340|426:350|387:388|341:362,2,203.999993774414,6|8|2,1:0|0:0|1:0,0:0:0:0:
340,169,58466,1,0,1:0:0:0:
281,359,58636,1,8,0:0:0:0:
439,244,58805,1,2,0:0:0:0:
247,119,58975,5,2,1:0:0:0:
341,278,59144,1,0,1:0:0:0:
307,57,59314,2,0,B|262:32|262:32|197:49,1,101.999996887207,12|2,0:0|0:0,0:0:0:0:
92,268,59653,1,0,1:0:0:0:
229,196,59822,1,8,0:0:0:0:
68,114,59992,1,8,0:0:0:0:
165,313,60161,1,8,0:0:0:0:
143,118,60331,5,6,1:0:0:0:
75,361,60500,1,2,0:0:0:0:
229,196,60670,2,0,L|346:184,1,101.999996887207,8|0,0:0|0:0,0:0:0:0:
420,382,61008,2,0,L|303:370,1,101.999996887207,2|0,1:0|1:0,0:0:0:0:
422,145,61347,1,8,0:0:0:0:
496,330,61517,1,2,0:0:0:0:
336,183,61686,6,0,P|324:126|349:80,1,101.999996887207,2|2,1:0|0:0,0:0:0:0:
425,306,62025,2,0,L|308:294,1,101.999996887207,8|0,0:0|0:0,0:0:0:0:
136,139,62364,1,2,1:0:0:0:
217,307,62534,1,0,1:0:0:0:
254,61,62703,2,0,L|238:172,1,101.999996887207,8|2,0:0|0:0,0:0:0:0:
74,315,63042,6,0,B|31:305|16:262|16:262|63:98,2,203.999993774414,6|8|2,1:0|0:0|1:0,0:0:0:0:
281,252,63890,1,0,1:0:0:0:
154,380,64059,1,8,0:0:0:0:
200,184,64229,1,2,0:0:0:0:
320,369,64398,6,0,B|375:385|375:385|441:358,1,101.999996887207,2|0,1:0|1:0,0:0:0:0:
350,150,64737,2,0,L|363:274,1,101.999996887207,8|2,0:0|0:0,0:0:0:0:
460,88,65076,1,2,1:0:0:0:
281,252,65246,1,0,1:0:0:0:
490,189,65415,1,8,0:0:0:0:
316,69,65585,1,8,0:0:0:0:
400,297,65754,5,6,1:0:0:0:
460,88,65924,1,2,0:0:0:0:
323,324,66093,2,0,P|271:340|212:311,1,101.999996887207,8|0,0:0|0:0,0:0:0:0:
215,128,66432,2,0,P|263:153|284:215,1,101.999996887207,2|0,1:0|1:0,0:0:0:0:
68,339,66771,1,8,0:0:0:0:
201,217,66941,1,2,0:0:0:0:
25,101,67110,6,0,B|6:152|6:152|30:222,1,101.999996887207,6|2,1:0|0:0,0:0:0:0:
197,313,67449,2,0,B|216:262|216:262|192:192,1,101.999996887207,8|0,0:0|0:0,0:0:0:0:
184,84,67788,1,2,1:0:0:0:
93,247,67958,1,0,1:0:0:0:
59,30,68127,1,8,0:0:0:0:
201,217,68297,1,2,0:0:0:0:
291,26,68466,6,0,B|407:8|407:8|458:54|411:113,2,203.999993774414,6|8|2,1:0|0:0|1:0,0:0:0:0:
268,243,69314,1,0,1:0:0:0:
355,90,69483,1,8,0:0:0:0:
182,146,69653,1,2,0:0:0:0:
368,251,69822,5,2,1:0:0:0:
291,26,69992,1,0,1:0:0:0:
196,270,70161,2,0,L|88:256,1,101.999996887207,8|2,0:0|0:0,0:0:0:0:
20,32,70500,1,12,0:0:0:0:
94,256,70670,1,8,0:0:0:0:
94,256,70754,1,8,0:0:0:0:
94,256,70839,2,0,L|101:202,1,50.9999984436036,8|8,0:0|0:0,0:0:0:0:
214,26,71008,2,0,L|220:76,1,50.9999984436036,8|8,0:0|0:0,0:0:0:0:
304,277,71178,6,0,B|352:299|392:269|376:262|429:236|480:267,2,170,6|8|0,1:0|0:0|1:0,0:0:0:0:
201,166,72025,2,0,L|216:267,1,85,2|8,0:0|0:0,0:0:0:0:
327,175,72364,6,0,L|339:90,1,85,2|2,0:0|1:0,0:0:0:0:
169,44,72703,1,2,0:0:0:0:
201,166,72873,1,8,0:0:0:0:
293,38,73042,2,0,P|338:21|391:44,1,85,2|0,0:0|0:0,0:0:0:0:
471,144,73381,1,2,0:0:0:0:
356,243,73551,2,0,P|314:251|276:234,1,85,8|2,0:0|0:0,0:0:0:0:
169,44,73890,6,0,B|129:20|129:20|87:48|73:102|119:151,2,170,2|8|0,1:0|0:0|1:0,0:0:0:0:
269,120,74737,2,0,B|311:135|311:135|361:117,1,85,2|8,0:0|0:0,0:0:0:0:
467,4,75076,6,0,B|426:23|426:23|404:71,1,85,2|2,0:0|1:0,0:0:0:0:
503,220,75415,1,2,0:0:0:0:
482,111,75585,1,8,0:0:0:0:
399,250,75754,2,0,B|360:263|360:263|318:248,1,85,2|0,0:0|0:0,0:0:0:0:
208,181,76093,1,2,0:0:0:0:
325,97,76263,1,8,0:0:0:0:
233,267,76432,1,8,0:0:0:0:
158,100,76602,6,0,B|116:115|109:146|109:146|150:265,2,170,6|8|2,1:0|0:0|1:0,0:0:0:0:
319,177,77449,2,0,B|285:193|285:193|213:174,1,85,2|8,0:0|0:0,0:0:0:0:
76,76,77788,1,2,0:0:0:0:
232,266,77958,6,0,L|239:181,1,85,6|2,1:0|0:0,0:0:0:0:
47,257,78297,1,8,0:0:0:0:
145,372,78466,2,0,L|231:363,1,85,2|0,0:0|0:0,0:0:0:0:
315,237,78805,1,2,0:0:0:0:
177,119,78975,2,0,P|149:161|152:199,1,85,8|2,0:0|0:0,0:0:0:0:
434,119,79314,6,0,B|395:96|349:109|351:143|316:156|267:132,2,170,6|8|2,1:0|0:0|1:0,0:0:0:0:
414,317,80161,1,2,0:0:0:0:
274,135,80331,1,8,0:0:0:0:
450,245,80500,1,2,0:0:0:0:
424,46,80670,5,6,1:0:0:0:
324,235,80839,1,8,0:0:0:0:
271,43,81008,1,8,0:0:0:0:
450,245,81178,1,8,0:0:0:0:
195,149,81347,5,6,1:0:0:0:
430,55,81517,1,8,0:0:0:0:
430,55,81602,1,8,0:0:0:0:
430,55,81686,2,0,L|435:106,1,42.5,8|8,0:0|0:0,0:0:0:0:
324,235,81856,2,0,L|328:192,1,42.5,8|8,0:0|0:0,0:0:0:0:
271,43,82025,6,0,B|141:26|141:26|89:77,1,170,12|8,0:0|0:0,0:0:0:0:
0,168,82534,1,0,1:0:0:0:
154,204,82703,1,2,0:0:0:0:
35,70,82873,1,2,1:2:0:0:
52,291,83042,2,0,L|71:207,1,85,8|0,0:0|0:0,0:0:0:0:
256,54,83381,5,2,1:0:0:0:
91,123,83551,1,2,1:0:0:0:
265,170,83720,1,8,0:0:0:0:
203,0,83890,2,0,B|196:31|159:52|159:52|173:161,1,170,2|0,1:2|1:0,0:0:0:0:
284,283,84398,2,0,P|233:252|203:252,1,85,8|0,0:2|0:0,0:0:0:0:
88,367,84737,6,0,L|195:349,1,85,6|2,0:0|0:0,0:0:0:0:
204,168,85076,2,0,P|148:181|124:281,1,170,8|2,0:0|0:0,0:0:0:0:
256,355,85585,1,0,1:0:0:0:
209,251,85754,1,8,0:0:0:0:
171,352,85924,1,2,0:0:0:0:
290,231,86093,5,2,1:0:0:0:
136,281,86263,1,0,1:0:0:0:
337,338,86432,1,8,0:0:0:0:
142,205,86602,2,0,P|121:158|202:89,1,170,0|0,1:0|1:0,0:0:0:0:
370,177,87110,1,12,0:0:0:0:
316,79,87280,1,2,0:0:0:0:
316,79,87364,1,0,0:0:0:0:
316,79,87449,6,0,P|271:118|266:164,1,85,6|2,1:0|0:0,0:0:0:0:
364,271,87788,2,0,B|313:239|313:239|187:285,1,170,8|2,0:0|0:0,0:0:0:0:
62,333,88297,1,0,1:0:0:0:
110,208,88466,1,8,0:0:0:0:
162,333,88636,1,2,0:0:0:0:
30,250,88805,5,6,1:0:0:0:
198,182,88975,1,0,1:0:0:0:
62,333,89144,1,8,0:0:0:0:
245,252,89314,2,0,B|288:229|336:245|329:270|367:289|420:268,1,170,0|0,1:0|1:0,0:0:0:0:
367,152,89822,1,8,0:0:0:0:
278,334,89992,1,2,0:0:0:0:
278,334,90076,1,2,0:0:0:0:
278,334,90161,6,0,P|235:340|193:314,1,85,6|2,1:0|0:0,0:0:0:0:
121,131,90500,2,0,B|154:152|168:186|168:186|134:276,1,170,8|2,0:0|0:0,0:0:0:0:
6,382,91008,1,0,1:0:0:0:
60,254,91178,1,8,0:0:0:0:
100,381,91347,1,2,0:0:0:0:
5,308,91517,5,6,1:0:0:0:
154,224,91686,1,8,0:0:0:0:
154,224,91771,1,8,0:0:0:0:
154,224,91856,2,0,L|166:279,1,42.5,8|0,0:0|0:0,0:0:0:0:
21,126,92025,1,8,0:0:0:0:
21,126,92110,1,8,0:0:0:0:
21,126,92195,2,0,L|9:181,1,42.5,2|0,1:0|0:0,0:0:0:0:
100,381,92364,2,0,L|90:339,1,42.5,8|8,0:0|0:0,0:0:0:0:
140,135,92534,1,8,0:0:0:0:
173,102,92619,1,8,0:0:0:0:
218,95,92703,1,8,0:0:0:0:
262,109,92788,1,8,0:0:0:0:
285,149,92873,6,0,B|330:158|354:203|354:203|393:168|451:189,1,170,6|8,1:0|0:0,0:0:0:0:
329,285,93381,2,0,B|229:266|265:344|159:316,1,170,0|0,1:0|1:0,0:0:0:0:
51,246,93890,2,0,P|45:203|77:163,1,85,8|0,0:0|0:0,0:0:0:0:
312,115,94229,6,0,B|278:90|222:117|246:140|189:171|127:125,1,170,2|8,1:0|0:0,0:0:0:0:
41,0,94737,2,0,B|-6:30|-6:30|21:150,1,170,2|0,1:0|1:0,0:0:0:0:
174,329,95246,2,0,P|201:288|196:246,1,85,12|0,0:0|0:0,0:0:0:0:
182,223,95500,1,0,1:0:0:0:
182,223,95585,6,0,B|121:232|121:232|85:267|85:267|26:276,1,170,6|8,1:0|0:0,0:0:0:0:
182,128,96093,2,0,B|236:108|272:152|257:157|291:191|352:170,1,170,0|0,1:0|1:0,0:0:0:0:
458,89,96602,1,8,0:0:0:0:
416,237,96771,1,0,0:0:0:0:
320,90,96941,6,0,L|338:188,1,85,2|0,1:0|1:0,0:0:0:0:
395,349,97280,1,8,0:0:0:0:
240,199,97449,2,0,B|191:171|191:171|54:220,1,170,2|0,1:0|1:0,0:0:0:0:
222,384,97958,2,0,P|237:341|224:294,1,85,12|0,0:0|0:0,0:0:0:0:
208,270,98212,1,0,1:0:0:0:
208,270,98297,6,0,B|258:288|308:265|285:239|336:215|379:238,1,170,6|8,1:0|0:0,0:0:0:0:
460,296,98805,2,0,B|502:327|502:327|541:276|482:190,1,170,0|0,1:0|1:0,0:0:0:0:
436,110,99314,1,8,0:0:0:0:
371,218,99483,1,0,1:0:0:0:
371,218,99568,1,0,1:0:0:0:
371,218,99653,5,6,1:0:0:0:
429,30,99822,1,0,1:0:0:0:
498,216,99992,1,8,0:0:0:0:
328,45,100161,2,0,B|283:5|283:5|161:57,1,170,2|0,1:0|1:0,0:0:0:0:
115,257,100670,2,0,B|140:270|140:270|213:234,1,85,8|0,0:0|0:0,0:0:0:0:
80,19,101008,6,0,P|60:67|71:110,1,85,6|2,1:0|0:0,0:0:0:0:
250,166,101347,1,8,0:0:0:0:
36,206,101517,2,0,B|143:178|103:264|222:236,1,170,0|0,1:0|1:0,0:0:0:0:
335,128,102025,1,8,0:0:0:0:
291,289,102195,1,0,0:0:0:0:
249,85,102364,5,12,0:0:0:0:
361,251,102534,1,8,0:0:0:0:
322,42,102703,1,8,0:0:0:0:
191,217,102873,1,0,1:0:0:0:
191,217,102958,1,8,0:0:0:0:
191,217,103042,2,0,L|239:210,1,42.5,8|8,0:0|0:0,0:0:0:0:
377,134,103212,2,0,L|329:127,1,42.5,8|8,0:0|0:0,0:0:0:0:
361,251,103381,1,8,0:0:0:0:
392,285,103466,1,8,0:0:0:0:
427,308,103551,2,0,P|441:316|470:314,1,42.5,8|8,0:0|0:0,0:0:0:0:
469,137,103720,5,6,1:0:0:0:
469,137,103805,1,0,1:0:0:0:
469,137,103890,2,0,L|459:197,1,42.5,0|0,1:0|1:0,0:0:0:0:
281,349,104059,1,8,0:0:0:0:
281,349,104144,1,0,1:0:0:0:
281,349,104229,2,0,L|271:289,1,42.5,0|0,1:0|1:0,0:0:0:0:
177,147,104398,1,2,1:0:0:0:
209,119,104483,1,0,1:0:0:0:
251,115,104568,1,2,1:2:0:0:
288,134,104653,1,0,1:0:0:0:
308,170,104737,5,8,0:0:0:0:
9,373,104907,2,0,B|52:368|84:321|84:321|25:57,1,340,12|0,0:0|0:0,0:0:0:0:
