osu file format v14

[General]
AudioFilename: audio.mp3
AudioLeadIn: 0
PreviewTime: 46656
Countdown: 0
SampleSet: Normal
StackLeniency: 0.7
Mode: 1
LetterboxInBreaks: 0
WidescreenStoryboard: 1

[Editor]
DistanceSpacing: 0.6
BeatDivisor: 4
GridSize: 32
TimelineZoom: 2

[Metadata]
Title:Jiriki Hongan Revolution (TV Size)
TitleUnicode:自力本願レボリューション (TV Size)
Artist:3 Nen E Gumi Utatan
ArtistUnicode:3年E組うた担
Creator:Stefan
Version:Oni
Source:暗殺教室
Tags:song unit savage youth theory kohei tanaka hiroshi nakamura ansatsu kyoushitsu assassination classroom opening japanese anime nagisa shiota mai fuchigami kaede kayano aya suzaki karma akabane nobuhiko okamoto yuuma isogai ryota ohsaka hiroto maehara shintaro asanuma 渕上舞 洲崎綾 岡本信彦 逢坂良太 浅沼晋太郎 thenutritiousguy tng
BeatmapID:2396155
BeatmapSetID:1147542

[Difficulty]
HPDrainRate:5
CircleSize:5
OverallDifficulty:5.5
ApproachRate:5
SliderMultiplier:1.4
SliderTickRate:1

[Events]
//Background and Video events
0,0,"bege.jpg",0,50
//Break Periods
//Storyboard Layer 0 (Background)
//Storyboard Layer 1 (Fail)
//Storyboard Layer 2 (Pass)
//Storyboard Layer 3 (Foreground)
//Storyboard Layer 4 (Overlay)
//Storyboard Sound Samples

[TimingPoints]
-10,333.333333333333,4,1,0,86,1,0
46656,-100,4,1,0,86,0,1
78656,-100,4,1,0,86,0,0

[HitObjects]
161,1,656,5,0,0:0:0:0:
224,147,823,1,8,0:0:0:0:
241,118,906,1,8,0:0:0:0:
241,118,989,1,8,0:0:0:0:
241,118,1156,1,0,0:0:0:0:
241,118,1323,1,12,0:0:0:0:
241,118,1656,1,8,0:0:0:0:
241,118,1823,1,0,0:0:0:0:
241,118,1989,1,8,0:0:0:0:
241,118,2323,1,8,0:0:0:0:
241,118,2489,1,0,0:0:0:0:
241,118,2656,1,8,0:0:0:0:
241,118,2739,1,8,0:0:0:0:
241,118,2823,1,0,0:0:0:0:
241,118,2989,1,0,0:0:0:0:
241,118,3156,1,8,0:0:0:0:
241,118,3239,1,8,0:0:0:0:
241,118,3323,1,8,0:0:0:0:
241,118,3489,1,0,0:0:0:0:
241,118,3656,1,8,0:0:0:0:
241,118,3823,1,0,0:0:0:0:
241,118,3989,1,8,0:0:0:0:
241,118,4323,1,8,0:0:0:0:
241,118,4489,1,0,0:0:0:0:
241,118,4656,1,8,0:0:0:0:
241,118,4989,1,8,0:0:0:0:
241,118,5156,1,0,0:0:0:0:
241,118,5323,1,8,0:0:0:0:
241,118,5406,1,8,0:0:0:0:
241,118,5489,1,0,0:0:0:0:
241,118,5656,1,0,0:0:0:0:
241,118,5823,1,8,0:0:0:0:
241,118,5906,1,8,0:0:0:0:
241,118,5989,1,8,0:0:0:0:
241,118,6156,1,0,0:0:0:0:
241,118,6323,1,8,0:0:0:0:
241,118,6489,1,0,0:0:0:0:
241,118,6656,1,12,0:0:0:0:
241,118,6989,1,8,0:0:0:0:
241,118,7156,1,8,0:0:0:0:
241,118,7239,1,8,0:0:0:0:
241,118,7323,1,8,0:0:0:0:
241,118,7489,1,0,0:0:0:0:
241,118,7656,1,8,0:0:0:0:
241,118,7989,1,0,0:0:0:0:
241,118,8073,1,0,0:0:0:0:
241,118,8156,1,0,0:0:0:0:
241,118,8323,1,0,0:0:0:0:
241,118,8489,1,8,0:0:0:0:
241,118,8573,1,8,0:0:0:0:
241,118,8656,1,8,0:0:0:0:
241,118,8823,1,0,0:0:0:0:
241,118,8989,1,8,0:0:0:0:
241,118,9323,1,8,0:0:0:0:
241,118,9489,1,0,0:0:0:0:
241,118,9573,1,0,0:0:0:0:
241,118,9656,1,12,0:0:0:0:
241,118,9989,1,8,0:0:0:0:
241,118,10156,1,0,0:0:0:0:
241,118,10239,1,0,0:0:0:0:
241,118,10323,1,12,0:0:0:0:
241,118,10656,1,12,0:0:0:0:
241,118,10823,1,4,0:0:0:0:
241,118,11156,1,12,0:0:0:0:
241,118,11323,1,0,0:0:0:0:
241,118,11489,1,8,0:0:0:0:
241,118,11573,1,0,0:0:0:0:
241,118,11656,1,0,0:0:0:0:
241,118,11739,1,0,0:0:0:0:
241,118,11823,1,8,0:0:0:0:
241,118,11989,1,4,0:0:0:0:
241,118,12323,1,8,0:0:0:0:
241,118,12656,1,8,0:0:0:0:
241,118,12989,1,8,0:0:0:0:
241,118,13323,1,0,0:0:0:0:
241,118,13489,1,0,0:0:0:0:
241,118,13656,1,8,0:0:0:0:
241,118,13989,1,8,0:0:0:0:
241,118,14156,1,0,0:0:0:0:
241,118,14323,1,8,0:0:0:0:
241,118,14656,1,0,0:0:0:0:
241,118,14989,1,8,0:0:0:0:
241,118,15323,1,8,0:0:0:0:
241,118,15656,1,8,0:0:0:0:
241,118,15989,1,0,0:0:0:0:
241,118,16156,1,0,0:0:0:0:
241,118,16323,1,8,0:0:0:0:
241,118,16656,1,8,0:0:0:0:
241,118,16823,1,0,0:0:0:0:
241,118,16989,1,8,0:0:0:0:
241,118,17323,1,8,0:0:0:0:
241,118,17489,1,8,0:0:0:0:
241,118,17823,1,8,0:0:0:0:
241,118,17989,1,0,0:0:0:0:
241,118,18156,1,0,0:0:0:0:
241,118,18323,1,8,0:0:0:0:
241,118,18656,1,8,0:0:0:0:
241,118,18823,1,8,0:0:0:0:
241,118,18989,1,0,0:0:0:0:
241,118,19156,1,8,0:0:0:0:
241,118,19489,1,0,0:0:0:0:
241,118,19656,1,8,0:0:0:0:
241,118,19989,1,8,0:0:0:0:
241,118,20323,1,8,0:0:0:0:
241,118,20489,1,8,0:0:0:0:
241,118,20823,1,0,0:0:0:0:
241,118,20989,1,8,0:0:0:0:
241,118,21156,1,0,0:0:0:0:
241,118,21323,1,8,0:0:0:0:
241,118,21489,1,8,0:0:0:0:
241,118,21823,1,8,0:0:0:0:
241,118,21989,1,0,0:0:0:0:
241,118,22156,1,0,0:0:0:0:
241,118,22323,1,8,0:0:0:0:
241,118,22489,1,0,0:0:0:0:
241,118,22656,1,4,0:0:0:0:
241,118,22989,1,8,0:0:0:0:
241,118,23323,1,8,0:0:0:0:
241,118,23489,1,0,0:0:0:0:
241,118,23656,1,8,0:0:0:0:
241,118,23989,1,8,0:0:0:0:
241,118,24156,1,8,0:0:0:0:
241,118,24323,1,0,0:0:0:0:
241,118,24489,1,8,0:0:0:0:
241,118,24823,1,8,0:0:0:0:
241,118,24989,1,8,0:0:0:0:
241,118,25323,1,8,0:0:0:0:
241,118,25656,1,0,0:0:0:0:
241,118,25823,1,8,0:0:0:0:
241,118,26156,1,0,0:0:0:0:
241,118,26323,1,8,0:0:0:0:
241,118,26656,1,8,0:0:0:0:
241,118,26823,1,0,0:0:0:0:
241,118,26989,1,8,0:0:0:0:
241,118,27156,1,0,0:0:0:0:
241,118,27323,1,8,0:0:0:0:
241,118,27656,1,8,0:0:0:0:
241,118,27823,1,8,0:0:0:0:
241,118,27989,1,0,0:0:0:0:
241,118,28156,1,8,0:0:0:0:
241,118,28323,1,8,0:0:0:0:
241,118,28489,1,0,0:0:0:0:
241,118,28823,1,0,0:0:0:0:
241,118,28989,1,8,0:0:0:0:
241,118,29323,1,8,0:0:0:0:
241,118,29489,1,0,0:0:0:0:
241,118,29656,1,8,0:0:0:0:
241,118,29989,1,8,0:0:0:0:
241,118,30156,1,8,0:0:0:0:
241,118,30489,1,8,0:0:0:0:
241,118,30656,1,8,0:0:0:0:
241,118,30823,1,0,0:0:0:0:
241,118,30989,1,4,0:0:0:0:
241,118,31323,1,8,0:0:0:0:
241,118,31489,1,0,0:0:0:0:
241,118,31656,1,12,0:0:0:0:
241,118,31989,1,12,0:0:0:0:
241,118,32156,1,8,0:0:0:0:
241,118,32489,1,12,0:0:0:0:
241,118,32656,1,0,0:0:0:0:
241,118,32823,1,0,0:0:0:0:
241,118,32989,1,8,0:0:0:0:
241,118,33073,1,0,0:0:0:0:
241,118,33156,1,8,0:0:0:0:
241,118,33323,1,8,0:0:0:0:
241,118,33656,1,0,0:0:0:0:
241,118,33823,1,8,0:0:0:0:
241,118,34156,1,8,0:0:0:0:
241,118,34323,1,8,0:0:0:0:
241,118,34489,1,0,0:0:0:0:
241,118,34656,1,8,0:0:0:0:
241,118,34823,1,0,0:0:0:0:
241,118,34989,1,8,0:0:0:0:
241,118,35323,1,8,0:0:0:0:
241,118,35489,1,0,0:0:0:0:
241,118,35656,1,8,0:0:0:0:
241,118,35823,1,0,0:0:0:0:
241,118,35989,1,8,0:0:0:0:
241,118,36323,1,8,0:0:0:0:
241,118,36656,1,8,0:0:0:0:
241,118,36823,1,8,0:0:0:0:
241,118,36989,1,0,0:0:0:0:
241,118,37156,1,8,0:0:0:0:
241,118,37323,1,12,0:0:0:0:
241,118,37656,1,0,0:0:0:0:
241,118,37989,1,12,0:0:0:0:
241,118,38156,1,0,0:0:0:0:
241,118,38323,1,8,0:0:0:0:
241,118,38489,1,8,0:0:0:0:
241,118,38656,1,4,0:0:0:0:
241,118,39323,1,8,0:0:0:0:
241,118,39656,1,8,0:0:0:0:
241,118,39823,1,0,0:0:0:0:
241,118,39989,1,8,0:0:0:0:
241,118,40323,1,0,0:0:0:0:
241,118,40656,1,8,0:0:0:0:
241,118,40989,1,8,0:0:0:0:
241,118,41323,1,12,0:0:0:0:
241,118,41489,1,0,0:0:0:0:
241,118,41656,1,8,0:0:0:0:
241,118,41823,1,8,0:0:0:0:
241,118,41906,1,0,0:0:0:0:
241,118,41989,1,8,0:0:0:0:
241,118,42156,1,0,0:0:0:0:
241,118,42323,1,0,0:0:0:0:
241,118,42489,1,12,0:0:0:0:
241,118,42823,1,8,0:0:0:0:
241,118,42989,1,8,0:0:0:0:
241,118,43156,1,8,0:0:0:0:
241,118,43489,1,0,0:0:0:0:
241,118,43656,1,8,0:0:0:0:
241,118,43823,1,8,0:0:0:0:
241,118,43989,1,4,0:0:0:0:
241,118,44156,1,8,0:0:0:0:
241,118,44239,1,0,0:0:0:0:
241,118,44323,1,8,0:0:0:0:
241,118,44489,1,0,0:0:0:0:
241,118,44656,1,8,0:0:0:0:
241,118,44823,1,0,0:0:0:0:
241,118,44906,1,0,0:0:0:0:
241,118,44989,1,8,0:0:0:0:
241,118,45156,1,12,0:0:0:0:
241,118,45489,1,0,0:0:0:0:
241,118,45656,1,8,0:0:0:0:
241,118,45739,1,8,0:0:0:0:
241,118,45823,1,0,0:0:0:0:
241,118,46156,1,8,0:0:0:0:
241,118,46656,1,4,0:0:0:0:
241,118,46823,1,8,0:0:0:0:
241,118,47156,1,8,0:0:0:0:
241,118,47323,1,0,0:0:0:0:
241,118,47406,1,0,0:0:0:0:
241,118,47489,1,8,0:0:0:0:
241,118,47656,1,8,0:0:0:0:
241,118,47823,1,0,0:0:0:0:
241,118,47989,1,8,0:0:0:0:
241,118,48156,1,8,0:0:0:0:
241,118,48323,1,0,0:0:0:0:
241,118,48406,1,0,0:0:0:0:
241,118,48489,1,8,0:0:0:0:
241,118,48823,1,0,0:0:0:0:
241,118,48989,1,8,0:0:0:0:
241,118,49323,1,8,0:0:0:0:
241,118,49489,1,0,0:0:0:0:
241,118,49573,1,0,0:0:0:0:
241,118,49656,1,8,0:0:0:0:
241,118,49823,1,8,0:0:0:0:
241,118,49989,1,0,0:0:0:0:
241,118,50156,1,8,0:0:0:0:
241,118,50323,1,0,0:0:0:0:
241,118,50489,1,8,0:0:0:0:
241,118,50656,1,8,0:0:0:0:
241,118,50823,1,0,0:0:0:0:
241,118,50906,1,0,0:0:0:0:
241,118,50989,1,8,0:0:0:0:
241,118,51156,1,8,0:0:0:0:
241,118,51489,1,8,0:0:0:0:
241,118,51573,1,0,0:0:0:0:
241,118,51656,1,8,0:0:0:0:
241,118,51823,1,0,0:0:0:0:
241,118,51989,1,4,0:0:0:0:
241,118,52156,1,8,0:0:0:0:
241,118,52489,1,8,0:0:0:0:
241,118,52656,1,0,0:0:0:0:
241,118,52823,1,8,0:0:0:0:
241,118,52989,1,8,0:0:0:0:
241,118,53073,1,8,0:0:0:0:
241,118,53156,1,0,0:0:0:0:
241,118,53323,1,8,0:0:0:0:
241,118,53489,1,8,0:0:0:0:
241,118,53823,1,8,0:0:0:0:
241,118,54156,1,0,0:0:0:0:
241,118,54323,1,8,0:0:0:0:
241,118,54489,1,0,0:0:0:0:
241,118,54656,1,8,0:0:0:0:
241,118,54989,1,0,0:0:0:0:
241,118,55156,1,8,0:0:0:0:
241,118,55323,1,0,0:0:0:0:
241,118,55406,1,0,0:0:0:0:
241,118,55489,1,8,0:0:0:0:
241,118,55656,1,0,0:0:0:0:
241,118,55823,1,8,0:0:0:0:
241,118,55906,1,8,0:0:0:0:
241,118,55989,1,8,0:0:0:0:
241,118,56073,1,8,0:0:0:0:
241,118,56156,1,0,0:0:0:0:
241,118,56323,1,8,0:0:0:0:
241,118,56489,1,0,0:0:0:0:
241,118,56656,1,8,0:0:0:0:
241,118,56989,1,0,0:0:0:0:
241,118,57156,1,8,0:0:0:0:
241,118,57323,1,0,0:0:0:0:
241,118,57489,1,0,0:0:0:0:
241,118,57573,1,0,0:0:0:0:
241,118,57656,1,8,0:0:0:0:
241,118,57989,1,8,0:0:0:0:
241,118,58073,1,0,0:0:0:0:
241,118,58156,1,8,0:0:0:0:
241,118,58323,1,0,0:0:0:0:
241,118,58489,1,0,0:0:0:0:
241,118,58656,1,8,0:0:0:0:
241,118,58739,1,0,0:0:0:0:
241,118,58823,1,0,0:0:0:0:
241,118,58989,1,0,0:0:0:0:
241,118,59156,1,8,0:0:0:0:
241,118,59239,1,8,0:0:0:0:
241,118,59323,1,8,0:0:0:0:
241,118,59656,1,0,0:0:0:0:
241,118,59823,1,8,0:0:0:0:
241,118,59989,1,0,0:0:0:0:
241,118,60156,1,0,0:0:0:0:
241,118,60323,1,12,0:0:0:0:
241,118,60656,1,8,0:0:0:0:
241,118,60823,1,8,0:0:0:0:
241,118,60989,1,4,0:0:0:0:
241,118,61156,1,8,0:0:0:0:
241,118,61239,1,8,0:0:0:0:
241,118,61323,1,8,0:0:0:0:
241,118,61489,1,0,0:0:0:0:
241,118,61656,1,0,0:0:0:0:
241,118,61823,1,8,0:0:0:0:
241,118,61906,1,8,0:0:0:0:
241,118,61989,1,8,0:0:0:0:
241,118,62156,1,0,0:0:0:0:
241,118,62323,1,0,0:0:0:0:
241,118,62406,1,0,0:0:0:0:
241,118,62489,1,0,0:0:0:0:
241,118,62573,1,0,0:0:0:0:
241,118,62656,1,12,0:0:0:0:
241,118,62823,1,0,0:0:0:0:
241,118,63156,1,8,0:0:0:0:
241,118,63323,1,0,0:0:0:0:
241,118,63406,1,0,0:0:0:0:
241,118,63489,1,8,0:0:0:0:
241,118,63656,1,8,0:0:0:0:
241,118,63823,1,0,0:0:0:0:
241,118,63989,1,8,0:0:0:0:
241,118,64156,1,8,0:0:0:0:
241,118,64323,1,0,0:0:0:0:
241,118,64406,1,0,0:0:0:0:
241,118,64489,1,8,0:0:0:0:
241,118,64823,1,0,0:0:0:0:
241,118,64989,1,8,0:0:0:0:
241,118,65323,1,8,0:0:0:0:
241,118,65489,1,0,0:0:0:0:
241,118,65573,1,0,0:0:0:0:
241,118,65656,1,8,0:0:0:0:
241,118,65823,1,8,0:0:0:0:
241,118,65989,1,0,0:0:0:0:
241,118,66156,1,8,0:0:0:0:
241,118,66323,1,0,0:0:0:0:
241,118,66489,1,8,0:0:0:0:
241,118,66656,1,8,0:0:0:0:
241,118,66823,1,0,0:0:0:0:
241,118,66906,1,0,0:0:0:0:
241,118,66989,1,8,0:0:0:0:
241,118,67156,1,8,0:0:0:0:
241,118,67489,1,8,0:0:0:0:
241,118,67573,1,0,0:0:0:0:
241,118,67656,1,8,0:0:0:0:
241,118,67823,1,0,0:0:0:0:
241,118,67989,1,4,0:0:0:0:
241,118,68156,1,8,0:0:0:0:
241,118,68489,1,8,0:0:0:0:
241,118,68656,1,0,0:0:0:0:
241,118,68823,1,8,0:0:0:0:
241,118,68989,1,8,0:0:0:0:
241,118,69073,1,8,0:0:0:0:
241,118,69156,1,0,0:0:0:0:
241,118,69323,1,8,0:0:0:0:
241,118,69489,1,8,0:0:0:0:
241,118,69823,1,8,0:0:0:0:
241,118,70156,1,0,0:0:0:0:
241,118,70323,1,8,0:0:0:0:
241,118,70489,1,0,0:0:0:0:
241,118,70656,1,8,0:0:0:0:
241,118,70989,1,0,0:0:0:0:
241,118,71156,1,8,0:0:0:0:
241,118,71323,1,0,0:0:0:0:
241,118,71406,1,0,0:0:0:0:
241,118,71489,1,8,0:0:0:0:
241,118,71656,1,0,0:0:0:0:
241,118,71823,1,8,0:0:0:0:
241,118,71906,1,8,0:0:0:0:
241,118,71989,1,8,0:0:0:0:
241,118,72073,1,8,0:0:0:0:
241,118,72156,1,0,0:0:0:0:
241,118,72323,1,8,0:0:0:0:
241,118,72489,1,0,0:0:0:0:
241,118,72656,1,8,0:0:0:0:
241,118,72989,1,0,0:0:0:0:
241,118,73156,1,8,0:0:0:0:
241,118,73323,1,0,0:0:0:0:
241,118,73489,1,0,0:0:0:0:
241,118,73573,1,0,0:0:0:0:
241,118,73656,1,8,0:0:0:0:
241,118,73989,1,8,0:0:0:0:
241,118,74073,1,0,0:0:0:0:
241,118,74156,1,8,0:0:0:0:
241,118,74323,1,0,0:0:0:0:
241,118,74489,1,0,0:0:0:0:
241,118,74656,1,8,0:0:0:0:
241,118,74739,1,0,0:0:0:0:
241,118,74823,1,0,0:0:0:0:
241,118,74989,1,0,0:0:0:0:
241,118,75156,1,8,0:0:0:0:
241,118,75239,1,8,0:0:0:0:
241,118,75323,1,8,0:0:0:0:
241,118,75489,1,0,0:0:0:0:
241,118,75656,1,0,0:0:0:0:
241,118,75823,1,8,0:0:0:0:
241,118,75989,1,0,0:0:0:0:
241,118,76156,1,0,0:0:0:0:
241,118,76323,1,12,0:0:0:0:
241,118,76656,1,8,0:0:0:0:
241,118,76823,1,8,0:0:0:0:
241,118,76989,1,4,0:0:0:0:
241,118,77156,1,8,0:0:0:0:
241,118,77239,1,8,0:0:0:0:
241,118,77323,1,8,0:0:0:0:
241,118,77489,1,0,0:0:0:0:
241,118,77656,1,0,0:0:0:0:
241,118,77823,1,8,0:0:0:0:
241,118,77906,1,8,0:0:0:0:
241,118,77989,1,8,0:0:0:0:
241,118,78156,1,0,0:0:0:0:
241,118,78323,1,8,0:0:0:0:
241,118,78656,1,8,0:0:0:0:
241,118,78989,1,8,0:0:0:0:
241,118,79323,1,8,0:0:0:0:
241,118,79656,1,8,0:0:0:0:
241,118,79823,1,8,0:0:0:0:
241,118,79989,1,8,0:0:0:0:
241,118,80323,1,8,0:0:0:0:
241,118,80489,1,8,0:0:0:0:
241,118,80656,1,8,0:0:0:0:
241,118,80989,1,8,0:0:0:0:
241,118,81323,1,8,0:0:0:0:
241,118,81489,1,0,0:0:0:0:
241,118,81656,1,8,0:0:0:0:
241,118,81739,1,8,0:0:0:0:
241,118,81823,1,0,0:0:0:0:
241,118,81989,1,8,0:0:0:0:
241,118,82156,1,0,0:0:0:0:
241,118,82239,1,0,0:0:0:0:
241,118,82323,1,0,0:0:0:0:
241,118,82406,1,8,0:0:0:0:
241,118,82489,1,8,0:0:0:0:
241,118,82823,1,0,0:0:0:0:
241,118,82989,1,8,0:0:0:0:
241,118,83323,1,8,0:0:0:0:
241,118,83489,1,8,0:0:0:0:
241,118,83656,1,8,0:0:0:0:
241,118,83823,1,8,0:0:0:0:
241,118,83989,1,4,0:0:0:0:
241,118,84323,1,8,0:0:0:0:
241,118,84489,1,8,0:0:0:0:
241,118,84573,1,8,0:0:0:0:
241,118,84656,1,8,0:0:0:0:
241,118,84823,1,0,0:0:0:0:
241,118,84989,1,8,0:0:0:0:
241,118,85323,1,0,0:0:0:0:
241,118,85406,1,0,0:0:0:0:
241,118,85489,1,0,0:0:0:0:
241,118,85656,1,0,0:0:0:0:
241,118,85823,1,8,0:0:0:0:
241,118,85906,1,8,0:0:0:0:
241,118,85989,1,8,0:0:0:0:
241,118,86156,1,0,0:0:0:0:
241,118,86323,1,8,0:0:0:0:
241,118,86489,1,0,0:0:0:0:
241,118,86656,1,8,0:0:0:0:
241,118,86823,1,0,0:0:0:0:
241,118,86989,1,12,0:0:0:0:
241,118,87323,1,8,0:0:0:0:
241,118,87489,1,0,0:0:0:0:
241,118,87656,1,12,0:0:0:0:
241,118,87989,1,12,0:0:0:0:
241,118,88156,1,4,0:0:0:0:
241,118,88489,1,12,0:0:0:0:
