osu file format v14

[General]
AudioFilename: audio.mp3
AudioLeadIn: 0
PreviewTime: 46656
Countdown: 0
SampleSet: Normal
StackLeniency: 0.7
Mode: 1
LetterboxInBreaks: 0
WidescreenStoryboard: 1

[Editor]
DistanceSpacing: 0.6
BeatDivisor: 4
GridSize: 32
TimelineZoom: 2

[Metadata]
Title:Jiriki Hongan Revolution (TV Size)
TitleUnicode:自力本願レボリューション (TV Size)
Artist:3 Nen E Gumi Utatan
ArtistUnicode:3年E組うた担
Creator:Stefan
Version:Kantan
Source:暗殺教室
Tags:song unit savage youth theory kohei tanaka hiroshi nakamura ansatsu kyoushitsu assassination classroom opening japanese anime nagisa shiota mai fuchigami kaede kayano aya suzaki karma akabane nobuhiko okamoto yuuma isogai ryota ohsaka hiroto maehara shintaro asanuma 渕上舞 洲崎綾 岡本信彦 逢坂良太 浅沼晋太郎 thenutritiousguy tng
BeatmapID:2396178
BeatmapSetID:1147542

[Difficulty]
HPDrainRate:8
CircleSize:5
OverallDifficulty:3
ApproachRate:5
SliderMultiplier:1.4
SliderTickRate:1

[Events]
//Background and Video events
0,0,"bege.jpg",0,50
//Break Periods
//Storyboard Layer 0 (Background)
//Storyboard Layer 1 (Fail)
//Storyboard Layer 2 (Pass)
//Storyboard Layer 3 (Foreground)
//Storyboard Layer 4 (Overlay)
//Storyboard Sound Samples

[TimingPoints]
-10,333.333333333333,4,1,0,86,1,0
46656,-100,4,1,0,86,0,1
78656,-100,4,1,0,86,0,0

[HitObjects]
241,118,1323,5,12,0:0:0:0:
241,118,1989,1,8,0:0:0:0:
241,118,2656,1,8,0:0:0:0:
241,118,3156,1,8,0:0:0:0:
241,118,3989,1,8,0:0:0:0:
241,118,4656,1,8,0:0:0:0:
241,118,5323,1,8,0:0:0:0:
241,118,5823,1,8,0:0:0:0:
241,118,6656,1,12,0:0:0:0:
241,118,7656,1,0,0:0:0:0:
241,118,7989,1,8,0:0:0:0:
241,118,8989,1,0,0:0:0:0:
241,118,9323,1,8,0:0:0:0:
241,118,9989,1,8,0:0:0:0:
241,118,10656,1,12,0:0:0:0:
241,118,11156,1,12,0:0:0:0:
241,118,11989,1,4,0:0:0:0:
241,118,12656,1,8,0:0:0:0:
241,118,13323,1,0,0:0:0:0:
241,118,13989,1,8,0:0:0:0:
241,118,14323,1,0,0:0:0:0:
241,118,15323,1,8,0:0:0:0:
241,118,15989,1,0,0:0:0:0:
241,118,16656,1,8,0:0:0:0:
241,118,17323,1,8,0:0:0:0:
241,118,17823,1,8,0:0:0:0:
241,118,18656,1,8,0:0:0:0:
241,118,19156,1,8,0:0:0:0:
241,118,19989,1,0,0:0:0:0:
241,118,20989,1,0,0:0:0:0:
241,118,21323,1,8,0:0:0:0:
241,118,21823,1,8,0:0:0:0:
241,118,22656,1,4,0:0:0:0:
241,118,23323,1,0,0:0:0:0:
241,118,23989,1,8,0:0:0:0:
241,118,24489,1,8,0:0:0:0:
241,118,25323,1,0,0:0:0:0:
241,118,26323,1,0,0:0:0:0:
241,118,26656,1,8,0:0:0:0:
241,118,27656,1,8,0:0:0:0:
241,118,27989,1,0,0:0:0:0:
241,118,28989,1,8,0:0:0:0:
241,118,29323,1,0,0:0:0:0:
241,118,29989,1,8,0:0:0:0:
241,118,30656,1,8,0:0:0:0:
241,118,31323,1,8,0:0:0:0:
241,118,31989,1,12,0:0:0:0:
241,118,32489,1,12,0:0:0:0:
241,118,33323,1,0,0:0:0:0:
241,118,34323,1,8,0:0:0:0:
241,118,34656,1,8,0:0:0:0:
241,118,35323,1,8,0:0:0:0:
241,118,35989,1,0,0:0:0:0:
241,118,36656,1,8,0:0:0:0:
241,118,37323,1,12,0:0:0:0:
241,118,38323,1,8,0:0:0:0:
241,118,38656,1,4,0:0:0:0:
241,118,39989,1,0,0:0:0:0:
241,118,40656,1,8,0:0:0:0:
241,118,41323,1,4,0:0:0:0:
241,118,41656,1,8,0:0:0:0:
241,118,41989,1,0,0:0:0:0:
241,118,42489,1,12,0:0:0:0:
241,118,43656,1,8,0:0:0:0:
241,118,43989,1,4,0:0:0:0:
241,118,44656,1,8,0:0:0:0:
241,118,45156,1,12,0:0:0:0:
241,118,46156,1,8,0:0:0:0:
241,118,46656,1,4,0:0:0:0:
241,118,47656,1,0,0:0:0:0:
241,118,47989,1,8,0:0:0:0:
241,118,48656,1,0,0:0:0:0:
241,118,48989,1,8,0:0:0:0:
241,118,49323,1,8,0:0:0:0:
241,118,49989,1,0,0:0:0:0:
241,118,50656,1,8,0:0:0:0:
241,118,51989,1,4,0:0:0:0:
241,118,52989,1,0,0:0:0:0:
241,118,53322,1,8,0:0:0:0:
241,118,53989,1,0,0:0:0:0:
241,118,54322,1,8,0:0:0:0:
241,118,54656,1,8,0:0:0:0:
241,118,55322,1,0,0:0:0:0:
241,118,55656,1,0,0:0:0:0:
241,118,55989,1,8,0:0:0:0:
241,118,57323,5,0,0:0:0:0:
241,118,57989,1,8,0:0:0:0:
241,118,58656,1,8,0:0:0:0:
241,118,59156,1,8,0:0:0:0:
241,118,59989,1,0,0:0:0:0:
241,118,60656,1,0,0:0:0:0:
241,118,61323,1,8,0:0:0:0:
241,118,61823,1,8,0:0:0:0:
241,118,62656,1,4,0:0:0:0:
241,118,63656,1,0,0:0:0:0:
241,118,63989,1,8,0:0:0:0:
241,118,64656,1,0,0:0:0:0:
241,118,64989,1,8,0:0:0:0:
241,118,65323,1,8,0:0:0:0:
241,118,65989,1,0,0:0:0:0:
241,118,66656,1,8,0:0:0:0:
241,118,67989,1,4,0:0:0:0:
241,118,68989,1,0,0:0:0:0:
241,118,69322,1,8,0:0:0:0:
241,118,69989,1,0,0:0:0:0:
241,118,70322,1,8,0:0:0:0:
241,118,70656,1,8,0:0:0:0:
241,118,71322,1,0,0:0:0:0:
241,118,71656,1,0,0:0:0:0:
241,118,71989,1,8,0:0:0:0:
241,118,73323,5,0,0:0:0:0:
241,118,73989,1,8,0:0:0:0:
241,118,74656,1,8,0:0:0:0:
241,118,75156,1,8,0:0:0:0:
241,118,75989,1,0,0:0:0:0:
241,118,76656,1,0,0:0:0:0:
241,118,77323,1,8,0:0:0:0:
241,118,77989,1,8,0:0:0:0:
241,118,78656,1,8,0:0:0:0:
241,118,79656,1,8,0:0:0:0:
241,118,79989,1,8,0:0:0:0:
241,118,80989,1,8,0:0:0:0:
241,118,81323,1,8,0:0:0:0:
241,118,81989,1,0,0:0:0:0:
241,118,82489,1,8,0:0:0:0:
241,118,83323,1,8,0:0:0:0:
241,118,83656,1,8,0:0:0:0:
241,118,83989,1,4,0:0:0:0:
241,118,84989,1,0,0:0:0:0:
241,118,85322,1,8,0:0:0:0:
241,118,86322,1,0,0:0:0:0:
241,118,86656,1,8,0:0:0:0:
241,118,87322,1,8,0:0:0:0:
241,118,87989,1,12,0:0:0:0:
241,118,88489,1,12,0:0:0:0:
