osu file format v14

[General]
AudioFilename: audio.mp3
AudioLeadIn: 0
PreviewTime: 45953
Countdown: 0
SampleSet: Soft
StackLeniency: 0.4
Mode: 0
LetterboxInBreaks: 0
WidescreenStoryboard: 0

[Editor]
DistanceSpacing: 1
BeatDivisor: 4
GridSize: 32
TimelineZoom: 1

[Metadata]
Title:Jiriki Hongan Revolution (TV Size)
TitleUnicode:自力本願レボリューション (TV Size)
Artist:3 Nen E Gumi Utatan
ArtistUnicode:3年E組うた担
Creator:Blitzifyyy
Version:Wolf's Insane!
Source:暗殺教室
Tags:Mocaotic Cris- Wolf3211 Shiota 潮田 Fuchigami Mai 渕上 舞 Kaede カエデ Suzaki Aya 洲崎 綾 Akabane Karma Karuma 赤羽 Okamoto Nobuhiko 岡本 信彦 Yuuma 悠馬 Osaka Ryota Ryōta Ōsaka Ohsaka 逢坂 良太 Hiroto 陽斗 Asanuma Shintaro 浅沼 晋太郎 Ansatsu Kyoushitsu Assassination Classroom Season One Japanese Anime 渚 茅野 業 磯貝 前原 Nagisa Kayano Karuma Isogai Maehara
BeatmapID:2171721
BeatmapSetID:1013091

[Difficulty]
HPDrainRate:5
CircleSize:3.8
OverallDifficulty:7.5
ApproachRate:9
SliderMultiplier:1.6
SliderTickRate:1

[Events]
//Background and Video events
0,0,"bg.png",0,0
Video,-80,"Jiriki+Hongan+Revolution.mp4"
//Break Periods
//Storyboard Layer 0 (Background)
//Storyboard Layer 1 (Fail)
//Storyboard Layer 2 (Pass)
//Storyboard Layer 3 (Foreground)
//Storyboard Layer 4 (Overlay)
//Storyboard Sound Samples

[TimingPoints]
-10,333.333333333333,4,2,1,70,1,0
156,-125,4,2,1,70,0,0
1323,-100,4,2,1,70,0,0
9656,-83.3333333333333,4,2,1,70,0,0
9906,-83.3333333333333,4,2,1,5,0,0
9989,-100,4,2,1,70,0,0
10323,-83.3333333333333,4,2,1,70,0,0
10573,-83.3333333333333,4,2,1,5,0,0
10656,-100,4,2,1,70,0,0
11073,-100,4,2,1,5,0,0
11156,-100,4,2,1,70,0,0
11989,-111.111111111111,4,2,1,60,0,0
30656,-100,4,2,1,70,0,0
33323,-111.111111111111,4,2,1,60,0,0
37323,-125,4,2,1,60,0,0
38656,-142.857142857143,4,2,1,60,0,0
41323,-100,4,2,1,70,0,0
46156,-200,4,2,1,70,0,0
46573,-200,4,2,1,5,0,0
46656,-100,4,2,1,85,0,1
62573,-100,4,2,1,85,0,0
62656,-100,4,2,1,85,0,1
78573,-100,4,2,1,5,0,0
78656,-100,4,2,1,85,0,1
83989,-100,4,2,1,70,0,0
86656,-133.333333333333,4,2,1,70,0,0
86906,-133.333333333333,4,2,1,5,0,0
86989,-100,4,2,1,70,0,0
87239,-100,4,2,1,5,0,0
87323,-133.333333333333,4,2,1,70,0,0
87573,-133.333333333333,4,2,1,5,0,0
87656,-100,4,2,1,70,0,0
87906,-100,4,2,1,5,0,0
87989,-100,4,2,1,70,0,0
88656,-100,4,2,1,70,0,0
88906,-100,4,2,1,45,0,0
88989,-100,4,2,1,5,0,0

[Colours]
Combo1 : 255,223,128
Combo2 : 159,207,255
Combo3 : 255,145,145
Combo4 : 187,255,187

[HitObjects]
49,97,156,6,0,L|112:89,1,64,0|0,0:0|0:0,0:0:0:0:
242,23,489,2,0,L|178:30,1,64,0|0,0:0|3:2,0:0:0:0:
323,117,823,1,8,0:0:0:0:
323,117,906,1,8,0:0:0:0:
323,117,989,1,0,3:2:0:0:
407,65,1156,1,2,3:2:0:0:
426,238,1323,6,0,B|422:206|422:206|418:198|418:198|420:190|420:190|417:158,1,80,6|0,0:0|3:2,0:0:0:0:
407,65,1656,1,12,0:0:0:0:
512,190,1823,1,0,0:0:0:0:
333,197,1989,6,0,B|336:228|336:228|340:236|340:236|338:244|338:244|341:276,1,80,2|0,3:2|3:2,0:0:0:0:
352,370,2323,1,12,0:0:0:0:
247,245,2489,1,0,0:0:0:0:
120,309,2656,6,0,P|144:328|241:265,1,160,2|8,3:2|0:0,0:0:0:0:
234,88,3156,2,0,B|256:75|264:52|264:52|254:164,1,160,2|0,3:2|3:2,0:0:0:0:
145,141,3656,1,8,0:0:0:0:
264,52,3823,1,2,0:0:0:0:
71,46,3989,6,0,B|102:43|102:43|110:39|110:39|118:41|118:41|150:38,1,80,2|0,3:2|3:2,0:0:0:0:
244,27,4323,1,12,0:0:0:0:
254,163,4489,1,0,0:0:0:0:
447,157,4656,6,0,B|416:154|416:154|408:150|408:150|400:152|400:152|368:149,1,80,2|0,3:2|3:2,0:0:0:0:
274,138,4989,1,12,0:0:0:0:
264,274,5156,1,0,0:0:0:0:
79,256,5323,6,0,B|130:253|130:253|156:261|156:261|182:250|182:250|238:247,1,160,2|8,3:2|0:0,0:0:0:0:
395,306,5823,2,0,P|384:240|368:147,1,160,2|0,3:2|3:2,0:0:0:0:
339,15,6323,1,8,0:0:0:0:
274,138,6489,1,0,0:0:0:0:
447,71,6656,6,0,P|460:149|473:228,1,160,6|8,3:2|0:0,0:0:0:0:
275,325,7156,2,0,B|267:277|267:277|268:264|268:264|262:249|262:249|256:210|256:210|251:234|229:253,1,160,0|0,3:2|3:2,0:0:0:0:
144,103,7656,2,0,P|154:141|163:181,1,80,8|0,0:0|0:0,0:0:0:0:
50,350,7989,6,0,P|32:270|12:190,1,160,6|8,3:2|0:0,0:0:0:0:
119,24,8489,2,0,B|66:34|66:34|60:37|60:37|-3:49|-3:49|33:58,1,160,0|0,3:2|3:2,0:0:0:0:
163,181,8989,2,0,P|201:170|243:160,1,80,8|0,0:0|0:0,0:0:0:0:
347,28,9323,5,2,3:2:0:0:
336,123,9489,1,0,3:2:0:0:
326,218,9656,2,0,L|468:195,1,143.999995605469,12|0,0:0|0:0,0:0:0:0:
512,169,9989,5,2,3:2:0:0:
501,264,10156,1,0,3:2:0:0:
491,359,10323,2,0,L|349:382,1,143.999995605469,12|0,0:0|0:0,0:0:0:0:
295,366,10656,5,2,3:2:0:0:
102,307,10823,2,0,P|142:273|207:292,1,120,8|0,0:0|0:0,0:0:0:0:
203,328,11156,2,0,P|192:243|181:163,1,160,6|8,0:0|0:0,0:0:0:0:
206,132,11573,1,8,0:0:0:0:
206,132,11656,1,0,3:2:0:0:
65,47,11823,1,8,0:0:0:0:
10,226,11989,6,0,P|4:190|0:154,1,71.9999978027344,4|0,0:0|0:0,0:0:0:0:
65,47,12323,2,0,P|70:82|75:118,1,71.9999978027344,10|0,0:0|3:2,0:0:0:0:
221,24,12656,2,0,P|185:18|150:34,1,71.9999978027344,2|0,0:0|3:2,0:0:0:0:
300,97,12989,2,0,P|335:102|371:87,1,71.9999978027344,10|0,0:0|0:0,0:0:0:0:
438,8,13323,5,2,3:2:0:0:
492,104,13489,1,0,3:2:0:0:
368,89,13656,2,0,P|377:126|387:167,1,71.9999978027344,10|0,0:0|3:2,0:0:0:0:
293,303,13989,2,0,P|284:268|275:233,1,71.9999978027344,2|0,0:0|3:2,0:0:0:0:
413,271,14323,2,0,P|422:308|432:349,1,71.9999978027344,10|0,0:0|0:0,0:0:0:0:
275,233,14656,5,0,3:2:0:0:
300,331,14823,1,0,3:2:0:0:
140,315,14989,2,0,P|170:300|209:303,1,71.9999978027344,10|0,0:0|3:2,0:0:0:0:
81,255,15323,2,0,P|51:270|12:267,1,71.9999978027344,2|0,0:0|3:2,0:0:0:0:
20,100,15656,2,0,P|26:136|32:172,1,71.9999978027344,10|0,0:0|0:0,0:0:0:0:
139,117,15989,5,2,3:2:0:0:
91,22,16156,1,0,3:2:0:0:
201,30,16323,2,0,P|236:24|272:20,1,71.9999978027344,10|0,0:0|3:2,0:0:0:0:
403,91,16656,2,0,P|367:85|332:81,1,71.9999978027344,2|0,0:0|3:2,0:0:0:0:
468,44,16989,2,0,P|485:87|471:125,1,71.9999978027344,10|0,0:0|0:0,0:0:0:0:
435,237,17323,5,2,3:2:0:0:
318,158,17489,2,0,P|353:162|389:168,1,71.9999978027344,2|8,3:2|0:0,0:0:0:0:
209,135,17823,2,0,P|234:204|259:269,1,143.999995605469,2|0,3:2|3:2,0:0:0:0:
131,314,18323,2,0,P|118:280|105:246,1,71.9999978027344,10|0,0:0|0:0,0:0:0:0:
58,112,18656,5,2,3:2:0:0:
193,25,18823,2,0,P|156:22|120:21,1,71.9999978027344,2|8,3:2|0:0,0:0:0:0:
209,135,19156,2,0,P|280:137|352:142,1,143.999995605469,2|0,3:2|3:2,0:0:0:0:
491,220,19656,2,0,P|491:181|471:151,1,71.9999978027344,10|0,0:0|0:0,0:0:0:0:
328,277,19989,6,0,P|328:316|348:346,1,71.9999978027344,2|0,3:2|3:2,0:0:0:0:
419,202,20323,1,10,0:0:0:0:
512,340,20489,2,0,P|475:344|440:351,1,71.9999978027344,2|0,3:2|0:0,0:0:0:0:
328,277,20823,1,2,3:2:0:0:
419,202,20989,1,10,0:0:0:0:
328,277,21156,1,2,0:0:0:0:
201,149,21323,6,0,P|214:193|224:227,1,71.9999978027344,2|2,3:2|3:2,0:0:0:0:
328,277,21656,1,8,0:0:0:0:
170,375,21823,2,0,P|149:306|129:237,1,143.999995605469,2|0,3:2|3:2,0:0:0:0:
83,124,22323,1,8,0:0:0:0:
201,149,22489,1,0,0:0:0:0:
150,0,22656,6,0,P|163:44|173:78,1,71.9999978027344,4|0,3:2|3:2,0:0:0:0:
340,115,22989,2,0,P|329:80|319:45,1,71.9999978027344,10|0,0:0|3:2,0:0:0:0:
201,149,23323,2,0,P|214:193|224:227,1,71.9999978027344,2|0,0:0|3:2,0:0:0:0:
426,312,23656,2,0,B|410:262|410:262|406:263|406:263|389:210,1,107.999996704102,10|0,0:0|0:0,0:0:0:0:
380,187,23989,5,2,3:2:0:0:
405,49,24156,2,0,P|415:83|426:122,1,71.9999978027344,2|8,3:2|0:0,0:0:0:0:
508,251,24489,2,0,P|497:216|486:177,1,71.9999978027344,2|0,3:2|0:0,0:0:0:0:
512,91,24823,1,2,3:2:0:0:
380,187,24989,2,0,P|390:221|400:256,1,71.9999978027344,10|0,0:0|0:0,0:0:0:0:
201,307,25323,6,0,P|245:273|327:300,1,143.999995605469,2|8,3:2|0:0,0:0:0:0:
116,346,25823,2,0,B|118:290|118:290|122:279|122:279|120:266|120:266|123:202,1,143.999995605469,2|0,3:2|3:2,0:0:0:0:
33,55,26323,2,0,P|30:90|27:132,1,71.9999978027344,10|0,0:0|0:0,0:0:0:0:
146,15,26656,5,2,3:2:0:0:
219,95,26823,1,2,3:2:0:0:
308,33,26989,2,0,P|343:27|379:21,1,71.9999978027344,10|2,0:0|3:2,0:0:0:0:
487,117,27323,2,0,P|451:122|415:128,1,71.9999978027344,2|0,0:0|3:2,0:0:0:0:
323,149,27656,1,10,0:0:0:0:
379,21,27823,1,2,0:0:0:0:
466,198,27989,6,0,P|491:224|498:258,1,71.9999978027344,2|2,3:2|3:2,0:0:0:0:
437,333,28323,1,10,0:0:0:0:
273,271,28489,2,0,P|344:264|416:259,1,143.999995605469,2|2,3:2|3:2,0:0:0:0:
325,165,28989,2,0,P|289:167|253:170,1,71.9999978027344,10|0,0:0|0:0,0:0:0:0:
138,325,29323,6,0,P|126:293|134:251,1,71.9999978027344,2|0,3:2|3:2,0:0:0:0:
53,109,29656,2,0,P|65:141|57:183,1,71.9999978027344,10|0,0:0|3:2,0:0:0:0:
202,65,29989,2,0,P|164:62|128:60,1,71.9999978027344,2|0,0:0|3:2,0:0:0:0:
253,170,30323,1,10,0:0:0:0:
327,71,30489,1,2,0:0:0:0:
512,131,30656,6,0,B|481:134|481:134|473:138|473:138|465:136|465:136|433:139,1,80,2|0,3:2|3:2,0:0:0:0:
327,71,30989,1,12,0:0:0:0:
455,26,31156,1,0,0:0:0:0:
453,219,31323,6,0,B|422:222|422:222|414:226|414:226|406:224|406:224|374:227,1,80,2|0,3:2|3:2,0:0:0:0:
327,345,31656,1,12,0:0:0:0:
455,300,31823,1,0,0:0:0:0:
277,278,31989,6,0,P|249:319|335:311,1,160,10|0,3:2|0:0,0:0:0:0:
296,182,32489,2,0,B|250:177|216:192|227:203|200:223|143:217,1,160,6|0,0:0|0:0,0:0:0:0:
154,79,32989,1,10,0:0:0:0:
154,79,33073,1,8,0:0:0:0:
154,79,33156,1,2,3:2:0:0:
23,47,33323,6,0,P|85:29|148:74,1,143.999995605469,6|8,3:2|0:0,0:0:0:0:
90,254,33823,2,0,B|84:192|84:192|81:185|81:185|75:112,1,143.999995605469,2|2,3:2|3:2,0:0:0:0:
223,45,34323,1,10,0:0:0:0:
296,182,34489,1,2,0:0:0:0:
412,55,34656,6,0,P|410:94|410:134,1,71.9999978027344,2|0,3:2|3:2,0:0:0:0:
308,83,34989,1,8,0:0:0:0:
497,60,35156,1,0,3:2:0:0:
467,268,35323,2,0,B|411:265|411:265|395:260|395:260|379:263|379:263|315:260,1,143.999995605469,2|10,0:0|0:0,0:0:0:0:
221,254,35823,1,0,0:0:0:0:
114,363,35989,6,0,P|115:325|117:288,1,71.9999978027344,4|0,3:0|3:2,0:0:0:0:
36,142,36323,2,0,P|40:179|46:216,1,71.9999978027344,10|0,0:0|3:2,0:0:0:0:
98,51,36656,1,2,0:0:0:0:
242,126,36823,2,0,P|206:126|170:126,1,71.9999978027344,2|8,3:2|0:0,0:0:0:0:
281,33,37156,1,2,0:0:0:0:
429,194,37323,6,0,P|446:124|349:124,1,192,4|0,3:2|0:0,0:0:0:0:
324,288,37989,2,0,B|303:247|303:247|298:245|298:245|277:196|277:196|319:220,1,128,4|2,0:0|3:2,0:0:0:0:
352,119,38489,1,2,3:2:0:0:
512,222,38656,6,0,B|451:249|395:219|413:205|359:180|295:209,1,223.999993164063,6|8,0:0|0:0,0:0:0:0:
297,208,39656,1,2,0:0:0:0:
169,183,39823,1,2,0:0:0:0:
192,319,39989,6,0,P|184:270|172:199,1,111.999996582031,6|2,0:0|0:0,0:0:0:0:
152,79,40489,1,0,3:2:0:0:
39,176,40656,2,0,P|65:159|82:129,1,55.9999982910157,10|0,0:0|0:0,0:0:0:0:
1,47,40989,2,0,P|-1:74|6:101,1,55.9999982910157,2|0,3:2|3:2,0:0:0:0:
152,79,41323,6,0,P|227:73|313:66,1,160,10|4,0:0|3:2,0:0:0:0:
463,124,41823,1,0,0:0:0:0:
359,0,41989,1,8,0:0:0:0:
289,155,42156,2,0,P|249:158|209:161,1,80,0|0,3:2|3:2,0:0:0:0:
37,271,42489,6,0,B|109:266|109:266|113:270|113:270|200:264,1,160,4|0,0:0|3:2,0:0:0:0:
374,356,42989,2,0,P|361:317|347:279,1,80,12|0,0:0|0:0,0:0:0:0:
423,139,43323,2,0,P|436:176|449:214,1,80,8|2,0:0|0:0,0:0:0:0:
490,316,43656,1,2,3:2:0:0:
512,151,43823,1,2,3:2:0:0:
363,202,43989,5,4,0:0:0:0:
476,60,44156,1,8,0:0:0:0:
310,24,44323,1,8,0:0:0:0:
287,11,44656,5,8,0:0:0:0:
453,47,44823,1,0,3:2:0:0:
356,71,44989,1,0,3:2:0:0:
199,114,45156,6,0,P|118:112|36:109,1,160,12|0,0:0|3:2,0:0:0:0:
125,15,45656,1,8,0:0:0:0:
205,192,45823,1,0,3:2:0:0:
205,192,46156,6,0,B|200:228|200:228|196:239|196:239|198:251|198:251|192:303,1,100,2|0,0:0|0:0,0:0:0:0:
190,330,46656,6,0,P|230:325|272:320,1,80,6|2,3:2|3:2,0:0:0:0:
393,337,46989,1,8,0:0:0:0:
352,149,47156,2,0,B|362:223|362:223|361:228|361:228|373:312,1,160,2|2,3:2|3:2,0:0:0:0:
469,200,47656,1,10,0:0:0:0:
469,200,47989,6,0,P|462:161|456:117,1,80,2|2,3:2|3:2,0:0:0:0:
441,20,48323,1,8,0:0:0:0:
261,51,48489,2,0,P|343:41|422:33,1,160,2|2,3:2|3:2,0:0:0:0:
352,149,48989,1,10,0:0:0:0:
261,51,49156,1,2,0:0:0:0:
123,166,49323,6,0,P|161:176|201:161,1,80,2|0,3:2|3:2,0:0:0:0:
98,68,49656,1,10,0:0:0:0:
102,246,49823,2,0,P|95:166|88:79,1,160,2|2,3:2|3:2,0:0:0:0:
0,27,50323,2,0,P|3:68|7:112,1,80,8|2,0:0|0:0,0:0:0:0:
102,246,50656,6,0,P|88:201|59:181,1,80,2|2,3:2|3:2,0:0:0:0:
18,328,50989,1,10,0:0:0:0:
183,256,51156,2,0,B|124:253|124:253|108:248|108:248|91:251|91:251|24:248,1,160,2|2,3:2|3:2,0:0:0:0:
142,156,51656,1,10,0:0:0:0:
183,256,51823,1,2,0:0:0:0:
337,175,51989,6,0,P|298:180|258:185,1,80,6|2,3:2|3:2,0:0:0:0:
340,77,52323,1,8,0:0:0:0:
496,80,52489,2,0,P|416:87|330:97,1,160,2|2,3:2|3:2,0:0:0:0:
465,169,52989,1,10,0:0:0:0:
389,9,53156,1,2,0:0:0:0:
337,175,53323,6,0,P|298:180|258:185,1,80,2|2,3:2|3:2,0:0:0:0:
142,156,53656,1,8,0:0:0:0:
94,322,53823,2,0,B|63:288|63:288|57:248|57:248|53:239|53:239|54:227|54:227|46:168,1,160,2|2,3:2|3:2,0:0:0:0:
138,30,54323,1,10,0:0:0:0:
38,95,54489,1,2,0:0:0:0:
142,156,54656,6,0,B|173:272|173:272|171:251|181:230,1,160,2|10,3:2|0:0,0:0:0:0:
367,322,55156,2,0,P|292:331|255:266,1,160,2|2,3:2|3:2,0:0:0:0:
359,178,55656,1,8,0:0:0:0:
464,258,55823,1,2,0:0:0:0:
474,159,55989,6,0,P|481:198|490:244,1,80,0|2,3:2|3:2,0:0:0:0:
359,178,56323,2,0,P|351:138|344:99,1,80,10|2,0:0|3:2,0:0:0:0:
454,27,56656,1,2,0:0:0:0:
474,159,56823,1,2,3:2:0:0:
330,18,56989,2,0,P|293:32|251:26,1,80,8|2,0:0|0:0,0:0:0:0:
70,70,57323,6,0,B|101:73|101:73|109:77|109:77|117:75|117:75|149:78,1,80,2|0,3:2|3:2,0:0:0:0:
254,27,57656,1,14,0:0:0:0:
252,161,57823,1,2,0:0:0:0:
437,170,57989,6,0,B|406:173|406:173|398:177|398:177|390:175|390:175|358:178,1,80,0|2,3:2|3:2,0:0:0:0:
226,142,58323,1,12,0:0:0:0:
228,276,58489,1,2,0:0:0:0:
0,191,58656,6,0,P|65:165|136:234,1,160,2|8,3:2|0:0,0:0:0:0:
77,362,59156,2,0,B|58:241|58:241|65:260|87:274,1,160,2|0,3:2|3:2,0:0:0:0:
242,354,59656,2,0,P|234:313|227:275,1,80,8|2,0:0|0:0,0:0:0:0:
280,119,59989,6,0,B|285:150|285:150|284:158|284:158|289:166|289:166|294:197,1,80,2|0,3:2|3:2,0:0:0:0:
384,299,60323,1,12,0:0:0:0:
442,180,60489,1,2,0:0:0:0:
476,353,60656,6,0,B|470:322|470:322|465:314|465:314|466:306|466:306|461:274,1,80,0|2,3:2|3:2,0:0:0:0:
438,147,60989,1,12,0:0:0:0:
307,173,61156,1,2,0:0:0:0:
296,0,61323,6,0,P|309:64|330:172,1,160,4|10,3:2|0:0,0:0:0:0:
160,258,61823,2,0,P|152:197|234:145,1,160,2|0,3:2|3:2,0:0:0:0:
263,249,62323,1,8,3:2:0:0:
80,157,62489,1,0,3:2:0:0:
39,345,62656,6,0,P|30:304|21:264,1,80,6|2,3:2|3:2,0:0:0:0:
80,157,62989,1,8,0:0:0:0:
0,38,63156,2,0,P|51:41|84:153,1,160,2|2,3:2|3:2,0:0:0:0:
22,267,63656,1,10,0:0:0:0:
22,267,63989,6,0,P|61:258|101:249,1,80,2|2,3:2|3:2,0:0:0:0:
180,190,64323,1,8,0:0:0:0:
223,356,64489,2,0,B|192:259|192:259|210:190,1,160,2|2,3:2|3:2,0:0:0:0:
250,117,64989,1,10,0:0:0:0:
307,256,65156,1,2,0:0:0:0:
473,153,65323,6,0,P|434:147|399:165,1,80,2|0,3:2|3:2,0:0:0:0:
456,239,65656,1,10,0:0:0:0:
493,80,65823,2,0,P|418:72|344:115,1,160,2|2,3:2|3:2,0:0:0:0:
307,256,66323,2,0,P|316:219|299:172,1,80,8|2,0:0|0:0,0:0:0:0:
127,208,66656,6,0,P|166:204|210:202,1,80,2|2,3:2|3:2,0:0:0:0:
104,112,66989,1,8,0:0:0:0:
1,290,67156,2,0,B|47:269|88:288|74:295|105:316|157:300,1,160,2|2,3:2|3:2,0:0:0:0:
127,208,67656,1,10,0:0:0:0:
179,384,67823,1,2,0:0:0:0:
334,315,67989,6,0,P|294:312|254:310,1,80,6|2,3:2|3:2,0:0:0:0:
155,300,68323,1,8,0:0:0:0:
299,215,68489,2,0,B|346:218|346:218|350:220|350:220|412:225|412:225|363:187,1,160,2|2,3:2|3:2,0:0:0:0:
323,78,68989,1,10,0:0:0:0:
457,101,69156,1,2,0:0:0:0:
331,5,69323,6,0,P|333:44|337:84,1,80,2|2,3:2|3:2,0:0:0:0:
299,215,69656,1,8,0:0:0:0:
166,106,69823,2,0,B|187:75|187:75|198:206,1,160,2|2,3:2|3:2,0:0:0:0:
40,319,70323,2,0,P|36:278|32:237,1,80,8|2,0:0|0:0,0:0:0:0:
73,124,70656,6,0,P|93:171|116:187,1,80,2|0,3:2|3:2,0:0:0:0:
166,106,70989,1,10,0:0:0:0:
337,147,71156,2,0,P|261:140|176:133,1,160,2|2,3:2|3:2,0:0:0:0:
269,42,71656,1,8,0:0:0:0:
337,147,71823,1,2,0:0:0:0:
492,70,71989,6,0,P|452:70|402:70,1,80,0|2,3:2|3:2,0:0:0:0:
312,233,72323,2,0,P|351:226|391:220,1,80,10|2,0:0|3:2,0:0:0:0:
497,195,72656,1,2,0:0:0:0:
337,147,72823,1,2,3:2:0:0:
408,306,72989,2,0,P|368:312|328:318,1,80,8|2,0:0|0:0,0:0:0:0:
113,274,73323,6,0,B|144:269|144:269|152:270|152:270|160:265|160:265|191:260,1,80,2|0,3:2|3:2,0:0:0:0:
312,233,73656,1,14,0:0:0:0:
214,339,73823,1,2,0:0:0:0:
85,193,73989,6,0,B|116:188|116:188|124:189|124:189|132:184|132:184|163:179,1,80,0|2,3:2|3:2,0:0:0:0:
295,148,74323,1,12,0:0:0:0:
159,97,74489,1,2,0:0:0:0:
35,259,74656,6,0,P|20:181|7:102,1,160,2|8,3:2|0:0,0:0:0:0:
170,10,75156,2,0,B|114:22|114:22|107:20|107:20|48:34|48:34|90:39,1,160,2|0,3:2|3:2,0:0:0:0:
235,73,75656,2,0,P|198:84|155:98,1,80,8|2,0:0|0:0,0:0:0:0:
177,257,75989,6,0,B|172:226|172:226|173:218|173:218|168:210|168:210|163:179,1,80,2|0,3:2|3:2,0:0:0:0:
235,73,76323,1,14,0:0:0:0:
314,177,76489,1,2,0:0:0:0:
451,97,76656,6,0,B|456:128|456:128|455:136|455:136|460:144|460:144|465:175,1,80,0|2,3:2|3:2,0:0:0:0:
393,281,76989,1,12,0:0:0:0:
314,177,77156,1,2,0:0:0:0:
327,361,77323,6,0,P|314:288|300:203,1,160,6|8,3:2|0:0,0:0:0:0:
285,73,77823,1,2,3:2:0:0:
118,149,77989,2,0,P|157:144|197:141,1,80,2|0,0:0|3:0,0:0:0:0:
120,256,78323,2,0,P|80:251|40:248,1,80,10|0,0:0|0:0,0:0:0:0:
40,71,78656,6,0,P|120:63|200:56,1,160,6|10,0:0|0:0,0:0:0:0:
363,39,79156,1,0,3:2:0:0:
366,171,79323,2,0,P|359:131|350:85,1,80,10|0,0:0|3:2,0:0:0:0:
498,5,79656,2,0,P|505:45|514:91,1,80,10|0,0:0|3:2,0:0:0:0:
366,171,79989,6,0,P|402:156|447:167,1,80,6|0,0:0|3:2,0:0:0:0:
301,284,80323,2,0,P|265:299|220:288,1,80,10|0,0:0|3:2,0:0:0:0:
76,228,80656,2,0,P|85:267|96:308,1,80,10|0,0:0|3:2,0:0:0:0:
172,169,80989,2,0,P|161:130|152:91,1,80,10|0,0:0|3:2,0:0:0:0:
331,14,81323,6,0,P|346:87|366:171,1,160,6|8,0:0|0:0,0:0:0:0:
301,284,81823,1,0,3:2:0:0:
462,175,81989,1,8,0:0:0:0:
265,116,82156,2,0,P|272:152|282:194,1,80,2|8,3:2|0:0,0:0:0:0:
427,339,82489,6,0,B|384:325|339:347|356:354|322:376|274:362,1,160,6|0,0:0|3:2,0:0:0:0:
179,259,82989,1,8,0:0:0:0:
85,358,83156,1,0,0:0:0:0:
172,177,83323,1,8,3:2:0:0:
185,350,83489,1,8,3:2:0:0:
25,275,83656,1,8,3:2:0:0:
179,259,83823,1,8,3:2:0:0:
131,73,83989,6,0,P|144:150|158:232,1,160,6|8,0:0|0:0,0:0:0:0:
274,362,84489,2,0,P|268:323|261:283,1,80,0|8,3:2|0:0,0:0:0:0:
245,180,84823,1,0,3:2:0:0:
352,331,84989,1,8,0:0:0:0:
185,350,85156,1,8,0:0:0:0:
322,210,85323,6,0,P|323:152|240:97,1,160,6|8,0:0|0:0,0:0:0:0:
52,84,85823,2,0,P|91:78|132:72,1,80,0|0,0:0|3:2,0:0:0:0:
204,7,86156,1,0,3:2:0:0:
245,180,86323,1,8,0:0:0:0:
245,180,86656,6,0,P|200:186|156:193,1,90.0000034332277,2|0,3:2|0:0,0:0:0:0:
119,177,86989,2,0,B|130:234|130:234|132:237|132:237|143:297,1,120,12|0,0:0|0:0,0:0:0:0:
164,316,87323,6,0,P|119:322|75:329,1,90.0000034332277,2|0,3:2|0:0,0:0:0:0:
38,313,87656,2,0,B|27:255|27:255|25:253|25:253|13:195,1,120,4|0,0:0|0:0,0:0:0:0:
5,156,87989,5,6,3:2:0:0:
155,193,88156,1,2,3:2:0:0:
92,108,88323,1,0,3:2:0:0:
229,81,88489,6,0,B|170:64|170:64|155:54|155:54|134:56|134:56|62:38|62:38|93:54|102:99,1,240,14|0,0:0|0:0,0:0:0:0:
