osu file format v14

[General]
AudioFilename: audio.mp3
AudioLeadIn: 0
PreviewTime: 45953
Countdown: 0
SampleSet: Soft
StackLeniency: 0.7
Mode: 0
LetterboxInBreaks: 0
WidescreenStoryboard: 1

[Editor]
DistanceSpacing: 1.2
BeatDivisor: 4
GridSize: 8
TimelineZoom: 2.999999

[Metadata]
Title:Jiriki Hongan Revolution (TV Size)
TitleUnicode:自力本願レボリューション (TV Size)
Artist:3 Nen E Gumi Utatan
ArtistUnicode:3年E組うた担
Creator:Blitzifyyy
Version:Target On!
Source:暗殺教室
Tags:Mocaotic Cris- Wolf3211 Shiota 潮田 Fuchigami Mai 渕上 舞 Kaede カエデ Suzaki Aya 洲崎 綾 Akabane Karma Karuma 赤羽 Okamoto Nobuhiko 岡本 信彦 Yuuma 悠馬 Osaka Ryota Ryōta Ōsaka Ohsaka 逢坂 良太 Hiroto 陽斗 Asanuma Shintaro 浅沼 晋太郎 Ansatsu Kyoushitsu Assassination Classroom Season One Japanese Anime 渚 茅野 業 磯貝 前原 Nagisa Kayano Karuma Isogai Maehara
BeatmapID:2217569
BeatmapSetID:1013091

[Difficulty]
HPDrainRate:6
CircleSize:4
OverallDifficulty:8.5
ApproachRate:9.2
SliderMultiplier:1.8
SliderTickRate:1

[Events]
//Background and Video events
0,0,"bg.png",0,0
Video,-80,"Jiriki+Hongan+Revolution.mp4"
//Break Periods
//Storyboard Layer 0 (Background)
//Storyboard Layer 1 (Fail)
//Storyboard Layer 2 (Pass)
//Storyboard Layer 3 (Foreground)
//Storyboard Layer 4 (Overlay)
//Storyboard Sound Samples

[TimingPoints]
-10,333.333333333333,4,2,1,70,1,0
156,-166.666666666667,4,2,1,70,0,0
1323,-250,4,2,1,70,0,0
1573,-250,4,2,1,5,0,0
1656,-83.3333333333333,4,2,1,70,0,0
1989,-250,4,2,1,70,0,0
2239,-250,4,2,1,5,0,0
2323,-83.3333333333333,4,2,1,70,0,0
2656,-100,4,2,1,70,0,0
3989,-250,4,2,1,70,0,0
4239,-250,4,2,1,5,0,0
4323,-83.3333333333333,4,2,1,70,0,0
4656,-250,4,2,1,70,0,0
4906,-250,4,2,1,5,0,0
4989,-83.3333333333333,4,2,1,70,0,0
5323,-100,4,2,1,70,0,0
9323,-250,4,2,1,70,0,0
9572,-100,4,2,1,5,0,0
9573,-250,4,2,1,5,0,0
9656,-83.3333333333333,4,2,1,70,0,0
9906,-83.3333333333333,4,2,1,5,0,0
9989,-250,4,2,1,70,0,0
10239,-250,4,2,1,5,0,0
10323,-83.3333333333333,4,2,1,70,0,0
10573,-83.3333333333333,4,2,1,5,0,0
10656,-83.3333333333333,4,2,1,70,0,0
11073,-83.3333333333333,4,2,1,5,0,0
11156,-83.3333333333333,4,2,1,70,0,0
11989,-100,4,2,1,60,0,0
13239,-100,4,2,1,5,0,0
13323,-100,4,2,1,60,0,0
15906,-100,4,2,1,5,0,0
15989,-100,4,2,1,60,0,0
19906,-100,4,2,1,5,0,0
19989,-100,4,2,1,60,0,0
23906,-100,4,2,1,5,0,0
23989,-100,4,2,1,60,0,0
24989,-83.3333333333333,4,2,1,60,0,0
25322,-100,4,2,1,60,0,0
26322,-83.3333333333333,4,2,1,60,0,0
26656,-100,4,2,1,60,0,0
30656,-250,4,2,1,70,0,0
30906,-250,4,2,1,5,0,0
30989,-83.3333333333333,4,2,1,70,0,0
31323,-250,4,2,1,70,0,0
31573,-250,4,2,1,5,0,0
31656,-83.3333333333333,4,2,1,70,0,0
33323,-125,4,2,1,60,0,0
41323,-100,4,2,1,70,0,0
46156,-250,4,2,1,70,0,0
46573,-100,4,2,1,5,0,0
46656,-83.3333333333333,4,2,1,85,0,1
57323,-250,4,2,1,85,0,1
57573,-250,4,2,1,5,0,1
57656,-83.3333333333333,4,2,1,85,0,1
57989,-250,4,2,1,85,0,1
58239,-250,4,2,1,5,0,1
58323,-83.3333333333333,4,2,1,85,0,1
59989,-250,4,2,1,85,0,1
60239,-250,4,2,1,5,0,1
60323,-83.3333333333333,4,2,1,85,0,1
60656,-250,4,2,1,85,0,1
60906,-250,4,2,1,5,0,1
60989,-83.3333333333333,4,2,1,85,0,1
62573,-83.3333333333333,4,2,1,85,0,0
62656,-83.3333333333333,4,2,1,85,0,1
73323,-250,4,2,1,85,0,1
73573,-250,4,2,1,5,0,1
73656,-83.3333333333333,4,2,1,85,0,1
73989,-250,4,2,1,85,0,1
74239,-250,4,2,1,5,0,1
74323,-83.3333333333333,4,2,1,85,0,1
75989,-250,4,2,1,85,0,1
76239,-250,4,2,1,5,0,1
76323,-83.3333333333333,4,2,1,85,0,1
76656,-250,4,2,1,85,0,1
76906,-250,4,2,1,5,0,1
76989,-83.3333333333333,4,2,1,85,0,1
78573,-86.9565217391304,4,2,1,5,0,0
78656,-66.6666666666667,4,2,1,85,0,1
83989,-100,4,2,1,70,0,0
86656,-250,4,2,1,70,0,0
86906,-250,4,2,1,5,0,0
86989,-83.3333333333333,4,2,1,70,0,0
87239,-83.3333333333333,4,2,1,5,0,0
87323,-250,4,2,1,70,0,0
87573,-250,4,2,1,5,0,0
87656,-83.3333333333333,4,2,1,70,0,0
87906,-83.3333333333333,4,2,1,5,0,0
87989,-83.3333333333333,4,2,1,70,0,0
88906,-83.3333333333333,4,2,1,45,0,0

[Colours]
Combo1 : 255,223,128
Combo2 : 159,207,255
Combo3 : 255,145,145
Combo4 : 187,255,187

[HitObjects]
390,78,156,6,0,P|423:72|448:76,2,53.9999983520508,0|0|0,0:0|0:0|0:0,0:0:0:0:
331,201,656,1,0,3:2:0:0:
337,8,823,1,8,0:0:0:0:
337,8,906,1,8,0:0:0:0:
337,8,989,1,0,3:2:0:0:
422,147,1156,1,2,3:2:0:0:
224,90,1323,6,0,P|194:81|168:94,1,54,6|0,0:0|0:0,0:0:0:0:
173,88,1656,6,0,P|223:63|272:90,1,107.999996704102,12|0,0:0|0:0,0:0:0:0:
355,191,1989,6,0,P|364:221|351:247,1,54,2|0,3:2|0:0,0:0:0:0:
356,241,2323,6,0,P|381:190|354:141,1,107.999996704102,12|0,0:0|0:0,0:0:0:0:
282,6,2656,5,2,3:2:0:0:
292,193,2823,1,0,3:2:0:0:
382,68,2989,1,8,0:0:0:0:
203,176,3156,2,0,B|113:217|113:146|20:175,1,180,2|0,3:2|3:2,0:0:0:0:
133,27,3656,2,0,P|156:68|154:113,1,90,8|2,0:0|0:0,0:0:0:0:
53,247,3989,6,0,P|23:256|-3:243,1,54,2|0,3:2|0:0,0:0:0:0:
2,248,4323,6,0,P|52:273|101:246,1,107.999996704102,12|0,0:0|0:0,0:0:0:0:
184,146,4656,6,0,P|193:116|180:90,1,54,2|0,3:2|0:0,0:0:0:0:
185,95,4989,6,0,P|210:145|183:194,1,107.999996704102,12|0,0:0|0:0,0:0:0:0:
137,332,5323,5,2,3:2:0:0:
127,149,5489,1,0,3:2:0:0:
37,270,5656,1,8,0:0:0:0:
217,206,5823,2,0,B|266:196|266:196|298:210|298:210|341:197|400:211,1,180,2|0,3:2|3:2,0:0:0:0:
266,368,6323,2,0,L|258:274,1,90,8|0,0:0|0:0,0:0:0:0:
362,123,6656,6,0,L|354:217,1,90,6|0,3:2|3:2,0:0:0:0:
345,316,6989,1,8,0:0:0:0:
447,128,7156,2,0,L|429:330,1,180,0|0,3:2|3:2,0:0:0:0:
275,351,7656,1,8,0:0:0:0:
354,212,7823,1,0,0:0:0:0:
90,281,7989,6,0,L|184:273,1,90,6|0,3:2|3:2,0:0:0:0:
283,264,8323,1,8,0:0:0:0:
95,366,8489,2,0,L|297:347,1,180,0|0,3:2|3:2,0:0:0:0:
398,261,8989,1,8,0:0:0:0:
268,184,9156,1,0,0:0:0:0:
423,110,9323,6,0,P|453:101|479:114,1,54,2|0,3:2|0:0,0:0:0:0:
473,108,9656,6,0,P|423:83|374:110,1,107.999996704102,12|0,0:0|0:0,0:0:0:0:
290,238,9989,6,0,P|281:268|294:294,1,54,2|0,3:2|0:0,0:0:0:0:
289,289,10323,6,0,P|264:239|291:190,1,107.999996704102,12|0,0:0|0:0,0:0:0:0:
344,55,10656,5,2,3:2:0:0:
350,237,10823,1,8,0:0:0:0:
179,137,10989,1,0,0:0:0:0:
421,277,11156,2,0,P|351:319|313:310,1,107.999996704102,6|0,0:0|0:0,0:0:0:0:
196,274,11489,1,8,0:0:0:0:
308,72,11656,1,0,3:2:0:0:
350,237,11823,1,8,0:0:0:0:
221,150,11989,5,4,0:0:0:0:
386,108,12156,1,0,0:0:0:0:
152,105,12323,2,0,P|138:157|162:207,1,90,10|0,0:0|3:2,0:0:0:0:
193,348,12656,2,0,P|207:296|183:246,1,90,2|0,0:0|3:2,0:0:0:0:
2,301,12989,2,0,B|71:272|71:326|145:300,1,135,10|0,0:0|0:0,0:0:0:0:
133,303,13323,5,2,3:2:0:0:
55,168,13489,1,0,3:2:0:0:
37,368,13656,1,10,0:0:0:0:
152,205,13823,1,0,3:2:0:0:
152,205,13989,2,0,L|244:207,1,90,2|0,0:0|3:2,0:0:0:0:
337,313,14323,2,0,L|245:315,1,90,10|0,0:0|0:0,0:0:0:0:
407,223,14656,5,0,3:2:0:0:
408,363,14823,1,0,3:2:0:0:
450,153,14989,2,0,P|404:142|358:157,1,90,10|0,0:0|3:2,0:0:0:0:
193,197,15323,2,0,P|239:208|285:193,1,90,2|0,0:0|3:2,0:0:0:0:
246,0,15656,2,0,B|243:43|243:43|247:58|247:58|238:134,1,135,10|0,0:0|0:0,0:0:0:0:
238,133,15989,5,2,3:2:0:0:
171,10,16156,1,0,3:2:0:0:
370,74,16323,1,10,0:0:0:0:
193,197,16489,2,0,L|100:195,1,90,0|2,3:2|0:0,0:0:0:0:
8,97,16823,1,0,3:2:0:0:
8,97,16989,2,0,L|101:95,1,90,10|0,0:0|0:0,0:0:0:0:
233,47,17323,5,2,3:2:0:0:
233,47,17489,2,0,P|222:95|235:132,1,90,2|8,3:2|0:0,0:0:0:0:
282,286,17823,2,0,P|293:238|280:201,1,90,2|0,3:2|0:0,0:0:0:0:
233,47,18156,1,0,3:2:0:0:
357,125,18323,2,0,L|468:123,1,90,10|0,0:0|0:0,0:0:0:0:
279,200,18656,5,2,3:2:0:0:
279,200,18823,2,0,L|168:198,1,90,2|8,3:2|0:0,0:0:0:0:
59,99,19156,2,0,L|170:97,1,90,2|0,3:2|0:0,0:0:0:0:
87,234,19489,1,0,3:2:0:0:
219,63,19656,2,0,B|244:133|193:133|220:204,1,135,10|0,0:0|0:0,0:0:0:0:
216,194,19989,5,2,3:2:0:0:
364,140,20156,1,0,3:2:0:0:
148,97,20323,1,10,0:0:0:0:
303,1,20489,2,0,L|400:4,1,90,2|0,3:2|0:0,0:0:0:0:
453,137,20823,1,2,3:2:0:0:
453,137,20989,2,0,L|356:140,1,90,10|2,0:0|0:0,0:0:0:0:
198,118,21323,5,2,3:2:0:0:
303,1,21489,1,2,3:2:0:0:
339,213,21656,1,8,0:0:0:0:
220,32,21823,2,0,L|125:36,1,90,2|0,3:2|0:0,0:0:0:0:
22,134,22156,1,0,3:2:0:0:
22,134,22323,2,0,L|117:138,1,90,8|0,0:0|0:0,0:0:0:0:
266,193,22656,5,4,3:2:0:0:
220,32,22823,1,0,3:2:0:0:
325,251,22989,2,0,P|284:272|235:268,1,90,10|0,0:0|3:2,0:0:0:0:
203,131,23323,2,0,P|244:110|293:114,1,90,2|0,0:0|3:2,0:0:0:0:
120,243,23656,2,0,B|146:172|93:172|115:105,1,135,10|0,0:0|0:0,0:0:0:0:
113,113,23989,5,2,3:2:0:0:
266,193,24156,2,0,L|359:191,1,90,2|8,3:2|0:0,0:0:0:0:
467,290,24489,2,0,L|374:288,1,90,2|0,3:2|0:0,0:0:0:0:
255,173,24823,1,2,3:2:0:0:
255,173,24989,2,0,L|375:170,1,107.999996704102,10|0,0:0|0:0,0:0:0:0:
203,261,25323,6,0,B|158:259|158:259|136:273|136:273|11:270,1,180,2|8,3:2|0:0,0:0:0:0:
181,342,25823,2,0,B|225:343|225:343|248:330|248:330|373:333,1,180,2|0,3:2|3:2,0:0:0:0:
467,290,26323,2,0,P|484:244|464:189,1,107.999996704102,10|0,0:0|0:0,0:0:0:0:
399,96,26656,5,2,3:2:0:0:
399,243,26823,1,2,3:2:0:0:
494,86,26989,1,10,0:0:0:0:
329,169,27156,1,2,3:2:0:0:
355,16,27323,1,2,0:0:0:0:
454,167,27489,1,0,3:2:0:0:
283,80,27656,2,0,L|186:82,1,90,10|2,0:0|0:0,0:0:0:0:
38,12,27989,6,0,L|135:14,2,90,2|2|10,3:2|3:2|0:0,0:0:0:0:
35,192,28489,2,0,P|53:153|44:102,1,90,2|0,3:2|0:0,0:0:0:0:
100,250,28823,1,2,3:2:0:0:
100,250,28989,2,0,P|82:289|91:340,1,90,10|0,0:0|0:0,0:0:0:0:
251,292,29323,6,0,L|159:295,1,90,2|0,3:2|3:2,0:0:0:0:
289,379,29656,2,0,L|381:382,1,90,10|0,0:0|3:2,0:0:0:0:
469,270,29989,1,2,0:0:0:0:
512,384,30156,1,0,3:2:0:0:
385,235,30323,2,0,L|292:237,1,90,10|2,0:0|0:0,0:0:0:0:
123,340,30656,6,0,P|153:331|179:344,1,54,2|0,3:2|0:0,0:0:0:0:
173,338,30989,6,0,P|148:288|175:239,1,107.999996704102,12|0,0:0|0:0,0:0:0:0:
279,91,31323,6,0,P|287:121|274:147,1,54,2|0,3:2|0:0,0:0:0:0:
278,141,31656,6,0,P|328:116|377:143,1,107.999996704102,12|0,0:0|0:0,0:0:0:0:
64,206,31989,5,10,3:2:0:0:
179,68,32156,1,8,0:0:0:0:
245,291,32323,1,0,0:0:0:0:
20,128,32489,2,0,B|130:94|130:183|237:136,1,215.999993408203,6|0,0:0|0:0,0:0:0:0:
64,206,32989,1,10,0:0:0:0:
64,206,33073,1,8,0:0:0:0:
64,206,33156,1,2,3:2:0:0:
179,68,33323,6,0,P|230:54|304:103,1,144,6|8,3:2|0:0,0:0:0:0:
304,244,33823,2,0,L|302:96,1,144,2|2,3:2|3:2,0:0:0:0:
437,48,34323,2,0,P|402:57|356:47,1,72,10|2,0:0|0:0,0:0:0:0:
512,20,34656,6,0,B|531:84|484:84|504:165,1,144,2|8,3:2|0:0,0:0:0:0:
507,274,35156,1,0,3:2:0:0:
507,274,35323,2,0,L|430:272,1,72,2|0,0:0|3:2,0:0:0:0:
322,191,35656,2,0,L|399:189,1,72,10|0,0:0|0:0,0:0:0:0:
311,292,35989,6,0,L|234:290,1,72,4|0,3:0|3:2,0:0:0:0:
126,209,36323,2,0,L|203:207,1,72,10|0,0:0|3:2,0:0:0:0:
47,276,36656,1,2,0:0:0:0:
123,133,36823,1,2,3:2:0:0:
76,356,36989,2,0,P|33:362|-5:349,1,72,8|2,0:0|0:0,0:0:0:0:
139,244,37323,5,4,3:2:0:0:
180,384,37489,1,0,3:2:0:0:
270,302,37656,2,0,L|348:304,1,72,8|0,0:0|0:0,0:0:0:0:
455,363,37989,1,4,0:0:0:0:
477,172,38156,1,0,3:2:0:0:
368,209,38323,1,2,3:2:0:0:
464,274,38489,1,2,3:2:0:0:
369,128,38656,6,0,P|319:141|288:229,1,144,6|0,0:0|0:0,0:0:0:0:
296,337,39156,1,0,3:2:0:0:
186,265,39323,2,0,P|151:258|100:269,1,72,8|0,0:0|0:0,0:0:0:0:
0,228,39656,1,2,0:0:0:0:
33,363,39823,1,2,0:0:0:0:
85,160,39989,6,0,L|173:163,1,72,6|0,0:0|0:0,0:0:0:0:
284,72,40323,2,0,L|196:75,1,72,2|0,0:0|3:2,0:0:0:0:
324,193,40656,1,10,0:0:0:0:
512,96,40823,1,0,0:0:0:0:
510,213,40989,1,2,3:2:0:0:
424,136,41156,1,0,3:2:0:0:
343,316,41323,6,0,L|250:315,1,90,10|0,0:0|0:0,0:0:0:0:
126,217,41656,2,0,L|219:216,1,90,4|0,3:2|0:0,0:0:0:0:
54,326,41989,1,8,0:0:0:0:
73,140,42156,1,0,3:2:0:0:
182,289,42323,1,0,3:2:0:0:
24,70,42489,6,0,B|113:29|113:105|202:66,1,180,4|0,0:0|3:2,0:0:0:0:
90,221,42989,1,12,0:0:0:0:
156,4,43156,1,0,0:0:0:0:
12,138,43323,1,8,0:0:0:0:
232,87,43489,1,2,0:0:0:0:
45,30,43656,1,2,3:2:0:0:
200,195,43823,1,2,3:2:0:0:
200,195,44156,5,8,0:0:0:0:
395,57,44323,1,8,0:0:0:0:
395,57,44656,5,8,0:0:0:0:
200,195,44823,1,0,3:2:0:0:
202,0,44989,1,0,3:2:0:0:
374,190,45156,6,0,B|288:230|288:156|193:197,1,180,12|0,0:0|3:2,0:0:0:0:
66,282,45656,1,8,0:0:0:0:
65,65,45823,1,0,3:2:0:0:
65,65,46156,6,0,L|66:157,1,90,2|0,0:0|0:0,0:0:0:0:
65,154,46656,6,0,P|122:139|179:151,1,107.999996704102,6|2,3:2|3:2,0:0:0:0:
124,229,46989,1,8,0:0:0:0:
178,57,47156,2,0,P|228:86|260:135,1,107.999996704102,2|0,3:2|0:0,0:0:0:0:
124,229,47489,1,2,3:2:0:0:
326,68,47656,2,0,P|341:125|329:182,1,107.999996704102,10|0,0:0|0:0,0:0:0:0:
260,300,47989,5,2,3:2:0:0:
257,126,48156,1,2,3:2:0:0:
393,235,48323,1,8,0:0:0:0:
268,44,48489,2,0,P|218:49|179:94,1,107.999996704102,2|0,3:2|0:0,0:0:0:0:
139,240,48823,1,2,3:2:0:0:
70,55,48989,1,10,0:0:0:0:
0,169,49156,1,2,0:0:0:0:
153,0,49323,6,0,L|267:1,1,107.999996704102,2|0,3:2|3:2,0:0:0:0:
356,91,49656,1,10,0:0:0:0:
356,91,49823,2,0,L|242:92,1,107.999996704102,2|0,3:2|0:0,0:0:0:0:
434,39,50156,2,0,P|449:93|416:162,1,107.999996704102,2|8,3:2|0:0,0:0:0:0:
369,246,50489,1,2,0:0:0:0:
195,179,50656,5,2,3:2:0:0:
356,91,50823,1,2,3:2:0:0:
265,269,50989,1,10,0:0:0:0:
219,68,51156,2,0,L|105:72,1,107.999996704102,2|0,3:2|0:0,0:0:0:0:
0,13,51489,1,2,3:2:0:0:
112,162,51656,1,10,0:0:0:0:
108,0,51823,1,2,0:0:0:0:
54,234,51989,6,0,P|111:249|168:237,1,107.999996704102,6|2,3:2|3:2,0:0:0:0:
112,162,52323,1,8,0:0:0:0:
167,331,52489,2,0,P|217:302|249:253,1,107.999996704102,2|0,3:2|0:0,0:0:0:0:
112,162,52823,1,2,3:2:0:0:
315,320,52989,2,0,P|330:263|318:206,1,107.999996704102,10|2,0:0|0:0,0:0:0:0:
248,68,53323,5,2,3:2:0:0:
245,261,53489,1,2,3:2:0:0:
361,142,53656,1,8,0:0:0:0:
151,226,53823,2,0,L|34:224,1,107.999996704102,2|0,3:2|0:0,0:0:0:0:
176,117,54156,1,2,3:2:0:0:
180,313,54323,1,10,0:0:0:0:
275,197,54489,1,2,0:0:0:0:
334,367,54656,6,0,L|445:364,1,107.999996704102,2|0,3:2|3:2,0:0:0:0:
506,278,54989,1,10,0:0:0:0:
378,199,55156,2,0,P|330:184|268:200,1,107.999996704102,2|0,3:2|0:0,0:0:0:0:
409,95,55489,1,2,3:2:0:0:
409,95,55656,2,0,P|457:80|519:96,1,107.999996704102,8|2,0:0|0:0,0:0:0:0:
506,278,55989,5,0,3:2:0:0:
409,95,56156,1,2,3:2:0:0:
342,289,56323,1,10,0:0:0:0:
502,162,56489,1,2,3:2:0:0:
500,367,56656,1,2,0:0:0:0:
360,213,56823,2,0,P|303:219|269:259,1,107.999996704102,2|8,3:2|0:0,0:0:0:0:
194,384,57156,1,2,0:0:0:0:
58,250,57323,6,0,P|88:241|114:254,1,54,2|0,3:2|0:0,0:0:0:0:
108,248,57656,6,0,P|83:198|110:149,1,107.999996704102,14|2,0:0|0:0,0:0:0:0:
317,159,57989,6,0,P|287:168|261:155,1,54,0|0,3:2|0:0,0:0:0:0:
266,160,58323,6,0,P|291:210|264:259,1,107.999996704102,12|2,0:0|0:0,0:0:0:0:
181,364,58656,5,2,3:2:0:0:
186,148,58823,1,0,3:2:0:0:
344,281,58989,1,8,0:0:0:0:
231,76,59156,2,0,B|131:43|131:126|17:98,1,215.999993408203,2|0,3:2|3:2,0:0:0:0:
160,247,59656,2,0,P|187:197|182:135,1,107.999996704102,8|2,0:0|0:0,0:0:0:0:
9,267,59989,6,0,P|39:276|65:263,1,54,2|0,3:2|0:0,0:0:0:0:
59,268,60323,6,0,P|34:318|61:367,1,107.999996704102,12|2,0:0|0:0,0:0:0:0:
275,368,60656,6,0,P|245:359|219:372,1,54,0|0,3:2|0:0,0:0:0:0:
224,366,60989,6,0,P|249:316|222:267,1,107.999996704102,12|2,0:0|0:0,0:0:0:0:
106,195,61323,5,4,3:2:0:0:
300,194,61489,1,2,3:2:0:0:
154,330,61656,1,10,0:0:0:0:
362,132,61823,2,0,P|387:190|278:277,1,215.999993408203,2|0,3:2|3:2,0:0:0:0:
95,292,62323,1,8,3:2:0:0:
96,238,62406,1,0,3:2:0:0:
98,184,62489,1,0,3:2:0:0:
100,130,62573,1,0,3:2:0:0:
98,76,62656,6,0,P|156:70|211:90,1,107.999996704102,6|2,3:2|3:2,0:0:0:0:
143,169,62989,1,8,0:0:0:0:
225,3,63156,2,0,P|269:39|293:92,1,107.999996704102,2|0,3:2|0:0,0:0:0:0:
143,169,63489,1,2,3:2:0:0:
371,37,63656,2,0,P|376:95|356:150,1,107.999996704102,10|0,0:0|0:0,0:0:0:0:
296,270,63989,5,2,3:2:0:0:
291,84,64156,1,2,3:2:0:0:
417,206,64323,1,8,0:0:0:0:
220,144,64489,2,0,L|107:146,1,107.999996704102,2|0,3:2|0:0,0:0:0:0:
12,54,64823,1,2,3:2:0:0:
53,276,64989,1,10,0:0:0:0:
113,146,65156,1,2,0:0:0:0:
103,338,65323,6,0,P|42:354|-6:331,1,107.999996704102,2|0,3:2|3:2,0:0:0:0:
162,251,65656,1,10,0:0:0:0:
162,251,65823,2,0,P|223:235|271:258,1,107.999996704102,2|0,3:2|0:0,0:0:0:0:
378,383,66156,2,0,L|382:273,1,107.999996704102,2|8,3:2|0:0,0:0:0:0:
484,133,66489,1,2,0:0:0:0:
381,275,66656,5,2,3:2:0:0:
381,100,66823,1,2,3:2:0:0:
484,241,66989,1,8,0:0:0:0:
304,157,67156,2,0,L|190:161,1,107.999996704102,2|0,3:2|0:0,0:0:0:0:
73,76,67489,1,2,3:2:0:0:
110,276,67656,1,10,0:0:0:0:
196,160,67823,1,2,0:0:0:0:
216,311,67989,6,0,P|274:317|329:297,1,107.999996704102,6|2,3:2|3:2,0:0:0:0:
258,221,68323,1,8,0:0:0:0:
343,384,68489,2,0,P|387:348|411:295,1,107.999996704102,2|0,3:2|0:0,0:0:0:0:
258,221,68823,1,2,3:2:0:0:
489,350,68989,2,0,P|494:292|474:237,1,107.999996704102,10|2,0:0|0:0,0:0:0:0:
386,109,69323,5,2,3:2:0:0:
409,302,69489,1,2,3:2:0:0:
502,165,69656,1,8,0:0:0:0:
317,254,69823,2,0,L|201:252,1,107.999996704102,2|0,3:2|0:0,0:0:0:0:
90,183,70156,1,2,3:2:0:0:
180,339,70323,1,8,0:0:0:0:
219,171,70489,1,2,0:0:0:0:
66,384,70656,6,0,L|57:258,1,107.999996704102,2|0,3:2|3:2,0:0:0:0:
48,121,70989,1,10,0:0:0:0:
172,242,71156,2,0,P|229:252|280:230,1,107.999996704102,2|0,3:2|0:0,0:0:0:0:
365,318,71489,1,2,3:2:0:0:
365,318,71656,2,0,P|308:308|257:330,1,107.999996704102,8|2,0:0|0:0,0:0:0:0:
407,198,71989,5,0,3:2:0:0:
464,371,72156,1,2,3:2:0:0:
512,134,72323,1,10,0:0:0:0:
436,290,72489,1,2,3:2:0:0:
369,106,72656,1,2,0:0:0:0:
273,228,72823,2,0,L|158:224,1,107.999996704102,2|8,3:2|0:0,0:0:0:0:
43,263,73156,1,2,0:0:0:0:
116,138,73323,6,0,P|146:129|172:142,1,54,2|0,3:2|0:0,0:0:0:0:
166,136,73656,6,0,P|141:86|168:37,1,107.999996704102,14|2,0:0|0:0,0:0:0:0:
369,217,73989,6,0,P|339:208|313:221,1,54,0|0,3:2|0:0,0:0:0:0:
318,215,74323,6,0,P|343:165|316:116,1,107.999996704102,12|2,0:0|0:0,0:0:0:0:
234,23,74656,5,2,3:2:0:0:
239,239,74823,1,0,3:2:0:0:
397,106,74989,1,8,0:0:0:0:
284,311,75156,2,0,B|184:344|184:261|70:289,1,215.999993408203,2|0,3:2|3:2,0:0:0:0:
213,140,75656,2,0,P|240:190|235:252,1,107.999996704102,8|2,0:0|0:0,0:0:0:0:
82,120,75989,6,0,P|112:111|138:124,1,54,2|0,3:2|0:0,0:0:0:0:
132,118,76323,6,0,P|106:68|133:19,1,107.999996704102,14|2,0:0|0:0,0:0:0:0:
338,27,76656,6,0,P|308:36|282:23,1,54,0|0,3:2|0:0,0:0:0:0:
287,28,76989,6,0,P|312:78|285:127,1,107.999996704102,12|2,0:0|0:0,0:0:0:0:
159,192,77323,5,6,3:2:0:0:
353,193,77489,1,2,3:2:0:0:
207,57,77656,1,8,0:0:0:0:
143,287,77823,1,2,3:2:0:0:
302,125,77989,2,0,P|358:105|413:131,1,107.999996704102,2|0,0:0|3:0,0:0:0:0:
405,264,78323,2,0,P|349:284|294:258,1,107.999996704102,10|0,0:0|0:0,0:0:0:0:
211,66,78656,5,6,0:0:0:0:
213,309,78823,1,0,3:2:0:0:
36,144,78989,1,10,0:0:0:0:
279,144,79156,1,0,3:2:0:0:
98,306,79323,1,10,0:0:0:0:
82,65,79489,1,0,3:2:0:0:
344,291,79656,1,10,0:0:0:0:
325,50,79823,1,0,3:2:0:0:
144,153,79989,6,0,L|293:142,1,135.000005149842,6|0,0:0|3:2,0:0:0:0:
449,42,80323,1,10,0:0:0:0:
369,269,80489,1,0,3:2:0:0:
224,73,80656,1,10,0:0:0:0:
454,148,80823,1,0,3:2:0:0:
223,220,80989,1,10,0:0:0:0:
369,25,81156,1,0,3:2:0:0:
498,255,81323,5,6,0:0:0:0:
251,148,81489,1,0,3:2:0:0:
393,377,81656,1,8,0:0:0:0:
463,115,81823,1,0,3:2:0:0:
200,58,81989,1,8,0:0:0:0:
280,316,82156,1,2,3:2:0:0:
17,259,82323,1,8,0:0:0:0:
362,77,82489,6,0,B|404:58|404:58|329:58|329:58|320:45|320:45|312:58|312:58|259:58|259:58|251:65|251:65|244:58|244:58|178:58,1,270.000010299683,6|0,0:0|3:2,0:0:0:0:
476,193,82989,1,8,0:0:0:0:
475,7,83156,1,0,0:0:0:0:
363,194,83323,5,8,3:2:0:0:
343,221,83406,1,0,3:2:0:0:
335,253,83489,1,8,3:2:0:0:
342,286,83573,1,0,3:2:0:0:
360,315,83656,1,8,3:2:0:0:
303,316,83739,1,0,3:2:0:0:
245,317,83823,1,8,3:2:0:0:
188,318,83906,1,0,3:2:0:0:
142,318,83989,6,0,L|140:223,1,90,6|0,0:0|0:0,0:0:0:0:
138,124,84323,1,8,0:0:0:0:
56,321,84489,2,0,L|52:118,1,180,0|0,3:2|3:2,0:0:0:0:
204,82,84989,1,8,0:0:0:0:
140,228,85156,1,8,0:0:0:0:
395,132,85323,6,0,L|302:149,1,90,6|0,0:0|0:0,0:0:0:0:
205,169,85656,1,8,0:0:0:0:
315,39,85823,1,0,0:0:0:0:
329,265,85989,1,0,3:2:0:0:
329,265,86073,1,0,0:0:0:0:
329,265,86156,1,0,3:2:0:0:
91,184,86323,1,8,0:0:0:0:
231,230,86489,1,0,0:0:0:0:
46,362,86656,6,0,P|55:332|42:306,1,54,2|0,3:2|0:0,0:0:0:0:
47,311,86989,6,0,P|97:336|146:309,1,107.999996704102,12|0,0:0|0:0,0:0:0:0:
266,140,87323,6,0,P|236:149|210:136,1,54,2|0,3:2|0:0,0:0:0:0:
215,141,87656,6,0,P|240:191|213:240,1,107.999996704102,4|0,0:0|0:0,0:0:0:0:
167,383,87989,5,6,3:2:0:0:
148,187,88156,1,2,3:2:0:0:
322,284,88323,1,0,0:0:0:0:
352,70,88489,5,14,0:0:0:0:
