osu file format v14

[General]
AudioFilename: audio.mp3
AudioLeadIn: 0
PreviewTime: 45953
Countdown: 0
SampleSet: Soft
StackLeniency: 0.7
Mode: 0
LetterboxInBreaks: 0
WidescreenStoryboard: 1

[Editor]
DistanceSpacing: 1
BeatDivisor: 4
GridSize: 8
TimelineZoom: 1

[Metadata]
Title:Jiriki Hongan Revolution (TV Size)
TitleUnicode:自力本願レボリューション (TV Size)
Artist:3 Nen E Gumi Utatan
ArtistUnicode:3年E組うた担
Creator:Blitzifyyy
Version:Easy!
Source:暗殺教室
Tags:Mocaotic Cris- Wolf3211 Shiota 潮田 Fuchigami Mai 渕上 舞 Kaede カエデ Suzaki Aya 洲崎 綾 Akabane Karma Karuma 赤羽 Okamoto Nobuhiko 岡本 信彦 Yuuma 悠馬 Osaka Ryota Ryōta Ōsaka Ohsaka 逢坂 良太 Hiroto 陽斗 Asanuma Shintaro 浅沼 晋太郎 Ansatsu Kyoushitsu Assassination Classroom Season One Japanese Anime 渚 茅野 業 磯貝 前原 Nagisa Kayano Karuma Isogai Maehara
BeatmapID:2187361
BeatmapSetID:1013091

[Difficulty]
HPDrainRate:2
CircleSize:2.5
OverallDifficulty:2
ApproachRate:3
SliderMultiplier:1
SliderTickRate:1

[Events]
//Background and Video events
0,0,"bg.png",0,0
Video,-80,"Jiriki+Hongan+Revolution.mp4"
//Break Periods
//Storyboard Layer 0 (Background)
//Storyboard Layer 1 (Fail)
//Storyboard Layer 2 (Pass)
//Storyboard Layer 3 (Foreground)
//Storyboard Layer 4 (Overlay)
//Storyboard Sound Samples

[TimingPoints]
-10,333.333333333333,4,2,1,70,1,0
156,-100,4,2,1,70,0,0
9906,-100,4,2,1,5,0,0
9989,-100,4,2,1,70,0,0
10573,-100,4,2,1,5,0,0
10656,-100,4,2,1,70,0,0
11073,-100,4,2,1,5,0,0
11156,-100,4,2,1,70,0,0
11989,-100,4,2,1,60,0,0
12323,-100,4,2,1,60,0,0
30656,-100,4,2,1,70,0,0
33323,-100,4,2,1,60,0,0
41323,-100,4,2,1,70,0,0
46573,-100,4,2,1,5,0,0
46656,-100,4,2,1,85,0,1
62573,-100,4,2,1,85,0,0
62656,-100,4,2,1,85,0,1
78573,-100,4,2,1,5,0,0
78656,-100,4,2,1,85,0,1
83989,-100,4,2,1,70,0,0
86906,-100,4,2,1,5,0,0
86989,-100,4,2,1,70,0,0
87239,-100,4,2,1,5,0,0
87323,-100,4,2,1,70,0,0
87573,-100,4,2,1,5,0,0
87656,-100,4,2,1,70,0,0
87906,-100,4,2,1,5,0,0
87989,-100,4,2,1,70,0,0
88906,-100,4,2,1,45,0,0

[Colours]
Combo1 : 255,223,128
Combo2 : 159,207,255
Combo3 : 255,145,145
Combo4 : 187,255,187

[HitObjects]
22,51,1323,6,0,P|70:31|124:33,1,100,6|12,0:0|0:0,0:0:0:0:
209,70,1989,2,0,P|257:90|311:88,1,100,2|12,3:2|0:0,0:0:0:0:
399,58,2656,1,2,3:2:0:0:
496,172,3156,2,0,P|431:201|349:165,1,150,2|8,3:2|0:0,0:0:0:0:
272,128,3989,6,0,L|275:240,1,100,2|12,3:2|0:0,0:0:0:0:
359,280,4656,2,0,L|356:392,1,100,2|12,3:2|0:0,0:0:0:0:
256,377,5323,1,2,3:2:0:0:
156,264,5823,2,0,P|206:230|285:267,1,150,2|8,3:2|0:0,0:0:0:0:
350,336,6656,6,0,P|421:315|446:240,2,150,6|0|8,3:2|3:2|0:0,0:0:0:0:
355,235,7989,2,0,B|350:165|350:165|355:151|355:151|348:138|348:138|344:76,2,150,6|0|8,3:2|3:2|0:0,0:0:0:0:
294,315,9323,6,0,P|238:332|192:316,1,100,2|12,3:2|0:0,0:0:0:0:
103,292,9989,2,0,L|106:189,1,100,2|12,3:2|0:0,0:0:0:0:
128,94,10656,1,2,3:2:0:0:
269,50,11156,2,0,B|414:45|331:157|482:159,1,250,6|4,0:0|0:0,0:0:0:0:
504,255,12323,6,0,L|498:359,2,100,10|2|10,0:0|0:0|0:0,0:0:0:0:
409,286,13323,2,0,P|359:299|302:283,1,100,2|10,3:2|0:0,0:0:0:0:
227,240,13989,2,0,P|177:227|120:243,1,100,2|10,0:0|0:0,0:0:0:0:
43,286,14656,5,0,3:2:0:0:
17,189,14989,2,0,L|25:84,2,100,10|2|10,0:0|0:0|0:0,0:0:0:0:
114,213,15989,2,0,P|146:260|145:315,1,100,2|10,3:2|0:0,0:0:0:0:
213,378,16656,2,0,L|319:371,1,100,2|10,0:0|0:0,0:0:0:0:
389,306,17323,5,2,3:2:0:0:
302,183,17823,2,0,P|241:147|167:187,1,150,2|10,3:2|0:0,0:0:0:0:
100,244,18656,1,2,3:2:0:0:
183,368,19156,2,0,B|261:338|251:395|337:368,1,150,2|10,3:2|0:0,0:0:0:0:
425,343,19989,6,0,P|469:303|474:246,2,100,2|10|0,3:2|0:0|0:0,0:0:0:0:
375,256,20989,2,0,B|297:226|298:276|217:243,1,150,10|2,0:0|3:2,0:0:0:0:
134,211,21823,2,0,L|136:367,1,150,2|8,3:2|0:0,0:0:0:0:
36,371,22656,5,4,3:2:0:0:
2,281,22989,2,0,L|-2:173,2,100,10|2|10,0:0|0:0|0:0,0:0:0:0:
100,299,23989,2,0,P|149:309|201:298,1,100,2|8,3:2|0:0,0:0:0:0:
268,242,24656,1,0,0:0:0:0:
367,243,24989,1,10,0:0:0:0:
459,281,25323,6,0,B|484:211|434:206|464:129,2,150,2|2|10,3:2|3:2|0:0,0:0:0:0:
391,354,26656,2,0,L|282:344,1,100,2|10,3:2|0:0,0:0:0:0:
216,280,27323,2,0,P|202:232|224:177,1,100,2|10,0:0|0:0,0:0:0:0:
291,119,27989,6,0,L|407:112,2,100,2|10|0,3:2|0:0|0:0,0:0:0:0:
200,75,28989,1,10,0:0:0:0:
139,155,29323,2,0,P|129:212|148:257,1,100,2|10,3:2|0:0,0:0:0:0:
227,304,29989,2,0,L|337:297,1,100,2|10,0:0|0:0,0:0:0:0:
426,284,30656,6,0,P|410:238|420:173,1,100,2|12,3:2|0:0,0:0:0:0:
470,104,31323,2,0,P|486:58|476:-7,1,100,2|12,3:2|0:0,0:0:0:0:
388,43,31989,1,10,3:2:0:0:
264,128,32489,2,0,P|325:167|390:131,1,150,6|10,0:0|0:0,0:0:0:0:
483,103,33323,6,0,B|502:179|451:178|475:266,2,150,6|2|10,3:2|3:2|0:0,0:0:0:0:
402,43,34656,2,0,L|297:36,1,100,2|8,3:2|0:0,0:0:0:0:
235,110,35323,2,0,L|130:117,1,100,2|10,0:0|0:0,0:0:0:0:
50,64,35989,6,0,P|31:111|45:166,1,100,4|10,3:0|0:0,0:0:0:0:
102,236,36656,2,0,P|189:239|242:148,1,200,2|4,0:0|0:0,0:0:0:0:
183,69,37656,1,8,0:0:0:0:
255,0,37989,1,4,0:0:0:0:
314,80,38323,1,2,3:2:0:0:
406,42,38656,6,0,B|402:120|402:120|406:142|406:142|398:154|398:154|395:258,1,200,6|8,0:0|0:0,0:0:0:0:
234,357,39989,2,0,B|341:321|324:379|443:347,1,200,6|10,0:0|0:0,0:0:0:0:
305,193,41323,5,10,0:0:0:0:
211,162,41656,1,4,3:2:0:0:
132,223,41989,2,0,L|146:386,2,150,8|4|12,0:0|0:0|0:0,0:0:0:0:
60,152,43323,2,0,P|130:122|205:154,1,150,8|2,0:0|3:2,0:0:0:0:
240,235,44156,5,8,0:0:0:0:
363,320,44656,2,0,L|430:314,1,50,8|0,0:0|3:2,0:0:0:0:
487,247,45156,2,0,B|526:140|447:156|491:45,1,200,12|0,0:0|3:2,0:0:0:0:
238,28,46656,6,0,B|164:6|164:64|75:32,2,150,6|2|10,3:2|3:2|0:0,0:0:0:0:
316,90,47989,2,0,L|314:247,2,150,2|2|10,3:2|3:2|0:0,0:0:0:0:
407,48,49323,6,0,P|459:36|509:47,2,100,2|10|0,3:2|0:0|0:0,0:0:0:0:
316,90,50323,1,8,0:0:0:0:
231,36,50656,2,0,B|156:37|156:37|134:56|134:56|37:57,1,200,2|0,3:2|0:0,0:0:0:0:
14,154,51656,1,10,0:0:0:0:
92,216,51989,6,0,P|127:279|84:344,2,150,6|2|10,3:2|3:2|0:0,0:0:0:0:
14,154,53323,2,0,P|-21:91|22:26,2,150,2|2|10,3:2|3:2|0:0,0:0:0:0:
92,91,54656,6,0,L|205:86,2,100,2|10|0,3:2|0:0|0:0,0:0:0:0:
15,29,55656,1,8,0:0:0:0:
2,128,55989,2,0,L|9:345,1,200,0|2,3:2|0:0,0:0:0:0:
92,382,56989,1,8,0:0:0:0:
162,310,57323,6,0,P|213:294|262:309,1,100,2|14,3:2|0:0,0:0:0:0:
344,352,57989,2,0,P|395:368|444:353,1,100,0|12,3:2|0:0,0:0:0:0:
503,280,58656,2,0,L|499:123,2,150,2|2|8,3:2|3:2|0:0,0:0:0:0:
438,356,59989,5,2,3:2:0:0:
337,357,60323,1,12,0:0:0:0:
272,276,60656,2,0,L|276:163,1,100,0|12,3:2|0:0,0:0:0:0:
343,102,61323,2,0,B|425:71|425:132|504:98,2,150,4|2|8,3:2|3:2|3:2,0:0:0:0:
250,62,62656,6,0,L|87:58,2,150,6|2|10,3:2|3:2|0:0,0:0:0:0:
343,102,63989,2,0,P|369:173|338:246,2,150,2|2|10,3:2|3:2|0:0,0:0:0:0:
270,171,65323,6,0,L|166:169,2,100,2|10|0,3:2|0:0|0:0,0:0:0:0:
343,102,66323,1,8,0:0:0:0:
419,165,66656,2,0,B|457:263|386:263|414:363,1,200,2|0,3:2|0:0,0:0:0:0:
313,373,67656,1,10,0:0:0:0:
224,326,67989,6,0,L|65:331,2,150,6|2|10,3:2|3:2|0:0,0:0:0:0:
306,269,69323,2,0,P|330:201|297:112,2,150,2|2|8,3:2|3:2|0:0,0:0:0:0:
235,197,70656,6,0,L|133:193,2,100,2|10|0,3:2|0:0|0:0,0:0:0:0:
309,128,71656,1,8,0:0:0:0:
226,71,71989,2,0,B|130:28|130:107|19:68,1,200,0|2,3:2|0:0,0:0:0:0:
29,172,72989,1,8,0:0:0:0:
117,218,73323,6,0,L|220:216,1,100,2|14,3:2|0:0,0:0:0:0:
291,149,73989,2,0,L|394:151,1,100,0|12,3:2|0:0,0:0:0:0:
466,216,74656,2,0,P|489:288|463:366,2,150,2|2|8,3:2|3:2|0:0,0:0:0:0:
390,150,75989,5,2,3:2:0:0:
290,140,76323,1,14,0:0:0:0:
233,222,76656,2,0,P|218:268|235:325,1,100,0|12,3:2|0:0,0:0:0:0:
318,370,77323,2,0,L|482:366,2,150,6|2|10,3:2|3:2|0:0,0:0:0:0:
230,320,78656,6,0,L|120:322,1,100,6|10,0:0|0:0,0:0:0:0:
32,343,79323,1,10,0:0:0:0:
9,245,79656,1,10,0:0:0:0:
73,168,79989,6,0,P|120:150|178:168,1,100,6|10,0:0|0:0,0:0:0:0:
255,207,80656,1,10,0:0:0:0:
341,157,80989,1,10,0:0:0:0:
433,196,81323,2,0,L|440:94,2,100,6|8|8,0:0|0:0|0:0,0:0:0:0:
337,311,82489,6,0,L|178:308,1,150,6|8,0:0|0:0,0:0:0:0:
103,252,83323,2,0,P|87:200|104:157,1,100,8|8,3:2|3:2,0:0:0:0:
186,104,83989,6,0,L|341:99,2,150,6|0|8,0:0|3:2|0:0,0:0:0:0:
102,159,85323,2,0,B|67:236|128:236|100:315,2,150,6|0|8,0:0|0:0|0:0,0:0:0:0:
192,201,86656,1,2,3:2:0:0:
290,218,86989,1,12,0:0:0:0:
349,137,87323,2,0,L|458:143,1,100,2|4,3:2|0:0,0:0:0:0:
510,221,87989,2,0,L|505:282,1,50,6|2,3:2|3:2,0:0:0:0:
491,369,88489,5,14,0:0:0:0:
