osu file format v14

[General]
AudioFilename: sayonara.mp3
AudioLeadIn: 0
PreviewTime: 48173
Countdown: 0
SampleSet: Normal
StackLeniency: 0.7
Mode: 1
LetterboxInBreaks: 0
WidescreenStoryboard: 0

[Editor]
DistanceSpacing: 0.5
BeatDivisor: 4
GridSize: 4
TimelineZoom: 2.2

[Metadata]
Title:Bye Bye YESTERDAY (TV Size)
TitleUnicode:バイバイ YESTERDAY (TV Size)
Artist:3 Nen E Gumi Utatan
ArtistUnicode:3年E組うた担
Creator:Stefan
Version:Oni
Source:暗殺教室 第2期 FINAL SEASON
Tags:イエスタデイ song unit savage youth theory kohei tanaka hiroshi nakamura ansatsu kyoushitsu assassination classroom second season 2nd opening japanese anime nagisa shiota mai fuchigami kaede kayano aya suzaki karma akabane nobuhiko okamoto yuuma isogai ryota ohsaka hiroto maehara shintaro asanuma 渕上舞 洲崎綾 岡本信彦 逢坂良太 浅沼晋太郎 thenutritiousguy tng
BeatmapID:2450285
BeatmapSetID:1174748

[Difficulty]
HPDrainRate:5
CircleSize:5
OverallDifficulty:5
ApproachRate:5
SliderMultiplier:1.4
SliderTickRate:1

[Events]
//Background and Video events
0,0,"assassination-classroom-background-3.jpg",0,70
//Break Periods
//Storyboard Layer 0 (Background)
//Storyboard Layer 1 (Fail)
//Storyboard Layer 2 (Pass)
//Storyboard Layer 3 (Foreground)
//Storyboard Layer 4 (Overlay)
//Storyboard Sound Samples

[TimingPoints]
174,333.333333333333,4,1,0,70,1,0
5340,-105.263157894737,4,1,0,55,0,0
26673,-105.263157894737,4,1,0,60,0,0
48173,-100,4,1,0,70,0,1
80173,-100,4,1,0,70,0,0

[HitObjects]
257,193,174,5,8,0:0:0:0:
257,193,507,5,8,0:0:0:0:
257,193,673,5,0,0:0:0:0:
257,193,1007,5,0,0:0:0:0:
257,193,1173,5,8,0:0:0:0:
257,193,1507,5,8,0:0:0:0:
257,193,1673,5,8,0:0:0:0:
257,193,2007,5,0,0:0:0:0:
257,193,2340,5,0,0:0:0:0:
257,193,2507,5,8,0:0:0:0:
257,193,2673,5,0,0:0:0:0:
257,193,2840,5,0,0:0:0:0:
257,193,3173,5,8,0:0:0:0:
257,193,3340,5,0,0:0:0:0:
257,193,3673,5,0,0:0:0:0:
257,193,3840,5,8,0:0:0:0:
257,193,4173,5,0,0:0:0:0:
257,193,4340,5,0,0:0:0:0:
257,193,4673,5,0,0:0:0:0:
257,193,4840,5,0,0:0:0:0:
257,193,4923,5,0,0:0:0:0:
257,193,5007,5,8,0:0:0:0:
257,193,5090,5,8,0:0:0:0:
257,193,5173,5,8,0:0:0:0:
257,193,5507,5,0,0:0:0:0:
257,193,5673,5,8,0:0:0:0:
257,193,5840,5,0,0:0:0:0:
257,193,6007,5,0,0:0:0:0:
257,193,6173,5,8,0:0:0:0:
257,193,6340,5,0,0:0:0:0:
257,193,6673,5,8,0:0:0:0:
257,193,7007,5,0,0:0:0:0:
257,193,7173,5,8,0:0:0:0:
257,193,7507,5,0,0:0:0:0:
257,193,7673,5,0,0:0:0:0:
257,193,7840,5,8,0:0:0:0:
257,193,8173,5,8,0:0:0:0:
257,193,8340,5,0,0:0:0:0:
257,193,8507,5,8,0:0:0:0:
257,193,8673,5,8,0:0:0:0:
257,193,8840,5,0,0:0:0:0:
257,193,9173,5,8,0:0:0:0:
257,193,9340,5,0,0:0:0:0:
257,193,9507,5,8,0:0:0:0:
257,193,9673,5,0,0:0:0:0:
257,193,9840,5,8,0:0:0:0:
257,193,10173,5,0,0:0:0:0:
257,193,10340,5,0,0:0:0:0:
257,193,10507,5,8,0:0:0:0:
257,193,10673,5,8,0:0:0:0:
257,193,10757,5,8,0:0:0:0:
257,193,10840,5,0,0:0:0:0:
257,193,11007,5,0,0:0:0:0:
257,193,11173,5,8,0:0:0:0:
257,193,11507,5,8,0:0:0:0:
257,193,11673,5,8,0:0:0:0:
257,193,11840,5,8,0:0:0:0:
257,193,12007,5,0,0:0:0:0:
257,193,12173,5,8,0:0:0:0:
257,193,12340,5,0,0:0:0:0:
257,193,12507,5,8,0:0:0:0:
257,193,12840,5,0,0:0:0:0:
257,193,13007,5,0,0:0:0:0:
257,193,13340,5,0,0:0:0:0:
257,193,13507,5,8,0:0:0:0:
257,193,13840,5,0,0:0:0:0:
257,193,14173,5,8,0:0:0:0:
257,193,14340,5,0,0:0:0:0:
257,193,14507,5,8,0:0:0:0:
257,193,14673,5,0,0:0:0:0:
257,193,14840,5,8,0:0:0:0:
257,193,15173,5,8,0:0:0:0:
257,193,15340,5,0,0:0:0:0:
240,164,15507,2,0,L|144:144,2,66.4999982242585
257,193,16173,5,0,0:0:0:0:
257,193,16340,5,8,0:0:0:0:
257,193,16507,5,0,0:0:0:0:
257,193,16673,5,0,0:0:0:0:
257,193,16840,5,8,0:0:0:0:
257,193,17007,5,0,0:0:0:0:
257,193,17173,5,8,0:0:0:0:
257,193,17340,5,0,0:0:0:0:
257,193,17507,5,8,0:0:0:0:
257,193,17673,5,0,0:0:0:0:
257,193,17840,5,8,0:0:0:0:
257,193,18173,5,0,0:0:0:0:
257,193,18507,5,8,0:0:0:0:
257,193,18840,5,8,0:0:0:0:
257,193,19007,5,8,0:0:0:0:
257,193,19173,5,0,0:0:0:0:
257,193,19340,5,0,0:0:0:0:
257,193,19507,5,8,0:0:0:0:
257,193,19673,5,0,0:0:0:0:
257,193,19840,5,8,0:0:0:0:
257,193,20007,5,0,0:0:0:0:
257,193,20173,5,8,0:0:0:0:
257,193,20507,5,0,0:0:0:0:
257,193,20840,5,8,0:0:0:0:
257,193,21007,5,0,0:0:0:0:
257,193,21173,5,8,0:0:0:0:
257,193,21340,5,8,0:0:0:0:
257,193,21423,5,8,0:0:0:0:
257,193,21507,5,0,0:0:0:0:
257,193,21673,5,0,0:0:0:0:
257,193,21840,5,8,0:0:0:0:
257,193,22007,5,0,0:0:0:0:
257,193,22173,5,0,0:0:0:0:
257,193,22340,5,0,0:0:0:0:
257,193,22507,5,8,0:0:0:0:
257,193,22840,5,8,0:0:0:0:
257,193,23007,5,8,0:0:0:0:
257,193,23173,5,0,0:0:0:0:
257,193,23340,5,0,0:0:0:0:
257,193,23507,5,8,0:0:0:0:
257,193,23840,5,0,0:0:0:0:
257,193,24173,5,0,0:0:0:0:
257,193,24340,5,8,0:0:0:0:
257,193,24507,5,0,0:0:0:0:
257,193,24673,5,0,0:0:0:0:
257,193,24840,5,8,0:0:0:0:
257,193,25173,5,0,0:0:0:0:
257,193,25340,5,0,0:0:0:0:
257,193,25507,5,8,0:0:0:0:
257,193,25673,5,0,0:0:0:0:
257,193,25840,5,8,0:0:0:0:
257,193,26007,5,0,0:0:0:0:
257,193,26173,5,8,0:0:0:0:
257,193,26507,5,8,0:0:0:0:
257,193,26840,5,4,0:0:0:0:
257,193,27173,5,0,0:0:0:0:
257,193,27340,5,0,0:0:0:0:
257,193,27507,5,8,0:0:0:0:
257,193,27840,5,0,0:0:0:0:
257,193,28173,5,8,0:0:0:0:
257,193,28507,5,8,0:0:0:0:
257,193,28673,5,0,0:0:0:0:
257,193,28840,5,8,0:0:0:0:
257,193,29007,5,0,0:0:0:0:
257,193,29173,5,8,0:0:0:0:
257,193,29507,5,0,0:0:0:0:
257,193,30173,5,8,0:0:0:0:
257,193,30507,5,0,0:0:0:0:
257,193,30840,5,8,0:0:0:0:
257,193,31173,5,8,0:0:0:0:
257,193,31340,5,0,0:0:0:0:
257,193,31507,5,8,0:0:0:0:
257,193,31840,5,0,0:0:0:0:
257,193,32173,5,8,0:0:0:0:
257,193,32507,5,0,0:0:0:0:
257,193,32673,5,0,0:0:0:0:
257,193,32840,5,8,0:0:0:0:
257,193,33173,5,0,0:0:0:0:
257,193,33507,5,8,0:0:0:0:
257,193,33840,5,0,0:0:0:0:
257,193,34173,5,8,0:0:0:0:
257,193,34507,5,8,0:0:0:0:
257,193,35173,5,8,0:0:0:0:
257,193,35507,5,0,0:0:0:0:
257,193,35840,5,8,0:0:0:0:
257,193,36173,5,0,0:0:0:0:
257,193,36507,5,8,0:0:0:0:
257,193,36673,5,0,0:0:0:0:
257,193,36840,5,8,0:0:0:0:
257,193,37173,5,8,0:0:0:0:
257,193,37340,5,8,0:0:0:0:
257,193,37507,5,4,0:0:0:0:
257,193,37840,5,0,0:0:0:0:
257,193,38007,5,0,0:0:0:0:
257,193,38173,5,8,0:0:0:0:
257,193,38507,5,0,0:0:0:0:
257,193,38840,5,8,0:0:0:0:
257,193,39173,5,8,0:0:0:0:
257,193,39340,5,0,0:0:0:0:
257,193,39507,5,8,0:0:0:0:
257,193,39673,5,0,0:0:0:0:
257,193,39840,5,8,0:0:0:0:
257,193,40173,5,0,0:0:0:0:
257,193,40840,5,8,0:0:0:0:
257,193,41173,5,0,0:0:0:0:
257,193,41507,5,8,0:0:0:0:
257,193,41840,5,8,0:0:0:0:
257,193,42007,5,0,0:0:0:0:
257,193,42173,5,0,0:0:0:0:
257,193,42507,5,0,0:0:0:0:
257,193,42840,5,8,0:0:0:0:
257,193,43173,5,0,0:0:0:0:
257,193,43340,5,0,0:0:0:0:
257,193,43507,5,8,0:0:0:0:
257,193,43840,5,0,0:0:0:0:
257,193,44173,5,8,0:0:0:0:
257,193,44507,5,8,0:0:0:0:
257,193,44840,5,0,0:0:0:0:
257,193,45173,5,0,0:0:0:0:
257,193,45507,5,12,0:0:0:0:
257,193,45840,5,0,0:0:0:0:
257,193,46007,5,0,0:0:0:0:
257,193,46173,5,8,0:0:0:0:
257,193,46507,5,8,0:0:0:0:
257,193,46840,5,0,0:0:0:0:
257,193,47173,5,0,0:0:0:0:
257,193,47507,5,8,0:0:0:0:
257,193,48173,1,12,0:0:0:0:
257,193,48507,5,8,0:0:0:0:
257,193,48673,5,0,0:0:0:0:
257,193,48840,5,8,0:0:0:0:
257,193,48923,5,8,0:0:0:0:
257,193,49007,5,0,0:0:0:0:
257,193,49173,5,8,0:0:0:0:
257,193,49340,5,8,0:0:0:0:
257,193,49507,5,0,0:0:0:0:
257,193,49673,5,8,0:0:0:0:
257,193,49840,5,0,0:0:0:0:
257,193,50007,5,8,0:0:0:0:
257,193,50173,5,8,0:0:0:0:
257,193,50257,5,8,0:0:0:0:
257,193,50340,5,0,0:0:0:0:
257,193,50423,5,0,0:0:0:0:
257,193,50507,5,8,0:0:0:0:
257,193,50673,5,8,0:0:0:0:
257,193,50840,1,0,0:0:0:0:
257,193,51173,5,8,0:0:0:0:
257,193,51507,5,8,0:0:0:0:
257,193,51673,5,0,0:0:0:0:
257,193,51757,5,0,0:0:0:0:
257,193,51840,5,8,0:0:0:0:
257,193,52007,5,8,0:0:0:0:
257,193,52090,5,8,0:0:0:0:
257,193,52173,5,0,0:0:0:0:
257,193,52340,5,0,0:0:0:0:
257,193,52507,5,8,0:0:0:0:
257,193,52673,5,0,0:0:0:0:
257,193,52840,5,8,0:0:0:0:
257,193,52923,5,0,0:0:0:0:
257,193,53007,5,8,0:0:0:0:
257,193,53090,5,0,0:0:0:0:
257,193,53173,5,8,0:0:0:0:
257,193,53507,1,4,0:0:0:0:
257,193,53673,5,8,0:0:0:0:
257,193,53840,5,8,0:0:0:0:
257,193,54007,5,0,0:0:0:0:
257,193,54173,5,8,0:0:0:0:
257,193,54507,5,0,0:0:0:0:
257,193,54673,5,0,0:0:0:0:
257,193,54840,5,8,0:0:0:0:
257,193,55007,5,0,0:0:0:0:
257,193,55173,5,8,0:0:0:0:
257,193,55257,5,0,0:0:0:0:
257,193,55340,5,8,0:0:0:0:
257,193,55673,5,0,0:0:0:0:
257,193,55840,5,8,0:0:0:0:
257,193,55923,5,0,0:0:0:0:
257,193,56007,5,0,0:0:0:0:
257,193,56173,1,8,0:0:0:0:
257,193,56340,5,8,0:0:0:0:
257,193,56423,5,8,0:0:0:0:
257,193,56507,5,0,0:0:0:0:
257,193,56673,5,8,0:0:0:0:
257,193,56840,5,0,0:0:0:0:
257,193,57007,5,8,0:0:0:0:
257,193,57090,5,0,0:0:0:0:
257,193,57173,5,8,0:0:0:0:
257,193,57257,5,8,0:0:0:0:
257,193,57340,5,0,0:0:0:0:
257,193,57507,5,0,0:0:0:0:
257,193,57673,5,8,0:0:0:0:
257,193,57840,5,8,0:0:0:0:
257,193,58007,5,0,0:0:0:0:
257,193,58173,5,8,0:0:0:0:
257,193,58257,5,8,0:0:0:0:
257,193,58340,5,0,0:0:0:0:
257,193,58507,5,0,0:0:0:0:
257,193,58840,1,12,0:0:0:0:
257,193,59173,5,8,0:0:0:0:
257,193,59340,5,0,0:0:0:0:
257,193,59507,5,8,0:0:0:0:
257,193,59590,5,8,0:0:0:0:
257,193,59673,5,0,0:0:0:0:
257,193,59840,5,8,0:0:0:0:
257,193,60007,5,8,0:0:0:0:
257,193,60173,5,0,0:0:0:0:
257,193,60340,5,8,0:0:0:0:
257,193,60507,5,0,0:0:0:0:
257,193,60673,5,8,0:0:0:0:
257,193,60840,5,8,0:0:0:0:
257,193,60923,5,8,0:0:0:0:
257,193,61007,5,0,0:0:0:0:
257,193,61090,5,0,0:0:0:0:
257,193,61173,5,8,0:0:0:0:
257,193,61340,5,8,0:0:0:0:
257,193,61507,1,0,0:0:0:0:
257,193,61840,5,8,0:0:0:0:
257,193,62173,5,8,0:0:0:0:
257,193,62340,5,0,0:0:0:0:
257,193,62423,5,0,0:0:0:0:
257,193,62507,5,8,0:0:0:0:
257,193,62673,5,8,0:0:0:0:
257,193,62757,5,8,0:0:0:0:
257,193,62840,5,0,0:0:0:0:
257,193,63007,5,0,0:0:0:0:
257,193,63173,5,8,0:0:0:0:
257,193,63340,5,0,0:0:0:0:
257,193,63507,5,8,0:0:0:0:
257,193,63590,5,0,0:0:0:0:
257,193,63673,5,8,0:0:0:0:
257,193,63757,5,0,0:0:0:0:
257,193,63840,5,8,0:0:0:0:
257,193,64173,1,4,0:0:0:0:
257,193,64340,5,8,0:0:0:0:
257,193,64507,5,8,0:0:0:0:
257,193,64673,5,0,0:0:0:0:
257,193,64840,5,8,0:0:0:0:
257,193,65007,5,0,0:0:0:0:
257,193,65173,5,8,0:0:0:0:
257,193,65340,5,8,0:0:0:0:
257,193,65507,5,0,0:0:0:0:
257,193,65673,5,0,0:0:0:0:
257,193,65840,5,8,0:0:0:0:
257,193,65923,5,0,0:0:0:0:
257,193,66007,5,8,0:0:0:0:
257,193,66340,5,8,0:0:0:0:
257,193,66507,5,8,0:0:0:0:
257,193,66590,5,8,0:0:0:0:
257,193,66673,5,0,0:0:0:0:
257,193,66840,1,8,0:0:0:0:
257,193,67007,5,0,0:0:0:0:
257,193,67090,5,0,0:0:0:0:
257,193,67173,5,8,0:0:0:0:
257,193,67507,5,0,0:0:0:0:
257,193,67673,5,8,0:0:0:0:
257,193,67757,5,0,0:0:0:0:
257,193,67840,5,0,0:0:0:0:
257,193,67923,5,0,0:0:0:0:
257,193,68007,5,8,0:0:0:0:
257,193,68173,5,4,0:0:0:0:
257,193,68340,5,0,0:0:0:0:
257,193,68507,5,8,0:0:0:0:
257,193,68673,5,0,0:0:0:0:
257,193,68840,5,8,0:0:0:0:
257,193,69007,5,0,0:0:0:0:
257,193,69173,5,4,0:0:0:0:
257,193,69507,1,12,0:0:0:0:
257,193,69840,5,8,0:0:0:0:
257,193,70007,5,0,0:0:0:0:
257,193,70173,5,8,0:0:0:0:
257,193,70257,5,8,0:0:0:0:
257,193,70340,5,0,0:0:0:0:
257,193,70507,5,8,0:0:0:0:
257,193,70673,5,8,0:0:0:0:
257,193,70840,5,0,0:0:0:0:
257,193,71007,5,8,0:0:0:0:
257,193,71173,5,0,0:0:0:0:
257,193,71340,5,8,0:0:0:0:
257,193,71507,5,8,0:0:0:0:
257,193,71590,5,8,0:0:0:0:
257,193,71673,5,0,0:0:0:0:
257,193,71757,5,0,0:0:0:0:
257,193,71840,5,8,0:0:0:0:
257,193,72007,5,8,0:0:0:0:
257,193,72173,1,0,0:0:0:0:
257,193,72507,5,8,0:0:0:0:
257,193,72840,5,8,0:0:0:0:
257,193,73007,5,0,0:0:0:0:
257,193,73090,5,0,0:0:0:0:
257,193,73173,5,8,0:0:0:0:
257,193,73340,5,8,0:0:0:0:
257,193,73423,5,8,0:0:0:0:
257,193,73507,5,0,0:0:0:0:
257,193,73673,5,0,0:0:0:0:
257,193,73840,5,8,0:0:0:0:
257,193,74007,5,0,0:0:0:0:
257,193,74173,5,8,0:0:0:0:
257,193,74257,5,8,0:0:0:0:
257,193,74340,5,0,0:0:0:0:
257,193,74423,5,0,0:0:0:0:
257,193,74507,5,8,0:0:0:0:
257,193,74840,1,4,0:0:0:0:
257,193,75007,5,8,0:0:0:0:
257,193,75340,5,8,0:0:0:0:
257,193,75673,5,8,0:0:0:0:
257,193,75840,5,0,0:0:0:0:
257,193,76007,5,0,0:0:0:0:
257,193,76173,5,8,0:0:0:0:
257,193,76340,5,0,0:0:0:0:
257,193,76507,5,8,0:0:0:0:
257,193,76590,5,0,0:0:0:0:
257,193,76673,5,8,0:0:0:0:
257,193,77007,5,0,0:0:0:0:
257,193,77173,5,8,0:0:0:0:
257,193,77257,5,0,0:0:0:0:
257,193,77340,5,8,0:0:0:0:
257,193,77507,1,0,0:0:0:0:
257,193,77673,5,8,0:0:0:0:
257,193,77757,5,0,0:0:0:0:
257,193,77840,5,0,0:0:0:0:
257,193,78007,5,0,0:0:0:0:
257,193,78173,5,8,0:0:0:0:
257,193,78257,5,8,0:0:0:0:
257,193,78340,5,8,0:0:0:0:
257,193,78507,5,8,0:0:0:0:
257,193,78673,5,0,0:0:0:0:
257,193,78840,5,8,0:0:0:0:
257,193,79173,5,12,0:0:0:0:
257,193,79507,5,8,0:0:0:0:
257,193,79673,5,8,0:0:0:0:
257,193,79757,5,8,0:0:0:0:
257,193,79840,5,0,0:0:0:0:
257,193,79923,5,0,0:0:0:0:
257,193,80007,5,0,0:0:0:0:
257,193,80090,5,0,0:0:0:0:
257,193,80173,5,8,0:0:0:0:
257,193,80507,5,8,0:0:0:0:
257,193,80673,5,0,0:0:0:0:
257,193,81007,5,0,0:0:0:0:
257,193,81173,5,8,0:0:0:0:
257,193,81507,5,8,0:0:0:0:
257,193,81673,5,8,0:0:0:0:
257,193,82007,5,0,0:0:0:0:
257,193,82340,5,0,0:0:0:0:
257,193,82507,5,8,0:0:0:0:
257,193,82673,5,0,0:0:0:0:
257,193,82840,5,8,0:0:0:0:
257,193,83173,5,8,0:0:0:0:
257,193,83340,5,0,0:0:0:0:
257,193,83673,5,0,0:0:0:0:
257,193,83840,5,8,0:0:0:0:
257,193,84173,5,0,0:0:0:0:
257,193,84340,5,0,0:0:0:0:
257,193,84673,5,0,0:0:0:0:
257,193,85007,5,0,0:0:0:0:
257,193,85173,5,8,0:0:0:0:
257,193,85340,5,8,0:0:0:0:
257,193,85507,5,0,0:0:0:0:
257,193,87507,5,12,0:0:0:0:
257,193,87673,5,12,0:0:0:0:
257,193,87840,5,12,0:0:0:0:
257,193,88007,5,4,0:0:0:0:
