osu file format v14

[General]
AudioFilename: audio.mp3
AudioLeadIn: 0
PreviewTime: 48691
Countdown: 0
SampleSet: Soft
StackLeniency: 0.7
Mode: 0
LetterboxInBreaks: 0
WidescreenStoryboard: 1

[Editor]
DistanceSpacing: 2
BeatDivisor: 4
GridSize: 4
TimelineZoom: 1.5

[Metadata]
Title:Bye Bye YESTERDAY (TV Size)
TitleUnicode:バイバイ YESTERDAY (TV Size)
Artist:3 Nen E Gumi Utatan
ArtistUnicode:3年E組うた担
Creator:Nevo
Version:Arc's Hard
Source:暗殺教室 第2期 FINAL SEASON
Tags:assassination classroom anime japanese shira shiratoi -Mercury- Fuchigami Mai 渕上 舞 Suzaki Aya 洲崎 綾 Okamoto Nobuhiko 岡本 信彦 Osaka Ryota Ryōta Ryouta Ōsaka Ousaka Ohsaka 逢坂 良太 Asanuma Shintaro Shintarō Shintarou 浅沼 晋太郎 arc [arc] aakki Sip of Mercury Sip_of_Mercury pop 渚&茅野&業&磯貝&前原 Nagisa Shiota 潮田 Kayano Kaede カエデ Karma Karuma Akabane 赤羽 Isogai Yuuma 悠馬 Maehara Hiroto 陽斗 final season second 2nd Ansatsu Kyoushitsu Kyoshitsu jpop j-pop jrock j-rock rock
BeatmapID:2776394
BeatmapSetID:1332626

[Difficulty]
HPDrainRate:5
CircleSize:4
OverallDifficulty:6
ApproachRate:8
SliderMultiplier:1.45
SliderTickRate:1

[Events]
//Background and Video events
0,0,"BG.jpg",0,0
Video,534,"Video.flv"
//Break Periods
//Storyboard Layer 0 (Background)
//Storyboard Layer 1 (Fail)
//Storyboard Layer 2 (Pass)
//Storyboard Layer 3 (Foreground)
//Storyboard Layer 4 (Overlay)
//Storyboard Sound Samples

[TimingPoints]
812,333.333333333333,4,2,2,60,1,0
6145,-100,4,2,2,50,0,0
6312,-100,4,2,2,50,0,0
27478,-125,4,2,2,60,0,0
28145,-100,4,2,2,60,0,0
30145,-125,4,2,2,60,0,0
30812,-100,4,2,2,60,0,0
32812,-125,4,2,2,60,0,0
33478,-100,4,2,2,60,0,0
38145,-125,4,2,2,60,0,0
38812,-100,4,2,2,60,0,0
40812,-125,4,2,2,60,0,0
41478,-100,4,2,2,60,0,0
48811,-83.3333333333333,4,2,2,80,0,1
59395,-83.3333333333333,4,2,2,80,0,0
59478,-83.3333333333333,4,2,2,80,0,1
70061,-83.3333333333333,4,2,2,80,0,0
70145,-83.3333333333333,4,2,2,90,0,1
80728,-83.3333333333333,4,2,2,70,0,1
80811,-100,4,2,2,70,0,0
80895,-100,4,2,2,70,0,0

[Colours]
Combo1 : 214,210,65
Combo2 : 105,185,211
Combo3 : 237,107,133
Combo4 : 164,199,99

[HitObjects]
66,134,645,5,0,0:0:0:0:
123,75,812,2,0,B|212:86|176:132|262:155,1,145,6|8,3:2|2:0,0:0:0:0:
332,129,1312,2,0,P|338:75|346:41,1,72.5,2|0,2:0|3:2,0:0:0:0:
420,17,1645,1,0,3:2:0:0:
420,17,1812,2,0,B|453:27|470:40|470:40|475:62|478:99,1,108.75,8|0,2:0|0:0,0:0:0:0:
479,129,2145,5,2,3:2:0:0:
481,212,2311,2,0,P|449:200|393:193,1,72.5,2|8,2:0|2:0,0:0:0:0:
330,227,2645,2,0,P|346:292|359:382,1,145,2|0,2:0|3:2,0:0:0:0:
276,371,3145,2,0,P|244:355|204:348,1,72.5,8|0,2:0|0:0,0:0:0:0:
100,317,3478,6,0,P|141:299|162:248,1,72.5,2|0,3:2|0:0,0:0:0:0:
161,189,3812,1,8,2:0:0:0:
161,189,3978,2,0,P|117:175|65:166,1,72.5,2|0,2:0|3:2,0:0:0:0:
168,95,4312,1,0,3:2:0:0:
172,99,4478,2,0,P|224:84|284:72,1,108.75,8|0,2:0|0:0,0:0:0:0:
305,92,4812,5,2,3:2:0:0:
345,163,4978,2,0,P|377:191|425:185,1,72.5,2|8,2:0|2:0,0:0:0:0:
472,145,5312,1,2,2:0:0:0:
476,149,5478,2,0,L|478:85,3,36.25,0|8|8|8,3:2|2:0|0:2|2:0,0:0:0:0:
478,77,5812,1,8,2:0:0:0:
226,1,6312,5,2,2:0:0:0:
170,61,6478,2,0,L|91:44,1,72.5,8|0,2:0|0:0,0:0:0:0:
23,28,6812,1,0,3:2:0:0:
23,28,6978,1,2,3:2:0:0:
138,162,7312,6,0,P|120:86|196:69,1,145,10|0,2:0|3:2,0:0:0:0:
235,134,7812,2,0,L|216:280,1,145,10|2,2:0|3:2,0:0:0:0:
263,346,8312,1,0,3:2:0:0:
334,300,8478,1,8,2:0:0:0:
495,346,8812,6,0,L|486:265,1,72.5,2|2,3:2|2:0,0:0:0:0:
475,193,9145,2,0,L|401:205,1,72.5,8|2,2:0|2:0,0:0:0:0:
399,100,9478,1,0,3:2:0:0:
399,100,9645,2,0,L|478:114,1,72.5,2|2,3:2|2:0,0:0:0:0:
397,0,9978,6,0,B|388:53|388:53|399:97|399:97|387:157,1,145,10|0,2:0|3:2,0:0:0:0:
328,202,10478,2,0,P|286:212|241:124,1,145,10|2,2:0|3:2,0:0:0:0:
211,55,10978,1,0,3:2:0:0:
128,65,11145,1,8,2:0:0:0:
128,157,11312,5,8,2:0:0:0:
128,157,11395,1,8,2:0:0:0:
128,157,11478,2,0,L|138:236,1,72.5,2|2,3:2|2:0,0:0:0:0:
108,303,11812,2,0,L|19:287,1,72.5,8|2,2:0|2:0,0:0:0:0:
150,375,12145,1,0,3:2:0:0:
150,375,12312,2,0,L|231:358,1,72.5,2|2,3:2|2:0,0:0:0:0:
274,270,12645,6,0,B|315:298|315:298|312:353|312:353|347:375,1,145,10|0,2:0|3:2,0:0:0:0:
426,335,13145,1,10,2:0:0:0:
505,190,13478,2,0,L|477:116,1,72.5,2|0,3:2|3:2,0:0:0:0:
408,74,13812,2,0,L|330:111,1,72.5,8|0,2:0|2:0,0:0:0:0:
277,167,14145,6,0,L|199:144,1,72.5,2|2,3:2|2:0,0:0:0:0:
154,79,14478,1,8,2:0:0:0:
154,79,14645,1,2,2:0:0:0:
85,142,14812,2,0,P|105:178|102:216,1,72.5,0|2,3:2|3:2,0:0:0:0:
84,289,15145,1,2,2:0:0:0:
135,353,15312,6,0,L|278:294,1,145,10|0,2:0|3:2,0:0:0:0:
352,272,15812,2,0,B|331:200|331:200|379:109,1,145,10|2,2:0|3:2,0:0:0:0:
456,125,16312,1,0,3:2:0:0:
512,196,16478,2,0,B|511:243|493:222|490:275,1,72.5,8|8,2:0|2:0,0:0:0:0:
498,285,16728,1,8,2:0:0:0:
504,303,16812,1,2,3:2:0:0:
440,369,16978,6,0,B|371:323|356:392|274:374,1,145,2|2,2:0|2:0,0:0:0:0:
223,331,17478,1,0,3:2:0:0:
223,331,17645,2,0,P|211:283|208:249,1,72.5,2|2,3:2|2:0,0:0:0:0:
239,169,17978,6,0,P|139:176|137:219,1,145,10|0,2:0|3:2,0:0:0:0:
80,266,18478,2,0,P|32:240|0:233,1,72.5,10|0,2:0|0:0,0:0:0:0:
0,150,18812,1,2,3:2:0:0:
0,150,18978,1,0,3:2:0:0:
31,73,19145,2,0,B|78:78|64:102|110:107,1,72.5,8|0,2:0|0:0,0:0:0:0:
193,76,19478,6,0,P|205:27|207:-2,1,72.5,2|2,3:2|2:0,0:0:0:0:
304,10,19812,2,0,P|304:57|309:88,1,72.5,8|2,2:0|2:0,0:0:0:0:
366,152,20145,1,0,3:2:0:0:
366,152,20312,2,0,P|404:134|441:141,1,72.5,2|2,3:2|2:0,0:0:0:0:
486,205,20645,1,10,2:0:0:0:
454,291,20812,6,0,B|388:293|405:220|326:230,1,145,2|10,2:0|2:0,0:0:0:0:
269,290,21312,1,0,0:0:0:0:
215,220,21478,2,0,B|217:179|239:191|236:143,1,72.5,2|0,3:2|3:2,0:0:0:0:
209,73,21812,1,8,2:0:0:0:
122,71,21978,5,8,2:0:0:0:
122,71,22062,1,8,2:0:0:0:
122,71,22145,2,0,P|75:86|46:129,1,72.5,2|2,3:2|2:0,0:0:0:0:
17,175,22478,2,0,P|29:218|38:262,1,72.5,8|2,2:0|2:0,0:0:0:0:
101,310,22812,1,0,3:2:0:0:
101,310,22978,2,0,P|115:264|126:237,1,72.5,2|2,3:2|2:0,0:0:0:0:
192,181,23312,5,10,2:0:0:0:
278,190,23478,2,0,B|323:193|306:216|362:220,2,72.5,2|0|10,2:0|3:2|2:0,0:0:0:0:
371,142,23978,1,0,0:0:0:0:
336,65,24145,2,0,P|286:65|258:103,1,72.5,2|0,3:2|3:2,0:0:0:0:
196,111,24478,2,0,P|172:66|144:30,1,72.5,8|0,2:0|0:0,0:0:0:0:
90,5,24812,6,0,P|66:33|29:52,1,72.5,2|2,3:2|2:0,0:0:0:0:
19,133,25145,2,0,P|53:154|74:187,1,72.5,8|2,2:0|2:0,0:0:0:0:
73,261,25478,1,0,3:2:0:0:
73,261,25645,2,0,P|69:308|62:354,1,72.5,2|2,3:2|2:0,0:0:0:0:
171,356,25978,6,0,P|163:277|161:197,1,145,10|0,2:0|3:2,0:0:0:0:
230,153,26478,1,10,2:0:0:0:
301,199,26645,1,0,0:0:0:0:
376,154,26812,2,0,P|382:111|382:73,1,72.5,10|0,2:0|3:2,0:0:0:0:
460,187,27145,2,0,B|479:252|445:237|472:324,1,108.75,10|0,2:0|0:0,0:0:0:0:
481,329,27478,6,0,P|449:360|394:271,1,174,6|8,3:2|2:0,0:0:0:0:
300,228,28145,2,0,P|351:274|384:156,1,217.5,2|0,2:0|0:0,0:0:0:0:
320,128,28812,6,0,P|283:118|230:110,1,72.5,2|0,3:2|3:2,0:0:0:0:
180,165,29145,1,2,2:0:0:0:
125,93,29312,2,0,P|86:102|29:111,1,72.5,8|2,2:0|2:0,0:0:0:0:
43,215,29645,1,0,3:2:0:0:
43,215,29812,2,0,P|100:227|115:282,1,108.75,8|0,2:0|0:0,0:0:0:0:
114,302,30145,6,0,P|191:321|279:368,1,174,2|8,3:2|2:0,0:0:0:0:
352,304,30812,2,0,P|296:312|145:376,1,217.5,2|0,2:0|0:0,0:0:0:0:
51,360,31478,6,0,P|27:309|40:266,1,72.5,2|0,3:2|3:0,0:0:0:0:
78,224,31812,1,10,2:0:0:0:
87,232,32145,2,0,P|102:181|85:134,1,72.5,2|0,2:0|3:2,0:0:0:0:
32,94,32478,1,10,2:0:0:0:
173,2,32812,6,0,B|240:9|233:55|221:103|299:117,1,174,2|8,3:2|2:0,0:0:0:0:
244,186,33478,2,0,B|285:109|325:136|373:167|416:72,1,217.5,2|0,2:0|0:0,0:0:0:0:
476,18,34145,6,0,P|492:55|493:110,1,72.5,2|0,3:2|3:2,0:0:0:0:
470,165,34478,1,2,2:0:0:0:
495,251,34645,2,0,P|453:247|413:276,1,72.5,8|2,2:0|2:0,0:0:0:0:
373,330,34978,1,0,3:2:0:0:
373,330,35145,2,0,P|303:329|255:291,1,108.75,8|0,2:0|0:0,0:0:0:0:
251,293,35478,6,0,L|283:221,2,72.5,2|0|2,3:2|3:2|2:0,0:0:0:0:
203,190,35978,1,8,2:0:0:0:
127,223,36145,2,0,P|89:224|63:181,1,72.5,2|0,2:0|3:2,0:0:0:0:
31,130,36478,2,0,P|60:95|99:62,1,72.5,8|0,2:0|0:0,0:0:0:0:
196,45,36812,6,0,P|204:107|202:199,2,145,2|10|2,3:2|2:0|2:0,0:0:0:0:
264,0,37645,1,0,3:2:0:0:
337,39,37812,1,8,2:0:0:0:
489,3,38145,6,0,P|442:36|512:101,1,174,6|8,3:2|2:0,0:0:0:0:
455,191,38812,2,0,P|382:148|474:106,1,217.5,2|0,2:0|0:0,0:0:0:0:
512,246,39478,6,0,P|482:269|420:267,1,72.5,2|0,3:2|3:2,0:0:0:0:
368,254,39812,1,2,2:0:0:0:
287,313,39978,2,0,L|303:401,1,72.5,8|2,2:0|2:0,0:0:0:0:
201,325,40312,1,0,3:2:0:0:
201,325,40478,2,0,P|152:289|179:230,1,108.75,8|0,2:0|0:0,0:0:0:0:
179,215,40812,6,0,P|113:188|10:162,1,174,2|8,3:2|2:0,0:0:0:0:
113,103,41478,2,0,P|203:71|317:13,1,217.5,2|0,2:0|0:0,0:0:0:0:
390,63,42145,6,0,P|380:118|378:144,1,72.5,2|0,3:2|0:0,0:0:0:0:
419,212,42478,1,10,2:0:0:0:
428,201,42812,2,0,P|470:196|503:228,1,72.5,2|0,2:0|3:2,0:0:0:0:
477,311,43145,2,0,P|435:316|402:284,1,72.5,10|0,2:0|0:0,0:0:0:0:
326,230,43478,5,2,3:2:0:0:
326,230,43645,1,0,3:2:0:0:
220,332,43978,1,8,2:0:0:0:
220,332,44145,2,0,P|221:282|243:244,1,72.5,2|0,2:0|3:2,0:0:0:0:
219,175,44478,2,0,L|134:149,1,72.5,8|0,2:0|0:0,0:0:0:0:
68,87,44812,6,0,P|113:74|156:70,1,72.5,2|0,3:2|3:2,0:0:0:0:
195,0,45145,1,2,2:0:0:0:
273,28,45312,2,0,P|312:52|336:80,1,72.5,8|2,2:0|2:0,0:0:0:0:
352,154,45645,1,0,3:2:0:0:
423,109,45812,2,0,P|448:42|494:38,1,108.75,8|0,2:0|0:0,0:0:0:0:
511,63,46145,6,0,P|506:100|505:149,1,72.5,6|0,3:2|3:2,0:0:0:0:
512,226,46478,1,10,2:0:0:0:
512,226,46645,1,8,2:0:0:0:
475,307,46812,2,0,L|389:282,1,72.5,2|0,2:0|3:2,0:0:0:0:
323,325,47145,1,8,2:0:0:0:
269,262,47312,1,8,2:0:0:0:
201,334,47478,6,0,L|125:341,1,72.5,2|0,3:2|3:2,0:0:0:0:
32,241,47812,2,0,L|108:252,1,72.5,10|0,2:0|3:2,0:0:0:0:
168,171,48145,1,8,2:0:0:0:
168,171,48811,6,0,P|158:119|131:77,1,87,6|0,3:2|0:0,0:0:0:0:
196,15,49145,2,0,P|249:29|292:21,1,87,10|0,2:0|0:0,0:0:0:0:
310,112,49478,2,0,B|270:140|270:140|273:233,1,130.5,2|0,3:2|0:0,0:0:0:0:
275,255,49812,1,8,2:0:0:0:
270,346,49978,6,0,B|182:359|211:258|101:292,1,174,2|0,2:0|0:0,0:0:0:0:
38,318,50478,1,8,2:0:0:0:
38,318,50645,1,0,0:0:0:0:
104,201,50812,2,0,L|118:295,1,87,2|2,3:2|3:2,0:0:0:0:
202,298,51145,2,0,L|227:214,1,87,8|2,2:0|2:0,0:0:0:0:
155,124,51478,6,0,P|102:100|32:142,1,130.5,2|0,3:2|0:0,0:0:0:0:
28,157,51812,2,0,L|204:219,1,174,10|2,2:0|3:2,0:0:0:0:
291,271,52312,1,2,3:2:0:0:
359,223,52478,1,8,2:0:0:0:
443,263,52645,6,0,B|463:204|463:204|442:155|442:155|462:100,1,174,2|0,2:0|0:0,0:0:0:0:
422,23,53145,2,0,L|336:-1,1,87,10|0,2:0|0:0,0:0:0:0:
270,56,53478,1,2,3:2:0:0:
270,56,53645,1,2,3:2:0:0:
190,77,53812,2,0,P|210:139|211:192,1,87,10|0,2:0|0:0,0:0:0:0:
159,224,54145,5,6,3:2:0:0:
74,235,54312,1,0,0:0:0:0:
57,319,54478,2,0,L|171:302,1,87,8|0,2:0|0:0,0:0:0:0:
252,311,54812,2,0,L|350:335,1,87,2|0,3:2|3:2,0:0:0:0:
413,273,55145,1,10,2:0:0:0:
413,273,55312,1,2,2:0:0:0:
371,179,55478,6,0,P|334:211|318:252,1,87,2|0,3:2|0:0,0:0:0:0:
287,116,55812,1,10,2:0:0:0:
291,120,55978,2,0,P|282:69|259:36,1,87,0|0,0:0|3:2,0:0:0:0:
167,102,56312,1,2,3:2:0:0:
192,176,56478,1,10,2:0:0:0:
213,249,56645,1,2,2:0:0:0:
161,321,56812,6,0,B|99:314|150:284|46:283,1,87,2|2,3:2|2:0,0:0:0:0:
217,384,57145,2,0,P|285:378|320:282,1,174,10|0,2:0|3:2,0:0:0:0:
299,201,57645,1,2,3:2:0:0:
348,133,57812,1,10,2:0:0:0:
428,143,57978,1,2,2:0:0:0:
472,209,58145,6,0,P|460:254|450:305,1,87,2|2,3:2|2:0,0:0:0:0:
367,384,58478,1,10,2:0:0:0:
367,384,58645,1,10,2:0:0:0:
301,335,58812,2,0,P|246:312|206:304,1,87,2|0,2:0|3:2,0:0:0:0:
135,252,59145,1,8,2:0:0:0:
67,289,59312,1,0,3:2:0:0:
9,214,59478,6,0,P|-1:168|17:123,1,87,6|0,3:2|0:0,0:0:0:0:
102,79,59812,2,0,L|186:95,1,87,10|0,2:0|0:0,0:0:0:0:
250,179,60145,2,0,B|301:170|301:170|333:192|333:192|384:183,1,130.5,2|0,3:2|0:0,0:0:0:0:
398,178,60478,1,8,2:0:0:0:
476,125,60645,6,0,P|484:170|481:315,1,174,2|2,2:0|0:0,0:0:0:0:
410,356,61145,1,8,2:0:0:0:
338,323,61312,1,2,0:0:0:0:
262,349,61478,2,0,L|174:380,1,87,2|2,3:2|3:2,0:0:0:0:
172,243,61812,2,0,L|262:266,1,87,8|2,2:0|2:0,0:0:0:0:
146,157,62145,6,0,P|87:201|91:280,1,130.5,2|0,3:2|0:0,0:0:0:0:
85,275,62478,2,0,P|52:172|20:92,1,174,10|2,2:0|3:2,0:0:0:0:
60,26,62978,1,2,3:2:0:0:
131,59,63145,1,8,2:0:0:0:
226,12,63312,6,0,B|312:-38|318:49|396:25,1,174,2|0,2:0|0:0,0:0:0:0:
457,85,63812,2,0,P|404:112|349:106,1,87,10|0,2:0|0:0,0:0:0:0:
335,193,64145,1,2,3:2:0:0:
335,193,64312,1,2,3:2:0:0:
381,262,64478,2,0,L|476:247,1,87,10|0,2:0|0:0,0:0:0:0:
307,334,64812,5,6,3:2:0:0:
240,295,64978,1,2,2:0:0:0:
165,355,65145,2,0,L|69:369,1,87,8|2,2:0|2:0,0:0:0:0:
16,295,65478,2,0,L|0:192,1,87,2|2,3:2|3:2,0:0:0:0:
110,133,65812,1,10,2:0:0:0:
110,133,65978,1,2,2:0:0:0:
124,211,66145,6,0,P|184:211|222:194,1,87,2|2,3:2|2:0,0:0:0:0:
286,164,66478,1,10,2:0:0:0:
340,234,66645,2,0,P|323:289|317:335,1,87,2|0,2:0|3:2,0:0:0:0:
440,292,66978,1,2,3:2:0:0:
459,212,67145,1,10,2:0:0:0:
473,135,67312,1,2,2:0:0:0:
415,71,67478,6,0,B|358:66|384:101|313:92,1,87,2|0,3:2|0:0,0:0:0:0:
248,20,67812,2,0,P|298:36|313:152,1,174,10|0,2:0|3:2,0:0:0:0:
251,213,68312,2,0,B|198:208|219:180|140:184,1,87,2|10,3:2|2:0,0:0:0:0:
77,218,68645,1,2,2:0:0:0:
11,146,68812,6,0,P|6:91|12:60,1,87,2|2,3:2|2:0,0:0:0:0:
87,229,69145,2,0,P|89:282|76:330,1,87,10|2,2:0|2:0,0:0:0:0:
177,349,69478,1,10,2:0:0:0:
252,316,69645,1,0,3:2:0:0:
358,340,69812,2,0,B|334:326|334:326|316:253|316:253|269:231,1,130.5,12|0,2:0|0:0,0:0:0:0:
263,231,70145,6,0,P|311:215|339:172,1,87,6|0,3:2|0:0,0:0:0:0:
341,82,70478,2,0,P|297:45|234:49,1,87,10|0,2:0|0:0,0:0:0:0:
181,75,70812,2,0,B|211:117|211:117|180:215,1,130.5,2|0,3:2|0:0,0:0:0:0:
173,222,71145,1,8,2:0:0:0:
75,240,71312,6,0,P|47:166|-17:61,1,174,2|2,2:0|2:0,0:0:0:0:
60,33,71812,1,8,2:0:0:0:
134,0,71978,1,2,2:0:0:0:
181,75,72145,2,0,L|283:97,1,87,2|2,3:2|3:2,0:0:0:0:
382,64,72478,2,0,P|345:112|349:170,1,87,8|2,2:0|2:0,0:0:0:0:
437,206,72812,6,0,P|462:161|459:63,1,130.5,2|0,3:2|0:0,0:0:0:0:
453,59,73145,2,0,B|359:17|383:132|265:92,1,174,10|2,2:0|3:2,0:0:0:0:
204,79,73645,1,2,3:2:0:0:
192,162,73812,1,8,2:0:0:0:
264,220,73978,6,0,P|326:222|332:325,1,174,2|0,2:0|0:0,0:0:0:0:
224,317,74478,2,0,L|124:292,1,87,10|0,2:0|0:0,0:0:0:0:
45,237,74812,1,2,3:2:0:0:
113,191,74978,1,2,3:2:0:0:
70,114,75145,2,0,L|36:26,1,87,10|0,2:0|0:0,0:0:0:0:
130,0,75478,5,6,3:2:0:0:
195,49,75645,2,0,P|238:52|288:27,1,87,2|8,2:0|2:0,0:0:0:0:
377,134,75978,2,0,P|322:138|287:116,1,87,2|2,2:0|3:2,0:0:0:0:
247,204,76312,1,2,3:2:0:0:
247,204,76478,2,0,P|241:263|241:318,1,87,10|2,2:0|2:0,0:0:0:0:
297,364,76812,6,0,B|382:318|380:411|474:370,1,174,2|10,3:2|2:0,0:0:0:0:
512,308,77312,1,2,2:0:0:0:
512,225,77478,2,0,B|491:154|491:154|493:143|493:143|464:45,1,174,0|10,3:2|2:0,0:0:0:0:
406,8,77978,1,2,2:0:0:0:
348,77,78145,6,0,L|255:60,1,87,2|2,3:2|2:0,0:0:0:0:
164,151,78478,1,10,2:0:0:0:
240,138,78645,1,2,2:0:0:0:
258,219,78812,2,0,P|255:278|247:325,1,87,2|2,3:2|3:2,0:0:0:0:
152,351,79145,2,0,L|42:323,1,87,10|2,2:0|2:0,0:0:0:0:
250,305,79478,6,0,L|360:323,1,87,2|0,3:2|3:0,0:0:0:0:
411,185,79812,2,0,P|347:230|339:266,1,87,14|0,3:2|0:0,0:0:0:0:
434,290,80145,1,2,3:2:0:0:
504,226,80312,1,8,2:0:0:0:
504,226,80395,1,8,2:0:0:0:
504,226,80478,2,0,L|512:175,3,43.5,8|8|8|8,2:0|2:0|2:0|2:0,0:0:0:0:
512,143,80811,6,0,P|454:99|356:97,1,145,6|8,3:2|2:0,0:0:0:0:
298,125,81311,2,0,P|287:90|268:59,1,72.5,2|0,2:0|3:2,0:0:0:0:
191,35,81645,1,0,3:2:0:0:
136,100,81812,2,0,L|53:81,1,72.5,8|0,2:0|0:0,0:0:0:0:
23,166,82145,5,2,3:2:0:0:
23,166,82312,2,0,P|29:220|28:269,1,72.5,2|8,2:0|2:0,0:0:0:0:
59,324,82645,2,0,B|132:286|142:366|222:325,1,145,2|0,2:0|3:2,0:0:0:0:
289,346,83145,2,0,P|292:309|301:274,1,72.5,8|0,2:0|0:0,0:0:0:0:
219,183,83478,6,0,P|217:237|225:273,1,72.5,2|0,3:2|0:0,0:0:0:0:
320,194,83812,1,8,2:0:0:0:
320,194,83978,2,0,L|307:117,1,72.5,2|0,2:0|3:2,0:0:0:0:
414,149,84312,1,0,3:2:0:0:
414,149,84478,2,0,L|401:262,1,108.75,8|0,2:0|0:0,0:0:0:0:
400,282,84812,5,2,3:2:0:0:
391,368,84978,2,0,P|442:379|479:361,1,72.5,2|8,2:0|2:0,0:0:0:0:
313,313,85311,2,0,P|262:305|230:325,1,72.5,2|0,2:0|3:2,0:0:0:0:
161,360,85645,1,2,2:0:0:0:
161,360,85812,2,0,L|78:333,1,72.5,8|0,2:0|0:0,0:0:0:0:
27,266,86145,6,0,B|38:207|38:207|64:183|64:183|77:123,1,145,6|8,3:2|2:0,0:0:0:0:
113,39,86645,2,0,P|156:61|203:53,1,72.5,2|0,2:0|3:2,0:0:0:0:
255,19,86978,1,0,3:2:0:0:
308,81,87145,2,0,L|290:200,1,108.75,8|0,2:0|0:0,0:0:0:0:
286,214,87478,5,2,3:2:0:0:
225,280,87645,2,0,P|190:251|138:232,1,72.5,2|8,2:0|2:0,0:0:0:0:
261,359,87978,2,0,P|310:343|348:341,1,72.5,2|0,2:0|3:2,0:0:0:0:
418,361,88312,1,0,3:2:0:0:
418,361,88478,2,0,L|440:270,1,72.5,8|0,2:0|0:0,0:0:0:0:
507,226,88812,6,0,L|479:73,1,145,2|8,3:2|2:0,0:0:0:0:
438,0,89312,2,0,P|372:50|397:111,1,145,2|0,2:0|3:2,0:0:0:0:
366,190,89812,2,0,P|311:195|277:211,1,72.5,8|0,2:0|0:0,0:0:0:0:
212,102,90145,6,0,P|255:104|289:115,1,72.5,2|2,3:2|2:0,0:0:0:0:
213,208,90478,2,0,L|126:184,1,72.5,8|2,2:0|2:0,0:0:0:0:
68,142,90812,5,8,2:0:0:0:
15,202,90978,1,0,3:0:0:0:
47,277,91145,1,2,3:2:0:0:
2,343,91312,1,10,2:0:0:0:
