osu file format v14

[General]
AudioFilename: audio.mp3
AudioLeadIn: 0
PreviewTime: -1
Countdown: 1
SampleSet: Normal
StackLeniency: 0.7
Mode: 0
LetterboxInBreaks: 0
WidescreenStoryboard: 0

[Editor]
DistanceSpacing: 0.5
BeatDivisor: 4
GridSize: 16
TimelineZoom: 2

[Metadata]
Title:Bye Bye YESTERDAY
TitleUnicode:バイバイ YESTERDAY
Artist:3 Nen E Gumi Utatan
ArtistUnicode:3年E組うた担
Creator:EmiliaOurTenshi
Version:Insane
Source:暗殺教室 第2期 FINAL SEASON
Tags:
BeatmapID:1449834
BeatmapSetID:685119

[Difficulty]
HPDrainRate:0.2
CircleSize:4
OverallDifficulty:7.5
ApproachRate:9
SliderMultiplier:1.6
SliderTickRate:2

[Events]
//Background and Video events
0,0,"680752.jpg",0,0
//Break Periods
//Storyboard Layer 0 (Background)
//Storyboard Layer 1 (Fail)
//Storyboard Layer 2 (Pass)
//Storyboard Layer 3 (Foreground)
//Storyboard Sound Samples

[TimingPoints]
441,333.333333333333,4,1,0,100,1,0
27441,-125,4,1,0,100,0,0
27940,-100,4,1,0,100,0,0
48774,-83.3333333333333,4,1,0,100,0,1
59442,-83.3333333333333,4,1,0,100,0,1
70107,-83.3333333333333,4,1,0,100,0,1
80774,-100,4,1,0,100,0,0

[Colours]
Combo1 : 139,2,185
Combo2 : 250,213,3

[HitObjects]
368,80,608,6,0,B|384:30|384:30|432:16,1,80
448,96,1108,2,0,B|432:146|432:146|384:160,1,80
144,288,1608,6,0,B|128:238|128:238|80:224,1,80
64,304,2108,2,0,B|80:354|80:354|128:368,1,80
272,304,2608,2,0,P|336:272|384:192,1,160
368,80,3274,6,0,B|384:30|384:30|432:16,1,80
448,96,3774,2,0,B|432:146|432:146|384:160,1,80
144,288,4274,6,0,B|128:238|128:238|80:224,1,80
64,304,4774,2,0,B|80:354|80:354|128:368,1,80
256,320,5274,2,0,P|288:240|272:160,1,160
276,165,5691,1,8,0:0:0:0:
276,165,5774,1,8,0:0:0:0:
80,192,6274,5,0,0:0:0:0:
128,112,6441,2,0,P|160:80|192:64,1,80
272,96,6774,2,0,P|240:128|208:144,1,80
159,261,7274,6,0,P|191:309|239:325,1,80
322,330,7608,2,0,P|364:288|364:240,1,80
357,175,8108,1,0,0:0:0:0:
336,272,8774,6,0,P|368:256|400:208,1,80
256,112,9108,2,0,P|208:80|160:80,1,80
176,272,9441,2,0,P|144:288|96:336,1,80
336,272,9774,2,0,P|368:256|416:208,1,80
320,192,10108,2,0,P|288:208|240:256,1,80
258,233,10441,1,0,0:0:0:0:
336,336,10774,6,8,B|374:354|374:354|412:324,2,80
144,192,11608,6,0,P|160:160|192:128,1,80
288,96,11941,1,0,0:0:0:0:
384,160,12108,2,0,P|416:224|416:240,1,80
342,227,12441,2,0,P|338:298|330:311,1,80
224,336,12774,2,0,P|176:336|144:320,2,80
384,288,13441,6,0,P|416:256|416:208,1,80
384,96,13774,1,0,0:0:0:0:
320,208,13941,1,0,0:0:0:0:
176,272,14108,2,0,B|128:264|128:264|104:212,1,80
120,156,14441,2,0,B|167:164|167:164|190:216,1,80
288,281,14774,5,0,0:0:0:0:
384,240,14941,2,0,B|416:224|416:224|432:160,1,80
364,91,15274,1,0,0:0:0:0:
243,43,15441,2,0,B|194:30|194:30|164:65,1,80
99,158,15774,1,0,0:0:0:0:
93,298,16108,6,8,B|112:336|112:336|160:336,2,80
128,160,16941,6,0,P|160:112|208:96,1,80
288,48,17274,1,0,0:0:0:0:
400,128,17441,2,0,P|384:160|336:208,1,80
210,186,17774,1,0,0:0:0:0:
84,241,17941,2,0,P|72:274|84:331,1,80
243,357,18274,1,0,0:0:0:0:
150,278,18441,2,0,P|161:244|192:208,1,80
288,135,18774,1,0,0:0:0:0:
128,96,18941,5,8,0:0:0:0:
128,96,19108,1,8,0:0:0:0:
304,320,19441,5,0,0:0:0:0:
397,254,19608,2,0,P|425:215|400:176,1,80
347,88,19941,1,0,0:0:0:0:
203,73,20108,2,0,P|163:78|116:105,1,80
150,168,20441,2,0,P|186:151|240:149,1,80
315,238,20774,2,0,P|299:286|251:302,1,80
178,347,21108,5,8,0:0:0:0:
65,254,21274,2,8,P|53:210|63:160,1,80
145,35,21774,1,8,0:0:0:0:
177,262,22274,5,0,0:0:0:0:
252,142,22441,2,0,P|277:116|341:105,1,80
407,174,22774,1,0,0:0:0:0:
370,278,22941,1,0,0:0:0:0:
255,340,23108,2,0,P|212:343|175:314,1,80
131,197,23441,2,0,P|155:156|188:130,1,80
284,72,23774,1,0,0:0:0:0:
210,205,23941,1,0,0:0:0:0:
298,266,24108,2,0,P|347:248|377:222,1,80
416,129,24441,1,0,0:0:0:0:
304,144,24774,5,0,0:0:0:0:
128,48,24941,2,0,P|168:64|213:103,1,80
159,156,25274,2,0,P|131:131|75:115,1,80
51,235,25608,1,0,0:0:0:0:
157,305,25774,2,0,P|193:328|246:333,1,80
344,310,26108,2,0,P|377:276|387:233,1,80
368,160,26441,1,0,0:0:0:0:
257,46,26608,5,8,0:0:0:0:
257,46,26774,1,8,0:0:0:0:
93,62,27108,1,8,0:0:0:0:
116,217,27441,6,0,P|223:255|304:205,1,192
387,104,28108,1,8,0:0:0:0:
453,168,28275,1,8,0:0:0:0:
450,253,28442,1,8,0:0:0:0:
327,84,28774,1,0,0:0:0:0:
180,110,29108,2,0,P|134:119|100:158,1,75
83,180,29441,1,8,0:0:0:0:
203,83,29774,1,8,0:0:0:0:
380,116,30108,1,8,0:0:0:0:
233,87,30774,5,8,0:0:0:0:
183,116,30941,1,8,0:0:0:0:
156,163,31108,1,8,0:0:0:0:
132,273,31441,1,0,0:0:0:0:
228,340,31774,2,0,P|267:352|312:343,1,75
400,304,32108,2,8,P|435:242|432:144,1,150
384,64,32774,1,8,0:0:0:0:
128,144,33441,5,8,0:0:0:0:
154,182,33608,1,8,0:0:0:0:
194,213,33774,1,8,0:0:0:0:
352,256,34108,1,0,0:0:0:0:
176,304,34441,1,0,0:0:0:0:
139,261,34608,1,0,0:0:0:0:
121,204,34774,1,0,0:0:0:0:
132,150,34941,1,0,0:0:0:0:
256,80,35108,2,8,P|341:81|362:153,1,150
340,244,35774,1,0,0:0:0:0:
256,320,35941,2,8,P|217:326|172:295,1,75
130,204,36441,5,0,0:0:0:0:
140,149,36608,1,0,0:0:0:0:
229,55,36774,2,0,P|268:43|309:55,1,75
405,144,37108,1,0,0:0:0:0:
362,296,37441,5,8,0:0:0:0:
343,317,37608,1,8,0:0:0:0:
316,331,37774,1,8,0:0:0:0:
237,198,38108,5,0,0:0:0:0:
260,144,38274,1,0,0:0:0:0:
169,38,38774,1,0,0:0:0:0:
75,115,38941,2,0,P|45:151|49:198,1,75
81,277,39274,1,0,0:0:0:0:
172,329,39441,1,0,0:0:0:0:
336,240,39774,5,8,0:0:0:0:
336,240,39941,1,8,0:0:0:0:
336,240,40108,1,8,0:0:0:0:
181,115,40441,1,0,0:0:0:0:
371,102,40774,1,0,0:0:0:0:
371,102,41108,2,0,P|396:77|445:77,2,75,8|0|0,0:0|0:0|0:0,0:0:0:0:
371,282,41774,2,0,P|396:307|445:307,2,75,8|0|0,0:0|0:0|0:0,0:0:0:0:
316,163,42441,5,8,0:0:0:0:
329,113,42608,2,8,P|345:76|371:54,1,75
466,24,43108,1,0,0:0:0:0:
397,205,43441,1,8,0:0:0:0:
215,271,44108,5,0,0:0:0:0:
220,91,44441,2,8,P|183:98|149:137,2,75
291,291,45108,2,8,P|327:283|361:244,2,75
276,194,45774,5,8,0:0:0:0:
220,114,46108,1,8,0:0:0:0:
123,81,46441,6,8,P|86:103|55:138,1,75
129,162,46774,2,8,P|102:195|85:239,1,75
164,234,47108,2,8,P|152:275|154:322,1,75
300,337,47441,5,8,0:0:0:0:
317,329,47524,1,8,0:0:0:0:
335,320,47608,1,8,0:0:0:0:
351,310,47691,1,8,0:0:0:0:
365,297,47774,1,8,0:0:0:0:
379,284,47858,1,8,0:0:0:0:
388,267,47941,1,8,0:0:0:0:
399,252,48024,1,8,0:0:0:0:
408,234,48108,1,12,0:0:0:0:
261,137,48774,6,8,L|181:217,1,89.9999972534181
244,253,49108,2,8,L|324:173,1,89.9999972534181
367,91,49441,5,8,0:0:0:0:
212,53,49608,1,8,0:0:0:0:
83,143,49774,1,8,0:0:0:0:
89,279,49941,1,8,0:0:0:0:
216,333,50108,1,8,0:0:0:0:
358,334,50274,6,8,P|401:316|434:270,1,89.9999972534181
468,132,50608,1,8,0:0:0:0:
420,298,50774,2,8,P|382:321|334:317,1,89.9999972534181
166,227,51108,1,8,0:0:0:0:
275,70,51274,1,8,0:0:0:0:
404,148,51441,2,8,P|441:188|448:228,1,89.9999972534181
448,336,51774,5,8,0:0:0:0:
270,304,51941,1,8,0:0:0:0:
131,220,52108,2,8,P|128:176|161:127,1,89.9999972534181
255,73,52441,1,8,0:0:0:0:
410,81,52608,2,8,P|410:177|362:273,1,179.999994506836
247,319,53108,6,8,P|194:311|155:274,1,89.9999972534181
71,177,53441,2,8,P|58:135|97:125,1,89.9999972534181
280,160,53774,2,8,P|327:168|376:160,2,89.9999972534181
136,128,54274,5,8,0:0:0:0:
158,291,54441,2,8,P|192:336|241:338,1,89.9999972534181
373,334,54775,1,8,0:0:0:0:
220,200,54941,1,8,0:0:0:0:
99,85,55108,2,8,P|136:47|207:37,1,89.9999972534181
358,50,55441,2,8,B|428:80|428:80|448:196,1,179.999994506836
455,292,55941,5,8,0:0:0:0:
280,319,56108,1,8,0:0:0:0:
138,276,56274,5,8,0:0:0:0:
258,148,56441,1,8,0:0:0:0:
138,276,56608,1,8,0:0:0:0:
262,318,56774,2,8,P|322:319|364:281,1,89.9999972534181
441,202,57108,1,8,0:0:0:0:
303,77,57274,2,8,P|263:52|213:49,1,89.9999972534181
149,253,57608,6,8,P|206:255|243:226,1,89.9999972534181
346,92,57941,1,8,0:0:0:0:
198,192,58108,2,8,P|223:146|262:128,1,89.9999972534181
331,269,58441,2,8,P|314:313|248:322,1,89.9999972534181
167,287,58774,1,8,0:0:0:0:
106,122,58941,5,8,0:0:0:0:
106,122,59108,1,8,0:0:0:0:
288,112,59441,6,8,P|333:88|366:136,1,89.9999972534181
224,272,59774,6,8,P|179:296|146:248,1,89.9999972534181
86,164,60108,5,8,0:0:0:0:
210,74,60274,1,8,0:0:0:0:
374,48,60441,1,8,0:0:0:0:
210,74,60608,1,8,0:0:0:0:
160,224,60774,1,8,0:0:0:0:
153,335,60941,6,8,P|158:343|249:361,1,89.9999972534181
368,302,61274,1,8,0:0:0:0:
448,169,61441,2,8,P|447:121|400:85,1,89.9999972534181
209,69,61774,1,8,0:0:0:0:
112,208,61941,2,8,P|154:247|212:249,1,89.9999972534181
283,248,62274,1,8,0:0:0:0:
372,193,62441,5,8,0:0:0:0:
232,158,62608,1,8,0:0:0:0:
105,95,62774,2,8,P|149:63|191:60,1,89.9999972534181
299,79,63108,1,8,0:0:0:0:
404,144,63274,2,8,P|452:224|420:304,1,179.999994506836
290,351,63774,5,8,0:0:0:0:
143,326,63941,2,8,P|98:290|92:246,1,89.9999972534181
83,113,64274,2,8,P|103:76|155:49,1,89.9999972534181
238,35,64608,5,8,0:0:0:0:
359,75,64774,1,8,0:0:0:0:
395,195,64941,5,8,0:0:0:0:
320,304,65108,2,8,P|295:326|235:322,1,89.9999972534181
133,215,65441,2,8,P|146:162|182:141,1,89.9999972534181
344,152,65774,1,8,0:0:0:0:
308,300,65941,1,8,0:0:0:0:
131,290,66108,2,8,P|96:256|99:201,1,89.9999972534181
151,134,66441,2,8,P|185:167|182:222,1,89.9999972534181
187,294,66774,5,8,0:0:0:0:
287,353,66941,6,8,P|339:355|379:320,1,89.9999972534181
445,212,67274,1,8,0:0:0:0:
396,81,67441,2,8,P|371:42|311:34,1,89.9999972534181
211,40,67774,1,8,0:0:0:0:
129,118,67941,5,8,0:0:0:0:
161,223,68108,1,8,0:0:0:0:
168,344,68274,6,8,P|116:339|86:292,1,89.9999972534181
161,109,68608,1,8,0:0:0:0:
348,125,68774,2,8,P|400:144|438:185,1,89.9999972534181
389,244,69108,2,8,P|346:209|292:198,1,89.9999972534181
197,188,69441,1,8,0:0:0:0:
73,284,69608,5,10,0:0:0:0:
73,284,69774,1,10,0:0:0:0:
393,108,70108,6,8,P|338:95|292:127,1,89.9999972534181
300,303,70441,2,8,P|245:316|199:284,1,89.9999972534181
200,106,70774,2,8,P|145:93|99:125,1,89.9999972534181
54,190,71108,1,8,0:0:0:0:
129,311,71274,1,8,0:0:0:0:
279,328,71441,1,8,0:0:0:0:
404,249,71608,6,8,P|421:199|404:154,1,89.9999972534181
312,28,71941,1,8,0:0:0:0:
148,103,72108,2,8,P|119:147|135:195,1,89.9999972534181
204,316,72441,1,8,0:0:0:0:
382,304,72608,2,8,P|425:252|430:208,1,89.9999972534181
426,86,72941,1,8,0:0:0:0:
341,203,73108,5,8,0:0:0:0:
201,262,73274,1,8,0:0:0:0:
78,199,73441,1,8,0:0:0:0:
111,69,73608,1,8,0:0:0:0:
251,45,73774,1,8,0:0:0:0:
396,91,73941,6,8,P|452:159|444:250,1,179.999994506836
351,325,74441,1,8,0:0:0:0:
213,333,74608,1,8,0:0:0:0:
92,271,74774,2,8,P|60:239|58:188,1,89.9999972534181
93,98,75108,1,8,0:0:0:0:
193,61,75274,5,8,0:0:0:0:
293,42,75441,1,8,0:0:0:0:
384,48,75608,5,8,0:0:0:0:
267,102,75774,1,8,0:0:0:0:
174,183,75941,1,8,0:0:0:0:
128,288,76108,2,8,P|171:333|226:340,1,89.9999972534181
317,320,76441,1,8,0:0:0:0:
415,254,76608,1,8,0:0:0:0:
458,131,76774,2,8,P|410:60|304:28,1,179.999994506836
185,53,77274,5,8,0:0:0:0:
217,167,77441,1,8,0:0:0:0:
336,186,77608,1,8,0:0:0:0:
458,131,77774,2,14,P|431:81|402:60,1,89.9999972534181
102,210,78274,6,8,P|122:168|154:136,1,89.9999972534181
283,54,78607,1,8,0:0:0:0:
437,188,78774,2,8,P|426:233|401:271,1,89.9999972534181
263,350,79108,1,8,0:0:0:0:
382,288,79274,2,8,P|410:240|406:198,1,89.9999972534181
351,73,79608,1,8,0:0:0:0:
195,55,79774,2,8,P|141:66|111:124,1,89.9999972534181
84,258,80108,1,14,0:0:0:0:
239,339,80274,5,8,0:0:0:0:
239,339,80441,1,8,0:0:0:0:
412,288,80608,6,8,P|455:251|452:198,1,89.9999972534181
100,96,81108,2,0,P|57:133|60:186,1,89.9999972534181
234,248,81608,2,0,B|272:240|272:240|285:198,1,75
230,102,82108,5,0,0:0:0:0:
146,91,82274,1,0,0:0:0:0:
57,167,82608,1,8,0:0:0:0:
130,302,82941,1,8,0:0:0:0:
130,302,83024,1,8,0:0:0:0:
130,302,83108,1,8,0:0:0:0:
130,302,83274,6,0,P|151:338|206:328,1,75
382,82,83774,2,0,P|361:46|306:56,1,75
222,170,84274,2,0,B|225:208|225:208|265:226,1,75
367,144,84774,5,0,0:0:0:0:
318,80,84941,1,0,0:0:0:0:
189,94,85274,1,0,0:0:0:0:
96,176,85607,1,8,0:0:0:0:
96,176,85691,1,8,0:0:0:0:
96,176,85774,1,8,0:0:0:0:
96,176,85941,6,0,P|53:167|45:118,1,75
416,208,86441,2,0,P|459:217|467:266,1,75
263,242,86941,2,0,B|226:228|226:228|220:185,1,75
243,71,87441,5,0,0:0:0:0:
309,39,87608,1,0,0:0:0:0:
434,119,87941,1,0,0:0:0:0:
336,272,88275,1,8,0:0:0:0:
336,272,88358,1,8,0:0:0:0:
336,272,88441,1,8,0:0:0:0:
336,272,88608,6,0,P|368:256|400:208,1,75
256,112,89108,2,0,P|208:80|160:80,1,75
176,272,89608,2,0,P|144:288|96:336,1,75
256,192,90108,5,0,0:0:0:0:
256,192,90275,1,0,0:0:0:0:
146,156,90608,5,0,0:0:0:0:
323,284,90774,1,0,0:0:0:0:
256,77,90941,1,0,0:0:0:0:
188,284,91108,1,0,0:0:0:0:
365,156,91274,1,0,0:0:0:0:
