osu file format v14

[General]
AudioFilename: audio.mp3
AudioLeadIn: 0
PreviewTime: 31463
Countdown: 0
SampleSet: Soft
StackLeniency: 0.7
Mode: 0
LetterboxInBreaks: 0
WidescreenStoryboard: 0

[Editor]
Bookmarks: 62167,77167,107167
DistanceSpacing: 0.6
BeatDivisor: 4
GridSize: 4
TimelineZoom: 2

[Metadata]
Title:Nodo ni Yoi Ocha o Nonda ato no Toki no Uta RMX
TitleUnicode:喉に良いお茶を飲んだ後のトキの歌RMX
Artist:2:su
ArtistUnicode:2÷す
Creator:Kyubey
Version:Strangers
Source:けものフレンズ
Tags:crested ibis kemono friends mad nico douga remix toki song after drinking good mirash tea
BeatmapID:2099004
BeatmapSetID:600537

[Difficulty]
HPDrainRate:5
CircleSize:4
OverallDifficulty:5
ApproachRate:7.5
SliderMultiplier:1.6
SliderTickRate:1

[Events]
//Background and Video events
0,0,"bg.jpg",0,0
//Break Periods
//Storyboard Layer 0 (Background)
//Storyboard Layer 1 (Fail)
//Storyboard Layer 2 (Pass)
//Storyboard Layer 3 (Foreground)
//Storyboard Layer 4 (Overlay)
//Storyboard Sound Samples

[TimingPoints]
2167,468.75,4,2,0,50,1,0
17167,-133.333333333333,4,2,0,50,0,0
32167,-100,4,2,1,80,0,0
80682,-100,4,2,1,100,0,0
80917,-100,4,2,1,80,0,0
84432,-100,4,2,1,100,0,0
84667,-100,4,2,1,80,0,0
88182,-100,4,2,1,100,0,0
88417,-100,4,2,1,80,0,0
95682,-100,4,2,1,100,0,0
95917,-100,4,2,1,80,0,0
99432,-100,4,2,1,100,0,0
99667,-100,4,2,1,80,0,0
103182,-100,4,2,1,100,0,0
103417,-100,4,2,1,80,0,0

[Colours]
Combo1 : 17,254,176
Combo2 : 173,255,95
Combo3 : 255,88,100
Combo4 : 255,94,55

[HitObjects]
415,80,17167,6,0,P|434:125|453:184,1,90.0000034332277,0|0,1:2|1:0,0:0:0:0:
452,181,17635,2,0,L|347:173,1,90.0000034332277,2|8,0:0|1:2,0:0:0:0:
345,181,18104,1,0,0:0:0:0:
262,230,18338,1,8,1:2:0:0:
190,167,18573,1,2,0:0:0:0:
48,322,19042,6,0,P|81:316|128:300,1,60.0000022888184,0|0,1:0|1:0,0:0:0:0:
188,359,19510,2,0,P|226:366|299:368,2,90.0000034332277,2|8|8,0:0|1:2|1:2,0:0:0:0:
106,308,20448,1,2,0:2:0:0:
339,248,20917,6,0,P|350:294|361:360,1,90.0000034332277,0|0,1:0|1:0,0:0:0:0:
361,353,21385,2,0,P|403:353|455:347,1,90.0000034332277,2|8,0:0|1:2,0:0:0:0:
466,338,21854,1,0,0:0:0:0:
502,248,22088,1,8,1:2:0:0:
455,166,22323,1,2,0:0:0:0:
408,19,22792,6,0,L|475:25,1,60.0000022888184,0|0,1:0|1:0,0:0:0:0:
352,83,23260,2,0,L|248:94,2,90.0000034332277,2|8|8,0:0|1:2|1:2,0:0:0:0:
467,24,24198,1,2,0:0:0:0:
311,161,24667,6,0,P|276:133|261:91,1,90.0000034332277,0|0,1:0|1:0,0:0:0:0:
264,73,25135,2,0,L|170:76,1,90.0000034332277,2|8,0:0|1:2,0:0:0:0:
161,88,25604,1,0,0:0:0:0:
72,50,25838,1,8,1:2:0:0:
86,145,26073,1,2,0:0:0:0:
41,300,26542,6,0,P|51:330|63:371,1,60.0000022888184,0|0,1:0|1:0,0:0:0:0:
149,259,27010,2,0,P|146:303|133:359,2,90.0000034332277,2|8|8,0:0|1:2|1:2,0:0:0:0:
68,195,27948,1,2,0:0:0:0:
146,359,28417,6,0,L|244:362,1,90.0000034332277,0|0,1:0|1:0,0:0:0:0:
407,288,29237,2,0,L|309:291,1,90.0000034332277,0|0,1:0|1:0,0:0:0:0:
189,201,30292,2,0,L|259:203,1,60.0000022888184,0|0,1:0|1:0,0:0:0:0:
256,192,30643,12,4,32167,1:0:0:0:
382,93,32518,5,0,1:0:0:0:
382,93,32635,2,0,P|337:91|284:117,1,80,8|0,1:1|0:0,0:0:0:0:
294,128,32987,2,0,P|248:80|248:21,1,120,0|0,1:0|1:0,0:0:0:0:
353,187,33573,1,8,1:1:0:0:
502,119,33807,1,2,0:0:0:0:
488,293,34042,6,0,P|450:301|394:301,1,80,0|0,1:0|1:0,0:0:0:0:
336,356,34510,2,0,P|280:333|208:343,1,120,8|0,1:1|1:0,0:0:0:0:
124,373,35096,1,8,1:0:0:0:
124,373,35213,1,0,1:0:0:0:
145,273,35448,2,0,P|154:233|154:181,1,80,8|2,1:1|0:0,0:0:0:0:
144,172,35799,1,8,1:0:0:0:
129,152,35917,6,0,L|265:136,1,120,0|0,1:0|1:0,0:0:0:0:
269,126,36385,2,0,P|259:87|243:50,1,80,8|0,1:1|0:0,0:0:0:0:
229,30,36737,2,0,L|365:14,1,120,0|0,1:0|1:0,0:0:0:0:
401,130,37323,1,8,1:1:0:0:
482,10,37557,1,2,0:0:0:0:
509,171,37792,6,0,L|525:252,1,80,0|0,1:0|1:0,0:0:0:0:
428,360,38260,2,0,L|451:234,1,120,8|0,1:1|1:0,0:0:0:0:
356,264,38846,1,8,1:0:0:0:
356,264,38963,1,0,1:0:0:0:
263,287,39198,2,0,P|219:298|156:320,1,80,8|2,1:1|0:2,0:0:0:0:
167,323,39549,1,8,1:1:0:0:
150,340,39667,6,0,P|92:345|34:309,1,120,4|0,1:0|1:0,0:0:0:0:
41,291,40135,1,8,1:1:0:0:
115,243,40370,1,0,0:0:0:0:
121,215,40487,2,0,P|122:177|52:116,1,120,0|0,1:0|1:0,0:0:0:0:
38,202,41073,1,8,1:1:0:0:
201,235,41307,1,2,0:0:0:0:
346,175,41542,6,0,P|356:218|363:264,1,80,0|0,1:0|1:0,0:0:0:0:
379,341,42010,2,0,P|430:311|449:256,1,120,8|0,1:1|1:0,0:0:0:0:
422,156,42596,1,8,1:0:0:0:
422,156,42713,1,0,1:0:0:0:
478,67,42948,1,8,1:0:0:0:
478,67,43182,1,2,0:0:0:0:
478,67,43417,6,0,B|436:80|436:80|342:63,1,120,0|0,1:0|1:2,0:0:0:0:
337,63,43885,1,8,1:1:0:0:
237,164,44120,2,0,P|208:114|259:30,1,160,0|0,0:0|1:0,0:0:0:0:
343,169,44823,2,0,P|351:214|356:273,1,80,8|2,1:1|0:0,0:0:0:0:
276,335,45292,5,0,1:0:0:0:
401,363,45526,1,0,1:0:0:0:
252,360,45760,2,0,B|213:355|213:355|148:364,1,80,8|0,1:1|0:0,0:0:0:0:
150,368,46112,1,0,1:0:0:0:
50,369,46346,1,8,1:0:0:0:
28,363,46463,2,0,L|16:295,1,40,0|0,1:0|0:0,0:0:0:0:
61,259,46698,2,0,L|49:191,1,40,8|0,1:1|0:0,0:0:0:0:
94,155,46932,2,0,L|82:87,1,40,2|8,0:0|1:0,0:0:0:0:
22,52,47167,6,0,P|69:71|164:84,1,120,4|0,1:0|1:0,0:0:0:0:
156,96,47635,2,0,P|195:81|251:73,1,80,8|0,1:1|0:0,0:0:0:0:
250,90,47987,2,0,P|303:94|391:75,1,120,0|0,1:0|1:0,0:0:0:0:
451,19,48573,1,8,1:1:0:0:
502,156,48807,1,2,0:0:0:0:
435,287,49042,6,0,P|419:320|405:366,1,80,0|0,1:0|1:0,0:0:0:0:
312,377,49510,1,8,1:0:0:0:
312,377,49627,1,0,0:0:0:0:
341,282,49862,2,0,P|328:243|312:207,1,80,0|8,1:0|1:0,0:0:0:0:
288,203,50213,2,0,P|300:164|316:128,1,80,0|8,1:0|1:0,0:0:0:0:
345,43,50682,1,2,0:0:0:0:
345,43,50799,1,8,1:0:0:0:
345,43,50917,6,0,P|383:47|479:38,1,120,0|0,1:0|1:0,0:0:0:0:
486,32,51385,1,8,1:0:0:0:
459,131,51620,1,0,0:0:0:0:
459,131,51737,2,0,P|453:175|513:230,1,120,0|0,1:0|1:0,0:0:0:0:
446,331,52323,1,8,1:0:0:0:
311,273,52557,1,2,0:0:0:0:
170,319,52792,6,0,P|145:281|139:224,1,80,0|0,1:0|1:0,0:0:0:0:
197,171,53260,1,8,1:0:0:0:
197,171,53377,1,0,0:0:0:0:
124,101,53612,2,0,L|221:84,1,80,0|8,1:0|1:0,0:0:0:0:
219,70,53963,2,0,L|297:83,1,80,0|8,1:0|1:0,0:0:0:0:
368,37,54432,1,2,0:0:0:0:
368,37,54549,1,8,1:0:0:0:
368,37,54667,6,0,B|383:77|383:77|360:165,1,120,4|0,1:0|1:0,0:0:0:0:
361,175,55135,2,0,L|451:157,1,80,8|0,1:0|0:0,0:0:0:0:
462,169,55487,2,0,P|477:211|448:278,1,120,0|0,1:0|1:0,0:0:0:0:
348,352,56073,1,8,1:0:0:0:
387,214,56307,1,2,0:0:0:0:
260,307,56542,6,0,L|173:293,1,80,0|0,1:0|1:0,0:0:0:0:
101,338,57010,1,8,1:0:0:0:
101,338,57127,2,0,P|89:298|92:235,1,80,0|0,0:0|1:0,0:0:0:0:
169,200,57596,1,8,1:0:0:0:
169,200,57713,1,0,1:0:0:0:
96,140,57948,1,8,1:0:0:0:
96,140,58182,1,2,0:0:0:0:
96,140,58417,6,0,B|140:153|140:153|233:136,1,120,0|0,1:0|1:0,0:0:0:0:
236,135,58885,1,8,1:0:0:0:
268,38,59120,2,0,P|335:16|412:77,1,160,0|0,0:0|1:0,0:0:0:0:
333,177,59823,2,0,P|329:145|329:91,1,80,8|2,1:0|0:0,0:0:0:0:
449,186,60292,5,0,1:0:0:0:
467,285,60526,1,0,1:0:0:0:
485,384,60760,1,8,1:0:0:0:
485,384,60877,1,0,0:0:0:0:
384,341,61112,2,0,P|342:334|272:340,1,80,0|8,1:0|1:0,0:0:0:0:
282,344,61463,1,0,1:0:0:0:
186,366,61698,6,0,P|132:313|163:222,1,160,8|4,1:0|1:0,0:0:0:0:
261,126,62635,2,0,L|388:134,2,120,8|0|0,1:0|1:0|1:0,0:0:0:0:
142,171,63573,1,8,1:0:0:0:
167,48,63807,1,2,0:0:0:0:
317,79,64042,6,0,P|334:121|314:175,1,80,0|0,1:0|1:0,0:0:0:0:
263,239,64510,2,0,L|407:258,1,120,8|0,1:0|1:0,0:0:0:0:
465,219,65096,1,8,1:0:0:0:
465,219,65213,1,0,1:0:0:0:
491,134,65448,2,0,P|500:95|490:46,1,80,8|2,1:0|0:0,0:0:0:0:
480,35,65799,1,8,1:0:0:0:
463,15,65917,6,0,P|411:4|336:16,1,120,0|0,1:0|1:0,0:0:0:0:
337,35,66385,2,0,P|291:44|229:35,1,80,8|0,1:0|0:0,0:0:0:0:
242,24,66737,2,0,P|275:70|239:147,1,120,0|0,1:0|1:0,0:0:0:0:
126,165,67323,1,8,1:0:0:0:
67,41,67557,1,2,0:0:0:0:
166,163,67792,6,0,L|183:257,1,80,0|0,1:0|1:0,0:0:0:0:
133,338,68260,2,0,B|168:324|168:324|266:339,1,120,8|0,1:0|1:0,0:0:0:0:
337,308,68846,1,8,1:0:0:0:
337,308,68963,1,0,1:0:0:0:
420,353,69198,6,0,P|450:295|373:217,1,160,8|4,1:0|1:0,0:0:0:0:
268,143,70018,1,0,1:0:0:0:
268,143,70135,2,0,P|320:122|389:110,2,120,8|0|0,1:0|1:0|1:0,0:0:0:0:
166,240,71073,1,8,1:0:0:0:
301,226,71307,1,2,0:0:0:0:
135,164,71542,6,0,P|105:186|83:232,1,80,0|0,1:0|1:0,0:0:0:0:
24,154,72010,2,0,P|29:93|48:20,1,120,8|0,1:0|1:0,0:0:0:0:
132,60,72596,1,8,1:0:0:0:
132,60,72713,1,0,1:0:0:0:
228,62,72948,2,0,L|316:53,1,80,8|2,1:0|0:0,0:0:0:0:
331,51,73299,1,8,1:0:0:0:
355,49,73417,6,0,P|395:79|389:165,1,120,4|0,1:0|1:0,0:0:0:0:
384,162,73885,1,8,1:0:0:0:
377,256,74120,1,0,0:0:0:0:
386,278,74237,2,0,L|247:270,1,120,0|0,1:0|1:0,0:0:0:0:
167,364,74823,1,8,1:0:0:0:
74,267,75057,1,2,0:0:0:0:
171,174,75292,6,0,P|184:137|174:73,1,80,0|0,1:0|1:0,0:0:0:0:
133,26,75760,1,8,1:0:0:0:
133,26,75877,1,0,0:0:0:0:
225,21,76112,2,0,L|307:29,1,80,0|8,1:0|1:0,0:0:0:0:
307,52,76463,2,0,L|389:60,1,80,0|8,1:0|1:0,0:0:0:0:
482,25,76932,1,0,0:0:0:0:
471,126,77167,6,0,P|466:168|471:213,1,80,4|0,1:0|0:0,0:0:0:0:
501,287,77635,1,8,1:0:0:0:
501,287,77752,2,0,P|517:327|517:372,2,80,0|0|0,0:0|1:0|0:0,0:0:0:0:
477,284,78338,1,0,1:0:0:0:
453,281,78456,1,0,0:0:0:0:
429,278,78573,1,8,1:0:0:0:
405,275,78690,1,0,0:0:0:0:
321,338,78924,1,0,0:0:0:0:
321,338,79042,6,0,P|298:301|307:239,1,80,0|0,1:0|1:0,0:0:0:0:
378,194,79510,2,0,L|434:202,2,40,8|0|0,1:0|0:0|0:0,0:0:0:0:
317,151,79862,2,0,L|256:158,2,40,0|0|8,1:0|0:0|1:0,0:0:0:0:
383,120,80213,2,0,P|409:95|418:32,1,80,0|8,1:0|1:0,1:0:0:0:
327,46,80682,1,2,0:1:0:0:
204,18,80917,6,0,L|89:33,1,80,4|0,1:0|0:0,0:0:0:0:
103,122,81385,1,8,1:0:0:0:
103,122,81502,2,0,L|23:111,2,80,0|0|0,0:0|1:0|0:0,0:0:0:0:
113,143,82088,1,0,1:0:0:0:
123,164,82206,1,0,0:0:0:0:
133,185,82323,1,8,1:0:0:0:
143,206,82440,1,0,0:0:0:0:
225,153,82674,1,0,0:0:0:0:
225,153,82792,6,0,P|241:189|232:238,1,80,0|0,1:0|1:0,0:0:0:0:
177,321,83260,1,8,1:0:0:0:
177,321,83377,1,0,0:0:0:0:
177,321,83495,1,0,0:0:0:0:
177,321,83612,2,0,P|133:328|90:346,1,80,0|8,1:0|1:0,0:0:0:0:
87,361,83963,1,0,1:0:0:0:
7,303,84198,2,0,P|-2:267|0:217,1,80,8|2,1:0|0:1,0:0:0:0:
101,147,84667,6,0,L|147:153,1,40,4|0,1:0|0:0,0:0:0:0:
211,225,85018,2,0,L|250:219,1,40,0|8,1:0|1:0,0:0:0:0:
302,133,85370,2,0,L|348:139,1,40,0|0,0:0|1:0,0:0:0:0:
379,230,85721,1,0,0:0:0:0:
402,226,85838,1,0,1:0:0:0:
425,222,85956,1,0,0:0:0:0:
448,218,86073,1,8,1:0:0:0:
471,214,86191,1,0,0:0:0:0:
501,304,86424,1,0,0:0:0:0:
501,304,86542,6,0,P|491:344|490:388,1,80,0|0,1:0|1:0,0:0:0:0:
386,328,87010,2,0,P|394:350|399:369,2,40,8|0|0,1:0|0:0|0:0,0:0:0:0:
313,324,87362,2,0,P|307:342|301:362,2,40,0|0|8,1:0|0:0|1:0,0:0:0:0:
351,262,87713,2,0,L|324:165,1,80,0|8,1:0|1:0,0:0:0:0:
257,123,88182,1,2,0:1:0:0:
159,220,88417,6,0,L|124:208,4,20,4|0|0|0|0,1:0|1:0|1:0|1:0|0:0,0:0:0:0:
201,313,88885,1,8,1:0:0:0:
201,313,89002,2,0,P|157:316|122:322,2,80,0|0|0,0:0|1:0|0:0,0:0:0:0:
223,322,89588,1,0,1:0:0:0:
246,326,89706,1,0,0:0:0:0:
269,324,89823,1,8,1:0:0:0:
290,314,89940,1,0,0:0:0:0:
388,286,90174,1,0,0:0:0:0:
388,286,90292,6,0,P|404:322|407:376,1,80,0|0,1:0|1:0,0:0:0:0:
319,219,90760,1,8,1:0:0:0:
326,195,90877,1,0,0:0:0:0:
332,171,90995,1,0,0:0:0:0:
362,141,91112,1,0,1:0:0:0:
356,117,91229,1,0,0:0:0:0:
350,93,91347,1,8,1:0:0:0:
344,69,91463,1,0,1:0:0:0:
431,0,91698,1,8,1:0:0:0:
505,91,91932,1,0,0:0:0:0:
466,197,92167,6,0,L|383:207,1,80,4|0,1:0|0:0,0:0:0:0:
311,281,92635,1,8,1:0:0:0:
311,281,92752,2,0,L|394:291,2,80,0|0|0,0:0|1:0|0:0,0:0:0:0:
287,284,93338,1,0,1:0:0:0:
263,287,93456,1,0,0:0:0:0:
239,290,93573,1,8,1:0:0:0:
215,293,93690,1,0,0:0:0:0:
123,353,93924,1,0,0:0:0:0:
123,353,94042,6,0,P|104:310|114:260,1,80,0|0,1:0|1:0,0:0:0:0:
60,187,94510,2,0,L|5:211,2,40,8|0|0,1:0|0:0|0:0,0:0:0:0:
65,113,94862,2,0,L|14:94,2,40,0|0|8,1:0|0:0|1:0,0:0:0:0:
126,156,95213,2,0,P|175:164|232:155,1,80,0|8,1:0|1:0,1:0:0:0:
291,120,95682,1,2,0:1:0:0:
322,212,95917,6,0,L|410:204,1,80,4|0,1:0|0:0,0:0:0:0:
490,254,96385,1,8,1:0:0:0:
490,254,96502,2,0,P|507:289|509:352,2,80,0|0|0,0:0|1:0|0:0,0:0:0:0:
476,233,97088,1,0,1:0:0:0:
468,210,97206,1,0,0:0:0:0:
465,186,97323,1,8,1:0:0:0:
468,162,97440,1,0,0:0:0:0:
486,59,97674,1,0,0:0:0:0:
486,59,97792,6,0,P|451:58|399:83,1,80,0|0,1:0|1:0,0:0:0:0:
319,66,98260,1,8,1:0:0:0:
319,66,98377,1,0,0:0:0:0:
319,66,98495,1,0,0:0:0:0:
319,66,98612,2,0,P|321:105|334:149,1,80,0|8,1:0|1:0,0:0:0:0:
351,158,98963,1,0,1:0:0:0:
245,172,99198,2,0,L|164:177,1,80,8|2,1:0|0:1,0:0:0:0:
50,236,99667,6,0,L|38:278,1,40,4|0,1:0|0:0,0:0:0:0:
148,344,100018,2,0,L|190:333,1,40,0|8,1:3|1:0,0:0:0:0:
192,205,100370,2,0,L|161:173,1,40,0|0,0:0|1:0,0:0:0:0:
75,89,100721,1,0,0:0:0:0:
98,90,100838,1,0,1:3:0:0:
122,91,100956,1,0,0:3:0:0:
145,93,101073,1,8,1:0:0:0:
168,95,101190,1,0,0:0:0:0:
249,31,101424,1,0,0:0:0:0:
249,31,101542,6,0,L|348:36,1,80,0|0,1:0|1:0,0:0:0:0:
418,125,102010,2,0,L|431:172,2,40,8|0|0,1:0|0:0|0:0,0:0:0:0:
502,173,102362,2,0,L|489:220,2,40,0|0|8,1:0|0:0|1:0,0:0:0:0:
419,235,102713,2,0,L|448:327,1,80,0|8,1:0|1:0,0:0:0:0:
356,353,103182,1,2,0:1:0:0:
294,235,103417,6,0,L|303:204,4,20,4|0|0|0|0,1:0|1:0|1:0|1:0|0:0,0:0:0:0:
245,133,103885,1,8,1:0:0:0:
245,133,104002,2,0,P|280:116|341:123,2,80,0|0|0,0:0|1:0|0:0,0:0:0:0:
223,143,104588,1,0,1:0:0:0:
199,146,104706,1,0,0:0:0:0:
175,142,104823,1,8,1:0:0:0:
154,130,104940,1,0,0:0:0:0:
62,32,105174,1,0,0:0:0:0:
62,32,105292,6,0,L|46:115,1,80,0|0,1:0|1:0,0:0:0:0:
14,224,105760,1,8,1:0:0:0:
35,234,105877,1,0,0:0:0:0:
59,234,105995,1,0,0:0:0:0:
88,259,106112,1,0,1:0:0:0:
112,259,106230,1,0,0:0:0:0:
133,269,106347,1,8,1:0:0:0:
148,287,106463,1,0,1:0:0:0:
156,309,106581,1,0,0:0:0:0:
154,332,106698,1,8,1:0:0:0:
252,375,106932,1,0,0:0:0:0:
334,322,107167,5,4,1:0:0:0:
