osu file format v14

[General]
AudioFilename: audio.mp3
AudioLeadIn: 0
PreviewTime: 31463
Countdown: 0
SampleSet: Soft
StackLeniency: 0.7
Mode: 0
LetterboxInBreaks: 0
WidescreenStoryboard: 0

[Editor]
Bookmarks: 32177,77177,107183
DistanceSpacing: 1.2
BeatDivisor: 4
GridSize: 4
TimelineZoom: 2

[Metadata]
Title:Nodo ni Yoi Ocha o Nonda ato no Toki no Uta RMX
TitleUnicode:喉に良いお茶を飲んだ後のトキの歌RMX
Artist:2:su
ArtistUnicode:2÷す
Creator:Kyubey
Version:Friends
Source:けものフレンズ
Tags:crested ibis kemono friends mad nico douga remix toki song after drinking good mirash tea
BeatmapID:1268973
BeatmapSetID:600537

[Difficulty]
HPDrainRate:8
CircleSize:4.5
OverallDifficulty:8
ApproachRate:9
SliderMultiplier:2.2
SliderTickRate:1

[Events]
//Background and Video events
0,0,"bg.jpg",0,0
//Break Periods
//Storyboard Layer 0 (Background)
//Storyboard Layer 1 (Fail)
//Storyboard Layer 2 (Pass)
//Storyboard Layer 3 (Foreground)
//Storyboard Layer 4 (Overlay)
//Storyboard Sound Samples

[TimingPoints]
2167,468.75,4,2,0,50,1,0
17167,-133.333333333333,4,2,0,50,0,0
32167,-100,4,2,1,80,0,0
77167,-80,4,2,1,80,0,0
80682,-58.8235294117647,4,2,1,100,0,0
80858,-58.8235294117647,4,2,1,5,0,0
80917,-80,4,2,1,80,0,0
84432,-58.8235294117647,4,2,1,100,0,0
84608,-58.8235294117647,4,2,1,5,0,0
84667,-80,4,2,1,80,0,0
88182,-58.8235294117647,4,2,1,100,0,0
88358,-58.8235294117647,4,2,1,5,0,0
88417,-80,4,2,1,80,0,0
95682,-58.8235294117647,4,2,1,100,0,0
95858,-58.8235294117647,4,2,1,5,0,0
95917,-80,4,2,1,80,0,0
99432,-58.8235294117647,4,2,1,100,0,0
99608,-58.8235294117647,4,2,1,5,0,0
99667,-80,4,2,1,80,0,0
103182,-58.8235294117647,4,2,1,100,0,0
103358,-58.8235294117647,4,2,1,5,0,0
103417,-80,4,2,1,80,0,0

[Colours]
Combo1 : 17,254,176
Combo2 : 173,255,95
Combo3 : 255,88,100
Combo4 : 255,94,55

[HitObjects]
176,132,17167,6,0,P|225:191|296:176,1,123.750004720688,0|0,1:2|1:0,0:0:0:0:
332,152,17635,2,0,L|340:284,1,123.750004720688,2|8,0:0|1:2,0:0:0:0:
339,275,18104,1,0,0:0:0:0:
436,308,18338,1,8,1:2:0:0:
472,216,18573,1,2,0:0:0:0:
432,44,19042,6,0,L|452:132,2,82.5000031471254,0|0|2,1:0|1:0|0:0,0:0:0:0:
360,120,19745,1,0,0:0:0:0:
360,120,19862,1,8,1:2:0:0:
272,36,20096,1,0,0:0:0:0:
272,36,20213,1,8,1:2:0:0:
232,140,20448,1,2,0:2:0:0:
76,44,20917,6,0,P|101:89|60:156,1,123.750004720688,0|0,1:0|1:0,0:0:0:0:
72,149,21385,1,2,0:0:0:0:
32,244,21620,1,0,0:0:0:0:
32,244,21737,2,0,P|2:295|28:349,1,123.750004720688,8|8,1:2|1:2,0:0:0:0:
128,280,22323,1,2,0:0:0:0:
260,360,22792,5,0,1:0:0:0:
336,300,23026,1,0,1:0:0:0:
424,356,23260,2,0,L|444:216,2,123.750004720688,2|8|8,0:0|1:2|1:2,0:0:0:0:
336,300,24198,1,2,0:0:0:0:
428,116,24667,6,0,P|369:91|288:96,1,123.750004720688,0|0,1:0|1:0,0:0:0:0:
280,156,25135,2,0,L|304:244,1,82.5000031471254,2|0,0:0|0:0,0:0:0:0:
280,300,25487,1,8,1:2:0:0:
184,220,25721,1,0,0:0:0:0:
184,220,25838,1,8,1:2:0:0:
240,96,26073,1,2,0:0:0:0:
88,44,26542,6,0,L|104:148,2,82.5000031471254,0|0|2,1:0|1:0|0:0,0:0:0:0:
124,216,27362,2,0,L|104:320,1,82.5000031471254,8|0,1:2|0:0,0:0:0:0:
108,297,27713,1,8,1:2:0:0:
220,260,27948,1,2,0:0:0:0:
320,344,28417,6,0,P|392:356|448:332,1,123.750004720688,0|0,1:0|1:0,0:0:0:0:
500,172,29237,2,0,P|428:160|372:184,1,123.750004720688,0|0,1:0|1:0,0:0:0:0:
280,356,30292,2,0,L|176:340,1,82.5000031471254,0|0,1:0|1:0,0:0:0:0:
256,192,30760,12,4,32167,1:0:0:0:
96,96,32518,5,0,1:0:0:0:
96,96,32635,2,0,L|116:204,1,110,8|0,1:1|0:0,0:0:0:0:
96,288,32987,2,0,P|144:272|228:288,1,110,0|0,1:0|0:0,0:0:0:0:
260,336,33338,1,0,1:0:0:0:
392,280,33573,2,0,B|412:244|412:244|392:168,1,110,8|2,1:1|0:0,0:0:0:0:
228,96,34042,5,0,1:0:0:0:
316,200,34276,1,0,1:0:0:0:
344,28,34510,1,8,1:1:0:0:
236,192,34745,1,0,0:0:0:0:
236,192,34862,2,0,L|204:324,1,110,0|8,1:0|1:0,0:0:0:0:
215,384,35213,2,0,P|256:366|306:362,1,55,0|0,1:0|0:0,0:0:0:0:
347,364,35448,1,8,1:1:0:0:
368,224,35682,2,0,L|346:146,1,55,2|8,0:0|1:0,0:0:0:0:
296,92,35917,6,0,P|332:104|436:32,1,165,0|0,1:0|1:0,0:0:0:0:
364,8,36385,1,8,1:1:0:0:
280,172,36620,1,0,0:0:0:0:
280,172,36737,1,0,1:0:0:0:
200,68,36971,1,0,0:0:0:0:
200,68,37088,1,0,1:0:0:0:
136,180,37323,2,0,L|232:160,1,55,8|0,1:1|0:0,0:0:0:0:
112,264,37557,2,0,L|16:244,1,55,2|0,0:0|0:0,0:0:0:0:
196,248,37792,6,0,B|212:292|212:292|192:356,1,110,0|0,1:0|1:0,0:0:0:0:
8,368,38260,2,0,L|140:336,1,110,8|0,1:1|0:1,0:0:0:0:
192,352,38612,1,0,1:0:0:0:
332,348,38846,1,8,1:0:0:0:
332,348,38963,1,0,1:0:0:0:
240,196,39198,2,0,P|228:236|276:292,1,110,8|2,1:1|0:2,0:0:0:0:
328,248,39549,1,8,1:1:0:0:
396,288,39667,6,0,B|416:252|416:252|392:172,1,110,4|0,1:0|0:0,0:0:0:0:
344,128,40018,2,0,L|364:56,1,55,0|8,1:0|1:1,0:0:0:0:
480,108,40370,1,0,0:0:0:0:
480,108,40487,1,0,1:0:0:0:
268,216,40838,1,0,1:0:0:0:
196,124,41073,1,8,1:1:0:0:
160,228,41307,1,2,0:0:0:0:
277,137,41542,6,0,P|335:131|405:131,1,110,0|0,1:0|1:0,0:0:0:0:
461,109,41893,2,0,P|446:81|381:55,1,55,0|8,0:1|1:1,1:1:0:0:
196,124,42245,1,0,0:0:0:0:
196,124,42362,2,0,P|136:135|72:114,1,110,0|8,1:0|1:0,0:0:0:0:
0,109,42713,6,0,L|16:177,1,55,0|0,1:0|0:0,0:0:0:0:
115,289,42948,2,0,L|127:235,1,55,8|0,1:0|0:0,0:0:0:0:
77,70,43182,2,0,L|93:138,1,55,2|8,0:0|1:0,0:0:0:0:
40,324,43417,6,0,L|220:304,1,165,0|0,1:0|1:2,0:0:0:0:
272,348,43885,1,8,1:1:0:0:
381,241,44120,1,0,0:0:0:0:
381,241,44237,2,0,P|436:297|396:374,1,165,0|0,1:0|1:0,0:0:0:0:
277,230,44823,2,0,P|320:185|388:157,1,110,8|2,1:1|0:0,0:0:0:0:
496,16,45292,5,0,1:0:0:0:
328,84,45526,1,0,1:0:0:0:
212,24,45760,1,8,1:1:0:0:
132,88,45995,1,0,0:0:0:0:
132,88,46112,1,0,1:0:0:0:
260,212,46346,1,8,1:0:0:0:
260,212,46463,1,0,1:0:0:0:
212,24,46698,1,8,1:1:0:0:
144,240,46932,2,0,L|164:300,1,55,2|8,0:0|1:0,0:0:0:0:
96,336,47167,6,0,L|132:172,1,165,4|0,1:0|1:0,0:0:0:0:
88,96,47635,2,0,P|138:97|216:72,1,110,8|0,1:1|0:0,0:0:0:0:
240,16,47987,1,0,1:0:0:0:
296,140,48221,1,0,0:0:0:0:
296,140,48338,1,0,1:0:0:0:
408,24,48573,2,0,P|351:33|304:64,1,110,8|2,1:1|0:0,0:0:0:0:
344,210,49042,6,0,L|368:290,1,55,0|0,1:0|0:0,0:0:0:0:
280,361,49276,2,0,L|295:308,1,55,0|0,1:0|0:0,0:0:0:0:
383,350,49510,1,8,1:0:0:0:
383,350,49627,1,0,0:0:0:0:
448,204,49862,1,0,1:0:0:0:
448,204,49979,2,0,L|424:132,1,55,0|8,0:0|1:0,0:0:0:0:
464,68,50213,1,0,1:0:0:0:
304,8,50448,1,8,1:0:0:0:
256,200,50682,1,2,0:0:0:0:
280,156,50799,1,8,1:0:0:0:
268,108,50917,6,0,L|148:128,1,110,0|0,1:0|0:0,0:0:0:0:
92,168,51268,1,0,1:0:0:0:
24,124,51385,2,0,B|4:76|4:76|28:12,1,110,8|0,1:0|0:0,0:0:0:0:
100,4,51737,1,0,1:0:0:0:
184,200,51971,1,0,0:0:0:0:
184,200,52088,1,0,1:0:0:0:
360,156,52323,2,0,L|240:132,1,110,8|2,1:0|0:0,0:0:0:0:
168,312,52792,6,0,L|246:293,1,55,0|0,1:0|0:0,0:0:0:0:
340,364,53026,2,0,L|286:350,1,55,0|0,1:0|0:0,0:0:0:0:
292,216,53260,2,0,L|305:269,1,55,8|0,1:0|0:0,0:0:0:0:
152,168,53612,6,0,L|165:114,1,55,0|0,1:0|0:0,0:0:0:0:
224,44,53846,1,8,1:0:0:0:
224,44,53963,1,0,1:0:0:0:
28,72,54198,2,0,P|88:68|152:24,1,110,8|2,1:0|0:0,0:0:0:0:
165,114,54549,1,8,1:0:0:0:
132,188,54667,6,0,P|124:252|168:304,1,110,4|0,1:0|0:0,0:0:0:0:
224,260,55018,1,0,1:0:0:0:
272,332,55135,2,0,B|312:320|312:320|392:336,1,110,8|0,1:0|0:0,0:0:0:0:
456,356,55487,1,0,1:0:0:0:
400,168,55838,1,0,1:0:0:0:
472,68,56073,1,8,1:0:0:0:
328,104,56307,1,2,0:0:0:0:
204,48,56542,6,0,B|216:92|216:92|196:168,1,110,0|0,1:0|1:0,0:0:0:0:
156,288,57010,2,0,L|180:360,1,55,8|0,1:0|0:0,0:0:0:0:
40,284,57362,2,0,L|64:160,1,110,0|8,1:0|1:0,0:0:0:0:
144,212,57713,6,0,L|220:228,1,55,0|0,1:0|0:0,0:0:0:0:
360,152,57948,2,0,L|306:163,1,55,8|0,1:0|0:0,0:0:0:0:
124,92,58182,2,0,L|200:108,1,55,2|8,0:0|1:0,0:0:0:0:
360,152,58417,6,0,P|412:152|460:80,1,110,0|0,1:0|0:0,0:0:0:0:
412,48,58768,1,0,1:0:0:0:
412,48,58885,1,8,1:0:0:0:
192,36,59120,1,0,0:0:0:0:
192,36,59238,2,0,P|228:80|332:68,1,165,0|0,1:0|1:0,0:0:0:0:
436,200,59823,2,0,L|300:176,1,110,8|2,1:0|0:0,0:0:0:0:
184,304,60292,5,0,1:0:0:0:
100,144,60526,2,0,L|112:240,1,55,0|0,1:0|0:0,0:0:0:0:
176,48,60760,1,8,1:0:0:0:
164,96,60877,1,0,0:0:0:0:
64,264,61112,2,0,P|112:240|184:240,1,110,0|8,1:0|1:0,0:0:0:0:
232,284,61463,1,0,1:0:0:0:
348,160,61698,1,8,1:0:0:0:
276,192,61815,1,0,0:0:0:0:
152,72,62049,1,8,1:0:0:0:
224,104,62167,6,0,P|288:92|296:-16,1,165,4|0,1:0|1:0,0:0:0:0:
224,20,62635,1,8,1:0:0:0:
200,192,62870,1,2,0:0:0:0:
200,192,62987,1,0,1:0:0:0:
332,156,63221,1,0,0:0:0:0:
332,156,63338,1,0,1:0:0:0:
248,304,63573,2,0,L|124:288,1,110,8|2,1:0|0:0,0:0:0:0:
8,368,64042,6,0,P|40:328|4:240,1,110,0|0,1:0|1:0,0:0:0:0:
4,200,64393,1,0,0:0:0:0:
64,144,64510,2,0,P|52:104|92:24,1,110,8|2,1:0|0:0,0:0:0:0:
148,48,64862,1,0,1:0:0:0:
192,176,65096,1,8,1:0:0:0:
268,156,65213,1,0,1:0:0:0:
312,280,65448,2,0,P|369:278|416:328,1,110,8|2,1:0|0:0,0:0:0:0:
312,364,65799,1,8,1:0:0:0:
212,328,65917,6,0,P|153:305|72:376,1,165,0|0,1:0|1:0,0:0:0:0:
32,276,66385,1,8,1:0:0:0:
102,120,66620,1,2,0:0:0:0:
102,120,66737,2,0,P|114:72|0:31,1,165,0|0,1:0|1:0,0:0:0:0:
37,177,67323,2,0,L|157:153,1,110,8|2,1:0|0:0,0:0:0:0:
244,56,67792,5,0,1:0:0:0:
304,184,68026,1,0,1:0:0:0:
364,92,68260,1,8,1:0:0:0:
400,240,68495,1,2,0:0:0:0:
424,310,68612,1,0,1:0:0:0:
260,379,68846,1,8,1:0:0:0:
279,310,68963,1,0,1:0:0:0:
400,240,69198,2,0,P|332:220|336:152,1,110,8|2,1:0|0:0,0:0:0:0:
360,112,69549,1,8,1:0:0:0:
322,188,69667,6,0,P|252:196|168:144,1,165,4|0,1:0|1:0,0:0:0:0:
168,72,70135,1,8,1:0:0:0:
120,244,70370,1,2,0:0:0:0:
120,244,70487,2,0,P|96:188|104:104,1,110,0|0,1:0|0:0,0:0:0:0:
172,150,70838,1,0,1:0:0:0:
272,48,71073,2,0,L|400:72,1,110,8|2,1:0|0:0,0:0:0:0:
464,216,71542,5,0,1:0:0:0:
364,296,71776,1,0,1:0:0:0:
432,112,72010,1,8,1:0:0:0:
460,344,72245,1,2,0:0:0:0:
460,344,72362,1,0,1:0:0:0:
288,248,72596,1,8,1:0:0:0:
288,248,72713,1,0,1:0:0:0:
352,40,72948,2,0,P|400:80|400:152,1,110,8|2,1:0|0:0,0:0:0:0:
380,216,73299,1,8,1:0:0:0:
288,248,73417,6,0,L|152:228,1,110,4|0,1:0|0:0,0:0:0:0:
116,280,73768,1,0,1:0:0:0:
116,280,73885,1,8,1:0:0:0:
36,28,74120,1,2,0:0:0:0:
72,100,74237,2,0,L|180:116,1,110,0|0,1:0|0:0,0:0:0:0:
180,116,74588,1,0,1:0:0:0:
308,188,74823,1,8,1:0:0:0:
260,40,75057,1,2,0:0:0:0:
251,257,75292,6,0,P|303:273|363:257,1,110,0|0,1:0|1:0,0:0:0:0:
460,144,75760,1,8,1:0:0:0:
460,144,75877,2,0,L|484:200,1,55
356,76,76112,2,0,L|377:25,1,55,0|0,1:0|0:0,0:0:0:0:
404,204,76346,1,8,1:0:0:0:
404,204,76463,2,0,L|428:260,1,55,0|0,1:0|0:0,0:0:0:0:
448,340,76698,1,8,1:0:0:0:
448,340,76932,1,0,0:0:0:0:
363,365,77049,1,8,1:0:0:0:
288,316,77167,6,0,B|220:296|220:296|144:320,1,137.5,4|0,1:0|0:0,0:0:0:0:
80,344,77518,1,0,1:0:0:0:
32,240,77635,2,0,L|112:260,1,68.75,8|0,1:0|0:0,0:0:0:0:
160,196,77870,1,0,0:0:0:0:
120,120,77987,1,0,1:0:0:0:
120,120,78221,5,0,0:0:0:0:
160,196,78338,2,0,L|240:176,1,68.75,0|0,1:0|0:0,0:0:0:0:
208,264,78573,1,8,1:0:0:0:
212,96,78690,1,0,0:0:0:0:
328,184,78807,1,0,0:0:0:0:
308,184,78924,1,0,0:0:0:0:
388,120,79042,6,0,B|416:185|416:185|391:249,1,137.5,0|0,1:0|1:0,0:0:0:0:
232,348,79510,2,0,L|328:328,1,68.75,8|0,1:0|0:0,0:0:0:0:
380,348,79745,1,0,0:0:0:0:
292,256,79862,1,0,1:0:0:0:
400,188,79979,1,0,0:0:0:0:
396,212,80096,1,8,1:0:0:0:
304,136,80213,1,0,1:0:0:0:
308,160,80330,1,0,0:0:0:0:
292,256,80448,2,0,L|208:236,1,68.75,8|0,1:0|0:0,0:0:0:0:
154,318,80682,6,2,P|178:278|126:190,1,140.250002675057,0|0,0:0|0:0,0:1:0:0:
44,156,80917,6,0,B|18:115|18:115|40:24,1,137.5,4|0,1:0|0:0,0:0:0:0:
124,68,81268,1,0,1:0:0:0:
216,40,81385,2,0,L|288:24,1,68.75,8|0,1:0|0:0,0:0:0:0:
364,136,81620,1,0,0:0:0:0:
364,136,81737,2,0,L|296:121,1,68.75,0|0,1:0|0:0,0:0:0:0:
168,196,81971,1,0,0:0:0:0:
284,276,82088,1,0,1:0:0:0:
256,188,82206,1,0,0:0:0:0:
192,288,82323,1,8,1:0:0:0:
204,320,82440,1,0,0:0:0:0:
100,364,82557,1,0,0:0:0:0:
112,332,82674,1,0,0:0:0:0:
40,276,82792,6,0,P|64:208|16:136,1,137.5,0|0,1:0|1:0,0:0:0:0:
208,100,83260,1,8,1:0:0:0:
204,144,83377,1,0,0:0:0:0:
248,80,83495,1,0,0:0:0:0:
172,76,83612,1,0,1:0:0:0:
276,148,83729,5,0,0:0:0:0:
214,13,83846,1,8,1:0:0:0:
130,137,83963,1,0,1:0:0:0:
236,208,84081,5,0,0:0:0:0:
152,268,84198,2,0,L|76:284,1,68.75,8|0,1:0|0:0,0:0:0:0:
48,348,84432,6,2,P|112:328|204:368,1,140.250002675057,0|0,0:0|0:0,0:1:0:0:
248,292,84667,6,0,L|320:308,1,68.75,4|0,1:0|0:0,0:0:0:0:
420,116,85018,1,0,1:0:0:0:
472,184,85135,2,0,L|404:198,1,68.75,8|0,1:0|0:0,0:0:0:0:
324,64,85370,1,0,0:0:0:0:
272,132,85487,2,0,L|339:146,1,68.75,0|0,1:0|0:0,0:0:0:0:
384,268,85721,1,0,0:0:0:0:
324,328,85838,2,0,L|288:224,1,68.75,0|0,1:0|0:0,0:0:0:0:
220,188,86073,1,8,1:0:0:0:
192,328,86190,1,0,0:0:0:0:
136,252,86307,1,0,0:0:0:0:
128,228,86424,1,0,0:0:0:0:
80,300,86542,6,0,L|104:156,1,137.5,0|0,1:0|1:0,0:0:0:0:
211,12,87010,1,8,1:0:0:0:
223,79,87127,1,0,0:0:0:0:
237,146,87245,1,0,0:0:0:0:
277,286,87362,5,0,1:0:0:0:
300,206,87479,1,0,0:0:0:0:
321,125,87597,1,8,1:0:0:0:
359,271,87714,1,0,1:0:0:0:
237,146,87831,5,0,0:0:0:0:
407,103,87948,2,0,P|404:138|420:194,1,68.75,8|0,1:0|0:0,0:0:0:0:
480,320,88182,6,2,P|416:296|325:344,1,140.250002675057,0|0,0:0|0:0,0:1:0:0:
248,360,88417,6,0,L|204:348,4,34.375,4|0|0|0|0,1:0|1:0|1:0|1:0|0:0,0:0:0:0:
284,268,88768,1,0,1:0:0:0:
224,180,88885,2,0,L|128:200,1,68.75,8|0,1:0|0:0,0:0:0:0:
92,256,89120,1,0,0:0:0:0:
28,120,89237,2,0,L|95:134,1,68.75,0|0,1:0|0:0,0:0:0:0:
116,48,89471,1,0,0:0:0:0:
156,194,89588,1,0,1:0:0:0:
228,104,89706,1,0,0:0:0:0:
204,96,89823,1,8,1:0:0:0:
256,196,89940,1,0,0:0:0:0:
280,188,90057,1,0,0:0:0:0:
304,180,90174,1,0,0:0:0:0:
388,96,90292,6,0,P|370:159|408:236,1,137.5,0|0,1:0|1:0,0:0:0:0:
304,340,90760,1,8,1:0:0:0:
210,367,90877,1,0,0:0:0:0:
182,274,90995,1,0,0:0:0:0:
276,246,91112,1,0,1:0:0:0:
210,367,91229,5,0,0:0:0:0:
172,356,91346,1,8,1:0:0:0:
132,344,91463,1,0,1:0:0:0:
48,376,91581,1,0,0:0:0:0:
48,376,91698,2,0,L|28:296,1,68.75,8|0,1:0|0:0,0:0:0:0:
68,176,91932,1,0,0:0:0:0:
172,220,92049,1,8,1:0:0:0:
268,108,92167,6,0,L|124:140,1,137.5,4|0,1:0|0:0,0:0:0:0:
68,176,92518,1,0,1:0:0:0:
124,40,92635,2,0,L|208:56,1,68.75,8|0,1:0|0:0,0:0:0:0:
48,84,92870,1,0,0:0:0:0:
16,8,92987,1,0,1:0:0:0:
112,264,93221,1,0,0:0:0:0:
72,340,93338,6,0,L|160:360,1,68.75,0|0,1:0|0:0,0:0:0:0:
216,240,93573,1,8,1:0:0:0:
252,376,93690,1,0,0:0:0:0:
284,296,93807,1,0,0:0:0:0:
308,300,93924,1,0,0:0:0:0:
392,364,94042,6,0,B|413:300|413:300|384:217,1,137.5,0|0,1:0|1:0,0:0:0:0:
452,44,94510,1,8,1:0:0:0:
412,112,94627,2,0,L|328:92,1,68.75
284,32,94862,1,0,1:0:0:0:
312,168,94979,1,0,0:0:0:0:
245,149,95096,1,8,1:0:0:0:
179,131,95213,1,0,1:0:0:0:
228,76,95331,1,0,0:0:0:0:
260,224,95448,2,0,L|277:309,1,68.75,8|0,1:0|0:0,0:0:0:0:
304,376,95682,6,2,L|336:220,1,140.250002675057,0|0,0:0|0:0,0:1:0:0:
432,172,95917,6,0,B|456:224|456:224|432:320,1,137.5,4|0,1:0|0:0,0:0:0:0:
340,352,96268,1,0,1:0:0:0:
265,250,96385,2,0,L|361:234,1,68.75,8|0,1:0|0:0,0:0:0:0:
208,316,96620,1,0,0:0:0:0:
184,228,96737,2,0,L|204:144,1,68.75,0|0,1:0|0:0,0:0:0:0:
150,92,96971,1,0,0:0:0:0:
268,114,97088,1,0,1:0:0:0:
228,3,97206,1,0,0:0:0:0:
63,72,97323,1,8,1:0:0:0:
44,78,97440,1,0,0:0:0:0:
91,153,97557,1,0,0:0:0:0:
107,157,97674,1,0,0:0:0:0:
3,154,97792,6,0,B|-13:198|-13:198|14:293,1,137.5,0|0,1:0|1:0,0:0:0:0:
208,324,98260,1,8,1:0:0:0:
272,272,98377,1,0,0:0:0:0:
196,244,98495,1,0,0:0:0:0:
132,296,98612,1,0,1:0:0:0:
212,344,98729,5,0,0:0:0:0:
305,268,98846,1,8,1:0:0:0:
194,227,98964,1,0,1:0:0:0:
101,303,99081,5,0,0:0:0:0:
44,228,99198,2,0,L|24:144,1,68.75,8|0,1:0|0:0,0:0:0:0:
96,32,99432,6,2,P|128:92|76:176,1,140.250002675057,0|0,0:0|0:0,0:1:0:0:
101,303,99667,6,0,L|200:328,1,68.75,4|0,1:0|0:0,0:0:0:0:
380,188,100018,1,0,1:3:0:0:
304,288,100135,2,0,P|269:276|239:229,1,68.75,8|0,1:0|0:0,0:0:0:0:
312,216,100370,1,0,0:0:0:0:
438,230,100487,2,0,P|445:266|419:315,1,68.75,0|0,1:0|0:0,0:0:0:0:
372,260,100721,1,0,0:0:0:0:
321,145,100838,2,0,P|348:120|404:118,1,68.75,0|0,1:3|0:3,0:3:0:0:
448,64,101073,1,8,1:0:0:0:
288,16,101190,1,0,0:0:0:0:
240,104,101307,1,0,0:0:0:0:
264,92,101424,1,0,0:0:0:0:
160,40,101542,6,0,B|140:104|140:104|161:181,1,137.5,0|0,1:0|1:0,0:0:0:0:
280,288,102010,1,8,1:0:0:0:
232,352,102127,2,0,L|144:368,1,68.75
20,208,102362,1,0,1:0:0:0:
68,272,102479,2,0,L|156:288,1,68.75,0|8,0:0|1:0,0:0:0:0:
212,232,102713,1,0,1:0:0:0:
192,84,102831,1,0,0:0:0:0:
160,164,102948,2,0,L|244:152,1,68.75,8|0,1:0|0:0,0:0:0:0:
272,88,103182,6,2,P|337:105|432:112,1,140.250002675057,0|0,0:0|0:0,0:1:0:0:
456,200,103417,6,0,L|468:248,4,34.375,4|0|0|0|0,1:0|1:0|1:0|1:0|0:0,0:0:0:0:
420,316,103768,1,0,1:0:0:0:
420,316,103885,2,0,L|328:296,1,68.75,8|0,1:0|0:0,0:0:0:0:
232,316,104120,1,0,0:0:0:0:
176,248,104237,2,0,L|243:233,1,68.75,0|0,1:0|0:0,0:0:0:0:
376,176,104471,1,0,0:0:0:0:
308,161,104588,1,0,1:0:0:0:
354,110,104706,1,0,0:0:0:0:
452,160,104823,2,0,P|450:196|414:245,1,68.75,8|0,1:0|0:0,0:0:0:0:
435,88,105057,2,0,P|471:88|521:123,1,68.75
468,0,105292,6,0,L|320:28,1,137.5,0|0,1:0|1:0,0:0:0:0:
204,144,105760,1,8,1:0:0:0:
184,4,105877,1,0,0:0:0:0:
120,84,105995,1,0,0:0:0:0:
156,80,106112,1,0,1:0:0:0:
36,64,106229,1,0,0:0:0:0:
115,212,106346,1,8,1:0:0:0:
132,154,106464,1,0,1:0:0:0:
40,208,106581,1,0,0:0:0:0:
72,276,106698,2,0,L|96:356,1,68.75,8|0,1:0|0:0,0:0:0:0:
200,280,106932,1,0,0:0:0:0:
292,352,107049,1,8,1:0:0:0:
256,188,107167,5,4,1:0:0:0:
