osu file format v14

[General]
AudioFilename: audio.mp3
AudioLeadIn: 0
PreviewTime: 31463
Countdown: 0
SampleSet: Soft
StackLeniency: 0.7
Mode: 0
LetterboxInBreaks: 0
WidescreenStoryboard: 1

[Editor]
DistanceSpacing: 0.6
BeatDivisor: 4
GridSize: 4
TimelineZoom: 2

[Metadata]
Title:Nodo ni Yoi Ocha o Nonda ato no Toki no Uta RMX
TitleUnicode:喉に良いお茶を飲んだ後のトキの歌RMX
Artist:2:su
ArtistUnicode:2÷す
Creator:Kyubey
Version:Acquaintances
Source:けものフレンズ
Tags:crested ibis kemono friends mad nico douga remix toki song after drinking good mirash tea
BeatmapID:2096753
BeatmapSetID:600537

[Difficulty]
HPDrainRate:7
CircleSize:4
OverallDifficulty:7
ApproachRate:9
SliderMultiplier:1.8
SliderTickRate:1

[Events]
//Background and Video events
0,0,"bg.jpg",0,0
//Break Periods
//Storyboard Layer 0 (Background)
//Storyboard Layer 1 (Fail)
//Storyboard Layer 2 (Pass)
//Storyboard Layer 3 (Foreground)
//Storyboard Layer 4 (Overlay)
//Storyboard Sound Samples

[TimingPoints]
2167,468.75,4,2,0,50,1,0
31463,-200,4,2,0,50,0,0
32167,-66.6666666666667,4,2,1,80,0,0
47167,-58.8235294117647,4,2,1,80,0,0
77167,-50,4,2,1,80,0,0
80682,-50,4,2,1,100,0,0
80917,-50,4,2,1,80,0,0
84432,-50,4,2,1,100,0,0
84667,-50,4,2,1,80,0,0
88182,-50,4,2,1,100,0,0
88417,-50,4,2,1,80,0,0
95682,-50,4,2,1,100,0,0
95917,-50,4,2,1,80,0,0
99432,-50,4,2,1,100,0,0
99667,-50,4,2,1,80,0,0
103182,-50,4,2,1,100,0,0
103417,-50,4,2,1,80,0,0
105760,-57.1428571428571,4,2,1,80,0,0

[Colours]
Combo1 : 17,254,176
Combo2 : 173,255,95
Combo3 : 255,88,100
Combo4 : 255,94,55

[HitObjects]
131,86,2167,6,0,P|229:80|290:105,2,135,4|0|0,0:0|1:0|0:0,0:0:0:0:
103,79,2987,1,0,1:0:0:0:
60,188,3221,1,2,0:0:0:0:
84,185,3338,1,0,1:0:0:0:
197,259,3573,5,2,0:0:0:0:
200,232,3690,1,0,0:0:0:0:
204,205,3807,1,2,0:0:0:0:
208,178,3924,1,2,0:0:0:0:
212,151,4042,1,0,1:0:0:0:
319,101,4276,1,0,1:0:0:0:
319,101,4393,1,2,0:0:0:0:
365,219,4627,1,2,0:0:0:0:
365,219,4745,1,2,0:0:0:0:
365,219,4862,1,0,1:0:0:0:
365,219,4979,1,0,1:0:0:0:
242,283,5213,5,0,1:0:0:0:
283,221,5448,1,2,0:0:0:0:
322,288,5682,1,4,0:0:0:0:
111,371,5917,6,0,P|116:317|118:224,1,135,4|0,1:0|1:0,0:0:0:0:
104,226,6385,1,2,0:0:0:0:
33,157,6620,1,2,0:0:0:0:
59,150,6737,1,0,1:0:0:0:
85,143,6854,1,0,0:0:0:0:
111,136,6971,1,2,0:0:0:0:
137,129,7088,1,0,1:0:0:0:
246,33,7323,6,0,L|198:45,3,45,2|0|2|0,0:0|0:0|0:0|0:0,0:0:0:0:
177,33,7792,1,0,1:0:0:0:
98,71,8026,1,0,1:0:0:0:
74,57,8143,1,2,0:0:0:0:
58,161,8377,1,2,0:0:0:0:
84,156,8495,1,2,0:0:0:0:
110,151,8612,1,0,1:0:0:0:
136,146,8729,1,0,0:0:0:0:
162,142,8846,1,2,0:0:0:0:
188,138,8963,1,0,1:0:0:0:
254,96,9198,1,2,0:0:0:0:
266,176,9432,1,2,0:0:0:0:
478,135,9667,6,0,P|421:162|400:253,2,135,4|0|0,0:0|1:0|0:0,0:0:0:0:
501,147,10487,1,0,1:0:0:0:
507,242,10721,1,2,0:0:0:0:
480,242,10838,1,0,1:0:0:0:
483,337,11073,5,2,0:0:0:0:
457,331,11190,1,0,0:0:0:0:
431,324,11307,1,2,0:0:0:0:
405,320,11424,1,0,0:0:0:0:
379,314,11542,1,0,1:0:0:0:
314,268,11776,1,0,1:0:0:0:
290,281,11893,1,2,0:0:0:0:
231,349,12127,1,2,0:0:0:0:
205,339,12245,1,2,0:0:0:0:
179,329,12362,1,0,1:0:0:0:
153,320,12479,1,0,0:0:0:0:
121,219,12713,5,0,1:0:0:0:
70,274,12948,1,2,0:0:0:0:
33,209,13182,1,2,0:0:0:0:
149,72,13417,6,0,P|166:170|182:237,1,135,4|0,0:0|1:0,0:0:0:0:
193,219,13885,1,2,0:0:0:0:
305,250,14120,1,2,0:0:0:0:
307,223,14237,1,0,1:0:0:0:
372,168,14471,1,2,0:0:0:0:
374,195,14588,1,0,1:0:0:0:
450,266,14823,6,0,L|446:221,3,45,2|0|2|0,0:0|0:0|0:0|0:0,0:0:0:0:
467,205,15292,1,0,1:0:0:0:
495,328,15526,1,0,1:0:0:0:
496,355,15643,2,0,L|384:339,1,90,2|2,0:0|0:0,0:0:0:0:
388,321,15995,1,0,0:0:0:0:
361,325,16112,1,0,1:0:0:0:
264,352,16346,1,2,0:0:0:0:
237,345,16463,1,0,1:0:0:0:
210,337,16581,1,0,0:0:0:0:
167,365,16698,5,0,0:0:0:0:
86,297,16932,1,2,0:0:0:0:
181,195,17167,6,0,P|166:129|173:46,1,135,0|0,1:2|1:0,0:0:0:0:
194,51,17635,1,2,0:0:0:0:
314,116,17870,1,0,0:0:0:0:
314,116,17987,1,8,1:2:0:0:
314,116,18104,2,0,P|387:94|432:78,1,90,0|8,0:0|1:2,0:0:0:0:
470,34,18573,1,2,0:0:0:0:
475,55,18690,1,0,0:0:0:0:
479,76,18807,2,0,L|466:130,1,45,0|0,0:0|0:0,0:0:0:0:
410,175,19042,5,0,1:0:0:0:
479,344,19276,1,0,1:0:0:0:
492,248,19510,1,2,0:0:0:0:
470,253,19627,1,0,0:0:0:0:
447,258,19745,1,0,0:0:0:0:
425,263,19862,1,8,1:2:0:0:
403,268,19979,2,0,L|331:259,1,45,0|0,0:0|0:0,0:0:0:0:
256,182,20213,2,0,L|147:204,2,90,8|2|0,1:2|0:2|0:0,0:0:0:0:
86,151,20917,6,0,P|52:184|48:256,1,90,0|0,1:0|0:0,0:0:0:0:
52,243,21268,1,0,1:0:0:0:
60,263,21385,2,0,L|169:285,1,90,2|0,0:0|0:0,0:0:0:0:
162,298,21737,1,8,1:2:0:0:
174,316,21854,2,0,L|228:327,1,45,0|0,0:0|0:0,0:0:0:0:
279,374,22088,2,0,L|333:363,1,45,8|0,1:2|0:0,0:0:0:0:
359,298,22323,1,2,0:0:0:0:
380,302,22440,1,0,0:0:0:0:
401,306,22557,1,0,0:0:0:0:
422,311,22674,1,0,0:0:0:0:
444,316,22792,1,0,1:0:0:0:
402,277,23026,5,0,1:0:0:0:
380,272,23144,1,0,0:0:0:0:
359,267,23261,1,2,0:0:0:0:
338,263,23378,1,0,0:0:0:0:
317,259,23495,1,2,0:0:0:0:
294,255,23612,1,8,1:2:0:0:
132,158,23846,1,2,0:0:0:0:
116,176,23963,2,0,L|18:200,2,90,8|2|0,1:2|0:0|0:0,0:0:0:0:
260,36,24667,6,0,P|293:84|354:134,1,135,0|0,1:0|1:0,0:0:0:0:
374,135,25135,1,2,0:0:0:0:
498,119,25370,1,0,0:0:0:0:
498,119,25487,1,8,1:2:0:0:
498,119,25604,2,0,P|477:177|470:232,1,90,0|8,0:0|1:2,0:0:0:0:
326,293,26073,1,2,0:0:0:0:
332,271,26190,1,0,0:0:0:0:
341,250,26307,2,0,L|335:198,1,45,0|0,0:0|0:0,0:0:0:0:
257,192,26542,5,0,1:0:0:0:
41,244,26776,1,0,1:0:0:0:
38,92,27010,1,2,0:0:0:0:
59,98,27127,1,0,0:0:0:0:
80,104,27245,1,0,0:0:0:0:
101,110,27362,1,8,1:2:0:0:
122,117,27479,2,0,L|186:104,1,45,0|0,0:0|0:0,0:0:0:0:
357,21,27713,2,0,L|466:52,2,90,8|2|0,1:2|0:0|0:0,0:0:0:0:
261,12,28417,5,0,1:0:0:0:
261,12,28768,1,0,1:0:0:0:
261,12,29237,5,0,1:0:0:0:
261,12,29588,1,0,1:0:0:0:
261,12,30292,5,0,1:0:0:0:
261,12,30526,1,0,1:0:0:0:
261,12,31112,1,0,1:0:0:0:
261,12,31463,6,0,P|266:44|274:73,2,45,0|0|0,0:0|0:0|0:0,0:0:0:0:
404,106,32167,6,0,B|326:151|326:151|222:60,1,202.500007724762,4|0,1:0|1:0,0:0:0:0:
223,94,32635,1,8,1:1:0:0:
136,30,32870,1,0,0:0:0:0:
148,53,32987,2,0,L|129:142,1,67.5000025749208,0|0,1:0|0:0,0:0:0:0:
58,146,33221,1,0,0:0:0:0:
46,169,33338,2,0,L|61:237,1,67.5000025749208,0|0,1:0|0:0,0:0:0:0:
43,315,33573,5,8,1:1:0:0:
43,315,33690,1,0,0:0:0:0:
43,315,33807,1,2,0:0:0:0:
43,315,33924,1,0,0:0:0:0:
43,315,34042,2,0,P|95:323|124:349,1,67.5000025749208,0|0,1:0|0:0,0:0:0:0:
175,381,34276,1,0,1:0:0:0:
200,373,34393,1,0,0:0:0:0:
225,363,34510,2,0,P|205:313|215:269,1,67.5000025749208,8|0,1:1|3:0,0:0:0:0:
150,176,34745,5,0,0:0:0:0:
153,202,34862,2,0,P|120:243|81:261,1,67.5000025749208,0|0,1:0|3:0,0:0:0:0:
206,90,35096,1,8,1:0:0:0:
203,116,35213,2,0,P|235:157|272:172,1,67.5000025749208,0|0,1:0|0:0,0:0:0:0:
264,243,35448,2,0,L|402:225,1,135.000005149842,8|2,1:1|0:0,0:0:0:0:
427,155,35799,1,8,1:0:0:0:
478,213,35917,6,0,L|456:294,1,67.5000025749208,0|0,1:0|0:0,0:0:0:0:
306,383,36151,1,0,0:0:0:0:
297,357,36268,1,0,1:0:0:0:
290,330,36385,2,0,L|270:261,1,67.5000025749208,8|0,1:1|0:0,0:0:0:0:
211,210,36620,1,0,0:0:0:0:
193,230,36737,2,0,L|212:159,1,67.5000025749208,0|0,1:0|0:0,0:0:0:0:
290,146,36971,1,0,0:0:0:0:
308,166,37088,2,0,L|289:95,1,67.5000025749208,0|0,1:0|0:0,0:0:0:0:
210,87,37323,5,8,1:1:0:0:
210,87,37440,1,0,0:0:0:0:
210,87,37557,1,2,0:0:0:0:
210,87,37674,1,0,0:0:0:0:
210,87,37792,2,0,L|141:106,1,67.5000025749208,0|0,1:0|0:0,0:0:0:0:
117,208,38026,2,0,L|134:273,1,67.5000025749208,0|0,1:0|0:0,0:0:0:0:
240,305,38260,2,0,L|312:280,1,67.5000025749208,8|0,1:1|0:0,0:0:0:0:
357,175,38495,5,0,0:1:0:0:
330,178,38612,2,0,L|309:104,1,67.5000025749208,0|0,1:0|0:0,0:0:0:0:
352,48,38846,1,8,1:0:0:0:
428,53,38963,2,0,L|406:121,1,67.5000025749208,0|0,1:0|0:0,0:0:0:0:
202,250,39198,2,0,L|243:115,1,135.000005149842,8|2,1:1|0:2,0:0:0:0:
181,79,39549,1,8,1:1:0:0:
150,147,39667,6,0,B|53:181|53:181|-8:99,1,202.500007724762,4|0,1:0|1:0,0:0:0:0:
8,81,40135,1,8,1:1:0:0:
193,18,40370,1,0,0:0:0:0:
181,38,40487,2,0,L|241:106,1,67.5000025749208,0|0,1:0|0:0,0:0:0:0:
187,200,40721,1,0,0:0:0:0:
199,221,40838,2,0,L|139:289,1,67.5000025749208,0|0,1:0|0:0,0:0:0:0:
24,287,41073,5,8,1:1:0:0:
4,259,41190,1,0,0:0:0:0:
0,225,41307,1,2,0:0:0:0:
15,195,41424,1,0,0:0:0:0:
43,177,41542,2,0,L|102:212,1,67.5000025749208,0|0,1:0|0:0,0:0:0:0:
204,349,41776,2,0,L|263:314,1,67.5000025749208,0|0,1:0|0:1,0:0:0:0:
330,172,42010,1,8,1:1:0:0:
362,180,42127,1,0,0:0:0:0:
394,188,42245,1,0,0:0:0:0:
426,196,42362,1,0,1:0:0:0:
458,205,42479,2,0,L|494:197,2,33.7500012874604,0|0|8,0:0|0:0|1:0,0:0:0:0:
408,262,42713,6,0,L|422:334,1,67.5000025749208,0|0,1:0|0:0,0:0:0:0:
327,250,42948,2,0,L|341:322,1,67.5000025749208,8|0,1:0|0:0,0:0:0:0:
283,369,43182,1,2,0:0:0:0:
229,315,43299,1,8,1:0:0:0:
164,377,43417,6,0,P|174:297|174:227,1,135.000005149842,0|0,1:0|0:0,0:0:0:0:
100,238,43768,1,0,1:2:0:0:
142,177,43885,2,0,L|64:216,1,67.5000025749208,8|0,1:1|0:0,0:0:0:0:
153,368,44120,1,0,0:0:0:0:
186,370,44237,1,0,1:0:0:0:
219,376,44354,2,0,L|297:337,1,67.5000025749208
380,240,44588,2,0,L|458:279,1,67.5000025749208,0|0,1:0|0:0,0:0:0:0:
221,239,44823,5,8,1:1:0:0:
219,205,44940,1,0,0:0:0:0:
217,171,45057,1,2,0:0:0:0:
215,137,45174,1,0,0:0:0:0:
243,118,45292,6,0,L|260:186,1,67.5000025749208,0|0,1:0|0:0,0:0:0:0:
59,252,45526,2,0,L|75:186,1,67.5000025749208,0|0,1:0|0:0,0:0:0:0:
153,0,45760,5,8,1:1:0:0:
105,26,45877,1,0,0:0:0:0:
97,79,45995,1,0,0:0:0:0:
138,113,46112,1,0,1:0:0:0:
191,106,46229,5,0,0:0:0:0:
244,106,46346,1,8,1:0:0:0:
277,148,46463,1,0,1:0:0:0:
255,197,46581,1,0,0:0:0:0:
199,243,46698,6,0,B|134:222|134:222|74:264,1,135.000005149842,8|2,1:1|0:0,0:0:0:0:
4,264,47049,1,8,1:0:0:0:
24,343,47167,6,0,P|127:332|209:334,1,153.000002918243,4|0,1:0|0:0,0:0:0:0:
242,302,47518,1,0,1:0:0:0:
279,368,47635,2,0,P|329:370|372:368,1,76.5000014591217,8|0,1:1|0:0,0:0:0:0:
396,348,47870,1,0,0:0:0:0:
438,365,47987,1,0,1:0:0:0:
479,346,48104,2,0,P|467:315|465:268,1,76.5000014591217,0|0,0:0|0:0,0:0:0:0:
316,155,48338,2,0,P|314:193|301:228,1,76.5000014591217,0|0,1:0|0:0,0:0:0:0:
479,177,48573,5,8,1:1:0:0:
441,151,48690,1,0,0:0:0:0:
427,107,48807,1,2,0:0:0:0:
444,64,48924,1,0,0:0:0:0:
410,32,49042,5,2,1:0:0:0:
410,32,49159,1,0,0:0:0:0:
410,32,49276,2,0,L|321:47,1,76.5000014591217,2|0,1:0|0:0,0:0:0:0:
216,145,49510,1,10,1:0:0:0:
216,145,49627,2,0,L|127:130,1,76.5000014591217,2|0,0:1|0:0,0:0:0:0:
78,78,49862,2,0,P|102:45|214:53,1,153.000002918243,2|8,1:0|1:0,0:0:0:0:
281,56,50213,2,0,L|289:139,1,76.5000014591217,0|0,1:0|0:0,0:0:0:0:
261,208,50448,2,0,L|253:291,1,76.5000014591217,8|0,1:0|0:0,0:0:0:0:
280,375,50682,5,2,0:0:0:0:
328,318,50799,1,8,1:0:0:0:
266,363,50917,2,0,B|226:369|226:369|186:338,1,76.5000014591217,0|0,1:0|0:0,0:0:0:0:
177,275,51151,1,0,0:0:0:0:
133,289,51268,1,0,1:0:0:0:
90,305,51385,2,0,L|108:393,1,76.5000014591217,8|0,1:0|0:0,0:0:0:0:
36,195,51620,1,0,0:0:0:0:
75,218,51737,2,0,L|90:143,1,76.5000014591217,0|0,1:0|0:0,0:0:0:0:
218,135,51971,1,0,0:0:0:0:
175,152,52088,1,0,1:0:0:0:
154,110,52206,1,0,0:0:0:0:
219,61,52323,5,8,1:0:0:0:
229,105,52440,1,0,0:0:0:0:
240,149,52557,1,2,0:0:0:0:
251,193,52674,1,0,0:0:0:0:
312,245,52792,6,0,B|352:251|352:251|392:220,1,76.5000014591217,2|0,1:0|0:0,0:0:0:0:
422,165,53026,1,2,1:0:0:0:
437,179,53143,1,0,0:0:0:0:
481,209,53260,1,10,1:0:0:0:
465,223,53377,2,0,L|475:312,1,76.5000014591217,2|0,0:1|0:0,0:0:0:0:
438,364,53612,2,0,P|377:361|326:280,1,153.000002918243,2|8,1:0|1:0,0:0:0:0:
260,258,53963,2,0,L|176:276,1,76.5000014591217,2|0,1:0|0:0,0:0:0:0:
121,238,54198,1,10,1:0:0:0:
107,264,54315,1,0,0:0:0:0:
56,226,54432,1,2,0:0:0:0:
3,269,54549,1,8,1:0:0:0:
3,200,54667,6,0,B|26:165|26:165|0:50,1,153.000002918243,4|0,1:0|0:0,0:0:0:0:
36,97,55018,1,0,1:0:0:0:
82,34,55135,2,0,L|163:56,1,76.5000014591217,8|0,1:0|0:0,0:0:0:0:
273,52,55370,1,0,0:0:0:0:
306,71,55487,2,0,L|225:93,1,76.5000014591217,0|0,1:0|0:0,0:0:0:0:
177,142,55721,1,0,0:0:0:0:
144,161,55838,2,0,L|225:183,1,76.5000014591217,0|0,1:0|0:0,0:0:0:0:
277,238,56073,5,8,1:0:0:0:
316,214,56190,1,0,0:0:0:0:
360,203,56307,1,2,0:0:0:0:
405,199,56424,1,0,0:0:0:0:
397,156,56542,6,0,P|358:189|335:241,1,76.5000014591217,2|0,1:0|0:0,0:0:0:0:
222,287,56776,2,0,P|261:320|284:372,1,76.5000014591217,2|0,1:0|0:0,0:0:0:0:
375,347,57010,5,10,1:0:0:0:
422,364,57127,1,0,0:1:0:0:
383,329,57245,1,2,0:1:0:0:
450,297,57362,6,0,L|437:216,1,76.5000014591217,2|0,1:0|0:0,0:0:0:0:
375,182,57596,1,10,1:0:0:0:
435,133,57713,2,0,L|448:52,1,76.5000014591217,2|0,1:0|0:0,0:0:0:0:
379,15,57948,2,0,P|299:32|280:109,1,153.000002918243,8|2,1:0|0:0,0:0:0:0:
238,157,58299,1,8,1:0:0:0:
157,174,58417,6,0,P|237:191|256:268,1,153.000002918243,0|0,1:0|0:0,0:0:0:0:
319,298,58768,1,0,1:0:0:0:
308,335,58885,1,8,1:0:0:0:
319,298,59002,1,0,0:0:0:0:
308,335,59120,1,0,0:0:0:0:
319,298,59237,1,0,1:0:0:0:
325,348,59354,6,0,L|304:262,1,76.5000014591217
100,261,59588,2,0,L|186:240,1,76.5000014591217,0|0,1:0|0:0,0:0:0:0:
187,36,59823,2,0,L|208:122,1,76.5000014591217,8|0,1:0|0:0,0:0:0:0:
412,123,60057,2,0,L|326:144,1,76.5000014591217,2|0,0:0|0:0,0:0:0:0:
258,200,60292,5,2,1:0:0:0:
183,182,60526,1,2,1:0:0:0:
117,222,60760,1,8,1:0:0:0:
117,222,60877,1,2,0:1:0:0:
96,293,61112,1,2,1:0:0:0:
131,358,61346,1,8,1:0:0:0:
131,358,61463,1,2,1:0:0:0:
454,207,61698,5,10,1:0:0:0:
445,186,61815,1,2,0:0:0:0:
454,131,61932,5,0,1:0:0:0:
379,145,62049,1,8,1:0:0:0:
302,161,62167,2,0,P|219:139|256:10,1,229.500004377365,4|0,1:0|1:0,0:0:0:0:
214,2,62635,2,0,P|202:45|169:73,1,76.5000014591217,8|0,1:0|0:0,0:0:0:0:
83,78,62870,1,2,0:0:0:0:
97,121,62987,1,0,1:0:0:0:
111,164,63104,2,0,P|54:227|101:344,2,153.000002918243,0|0|8,0:0|1:0|1:0,0:0:0:0:
111,164,63690,1,0,0:0:0:0:
111,164,63807,1,2,0:0:0:0:
111,164,63924,1,0,0:0:0:0:
126,180,64042,6,0,L|210:195,1,76.5000014591217,0|0,1:0|0:0,0:0:0:0:
261,154,64276,1,0,1:0:0:0:
294,227,64393,1,0,0:0:0:0:
336,163,64510,2,0,L|321:247,1,76.5000014591217,8|0,1:0|0:0,0:0:0:0:
337,273,64745,1,2,0:0:0:0:
337,273,64862,2,0,L|350:197,1,76.5000014591217,0|0,1:0|0:0,0:0:0:0:
416,157,65096,1,8,1:0:0:0:
492,187,65213,2,0,P|474:230|438:244,1,76.5000014591217,0|0,1:0|0:0,0:0:0:0:
411,314,65448,2,0,L|316:298,2,76.5000014591217,8|0|2,1:0|0:0|0:0,0:0:0:0:
489,323,65799,1,8,1:0:0:0:
386,321,65917,6,0,P|323:299|320:131,1,229.500004377365,4|0,1:0|1:0,0:0:0:0:
290,132,66385,2,0,L|456:170,1,153.000002918243,8|2,1:0|0:0,0:0:0:0:
472,134,66737,1,0,1:0:0:0:
450,93,66854,2,0,L|365:106,1,76.5000014591217,0|0,0:0|0:0,0:0:0:0:
314,61,67088,2,0,L|229:74,1,76.5000014591217,0|0,1:0|0:0,0:0:0:0:
186,127,67323,1,8,1:0:0:0:
140,135,67440,1,0,0:0:0:0:
94,128,67557,1,2,0:0:0:0:
53,106,67674,1,0,0:0:0:0:
59,85,67792,6,0,L|74:189,1,76.5000014591217,0|0,1:0|0:0,0:0:0:0:
108,226,68026,2,0,L|93:330,1,76.5000014591217,0|0,1:0|0:0,0:0:0:0:
51,360,68260,1,8,1:0:0:0:
78,372,68377,1,0,0:0:0:0:
48,372,68495,5,2,0:0:0:0:
106,365,68612,1,0,1:0:0:0:
158,360,68729,1,0,0:0:0:0:
208,309,68846,5,8,1:0:0:0:
239,334,68963,2,0,L|336:331,1,76.5000014591217,0|0,1:0|0:0,0:0:0:0:
381,366,69198,2,0,P|461:334|471:257,1,153.000002918243,8|2,1:0|0:0,0:0:0:0:
396,245,69549,1,8,1:0:0:0:
353,362,69667,6,0,P|363:268|361:128,1,229.500004377365,4|0,1:0|1:0,0:0:0:0:
327,64,70135,1,8,1:0:0:0:
99,202,70370,5,2,0:0:0:0:
141,182,70487,1,0,1:0:0:0:
185,169,70604,1,0,0:0:0:0:
231,161,70721,1,0,0:0:0:0:
254,181,70838,6,0,L|235:255,1,76.5000014591217,0|0,1:0|0:0,0:0:0:0:
317,363,71073,2,0,P|316:250|333:166,1,153.000002918243,8|2,1:0|0:0,0:0:0:0:
317,134,71424,1,0,0:0:0:0:
235,106,71542,2,0,L|253:180,1,76.5000014591217,0|0,1:0|0:0,0:0:0:0:
386,102,71776,2,0,L|404:27,1,76.5000014591217,0|0,1:0|0:0,0:0:0:0:
305,26,72010,1,8,1:0:0:0:
259,18,72127,1,0,0:0:0:0:
213,25,72245,1,2,0:0:0:0:
173,48,72362,1,0,1:0:0:0:
134,73,72479,1,0,0:0:0:0:
90,88,72596,1,8,1:0:0:0:
72,68,72713,6,0,L|91:163,1,76.5000014591217,0|0,1:0|0:0,0:0:0:0:
224,223,72948,2,0,L|132:191,1,76.5000014591217,8|0,1:0|0:0,0:0:0:0:
39,262,73182,1,2,0:0:0:0:
62,241,73299,1,8,1:0:0:0:
56,271,73417,6,0,L|-5:337,1,76.5000014591217,4|0,1:0|0:0,0:0:0:0:
80,367,73651,1,0,0:0:0:0:
80,367,73768,1,0,1:0:0:0:
80,367,73885,2,0,L|131:310,1,76.5000014591217,8|0,1:0|0:0,0:0:0:0:
242,308,74120,5,2,0:0:0:0:
242,308,74237,2,0,L|190:364,1,76.5000014591217,0|0,1:0|0:0,0:0:0:0:
188,248,74471,1,0,0:0:0:0:
188,248,74588,2,0,L|239:191,1,76.5000014591217,0|0,1:0|0:0,0:0:0:0:
309,160,74823,1,8,1:0:0:0:
329,187,74940,1,0,0:0:0:0:
307,50,75174,1,0,1:0:0:0:
289,80,75292,2,0,L|214:63,1,76.5000014591217,0|0,1:0|0:0,0:0:0:0:
120,89,75526,6,0,L|142:162,1,76.5000014591217,2|0,1:0|0:0,0:0:0:0:
105,233,75760,1,10,1:0:0:0:
88,259,75877,2,0,P|52:248|33:205,1,76.5000014591217,2|0,0:1|0:0,0:0:0:0:
183,230,76112,2,0,P|219:241|238:284,1,76.5000014591217,2|0,1:0|0:0,0:0:0:0:
311,288,76346,1,10,1:0:0:0:
305,361,76463,1,0,1:0:0:0:
376,328,76581,1,2,1:0:0:0:
397,358,76698,1,10,1:0:0:0:
465,327,76815,1,0,1:0:0:0:
492,264,76932,1,2,0:1:0:0:
487,210,77049,1,8,1:0:0:0:
473,208,77167,6,0,B|434:234|434:234|305:172,1,180,4|0,1:0|0:0,0:0:0:0:
283,132,77518,1,0,1:0:0:0:
243,169,77635,1,8,1:0:0:0:
210,161,77752,1,8,1:0:0:0:
190,145,77987,6,0,L|382:123,1,180,8|0,1:0|0:0,0:0:0:0:
410,69,78338,1,8,1:0:0:0:
449,121,78456,1,0,0:0:0:0:
483,103,78573,1,8,1:0:0:0:
500,119,78690,1,8,1:0:0:0:
483,103,78807,1,0,1:0:0:0:
449,121,78924,1,8,1:0:0:0:
410,69,79042,6,0,L|316:93,1,90,0|0,1:0|0:0,0:0:0:0:
291,160,79276,2,0,L|190:137,1,90,8|0,1:0|0:0,0:0:0:0:
163,77,79510,1,8,1:0:0:0:
121,88,79627,1,8,1:0:0:0:
118,135,79745,1,0,0:0:0:0:
130,139,79862,1,8,1:0:0:0:
151,210,79979,5,0,1:0:0:0:
116,231,80096,1,8,1:0:0:0:
68,219,80213,1,8,1:0:0:0:
61,204,80331,1,0,0:0:0:0:
40,129,80448,6,0,P|-8:140|-20:185,2,90,8|8|0,1:0|1:0|1:0,0:0:0:0:
76,64,80799,1,4,0:0:0:0:
135,106,80917,6,0,L|231:97,1,90,4|0,1:0|0:0,0:0:0:0:
276,41,81151,2,0,P|385:71|386:161,1,180,8|8,1:0|1:0,0:0:0:0:
356,187,81502,1,8,1:0:0:0:
367,226,81620,1,0,1:0:0:0:
430,242,81737,1,8,1:0:0:0:
446,229,81971,6,0,L|340:249,2,90,0|8|0,1:0|1:0|1:0,0:0:0:0:
487,164,82323,1,8,1:0:0:0:
477,155,82440,1,0,1:0:0:0:
411,148,82557,1,8,1:0:0:0:
420,137,82674,1,8,1:0:0:0:
460,87,82792,6,0,L|488:-3,1,90,0|0,1:0|0:0,0:0:0:0:
366,56,83026,2,0,L|392:141,1,90,8|8,1:0|1:0,0:0:0:0:
340,193,83260,1,8,1:0:0:0:
314,173,83377,1,0,1:0:0:0:
280,196,83495,1,0,0:0:0:0:
224,148,83612,1,8,1:0:0:0:
208,166,83729,1,0,0:0:0:0:
161,233,83846,1,8,1:0:0:0:
133,219,83963,2,0,L|28:194,1,90,0|8,1:0|1:0,0:0:0:0:
105,314,84198,1,8,1:0:0:0:
127,308,84315,1,0,1:0:0:0:
188,343,84432,1,8,1:0:0:0:
216,286,84549,1,8,1:0:0:0:
284,323,84667,6,0,L|371:343,1,90,4|8,1:0|1:0,0:0:0:0:
433,301,84901,1,0,0:0:0:0:
433,301,85018,1,8,1:0:0:0:
371,343,85135,6,0,L|179:293,1,180,8|0,1:0|0:0,0:0:0:0:
168,321,85487,2,0,L|342:275,1,180,8|0,1:0|1:0,0:0:0:0:
365,202,85838,1,8,1:0:0:0:
406,227,85956,1,0,1:0:0:0:
426,201,86073,1,8,1:0:0:0:
450,211,86190,1,8,1:0:0:0:
466,183,86307,2,0,L|486:295,1,90,8|0,1:0|0:0,0:0:0:0:
275,170,86542,6,0,L|299:65,1,90,0|0,1:0|0:0,0:0:0:0:
169,28,86776,2,0,L|189:115,1,90,8|0,1:0|0:0,0:0:0:0:
159,188,87010,1,8,1:0:0:0:
126,210,87127,1,8,1:0:0:0:
81,199,87245,1,0,0:0:0:0:
61,169,87362,1,8,1:0:0:0:
108,182,87479,5,8,1:0:0:0:
114,209,87596,1,8,1:0:0:0:
144,234,87713,1,0,1:0:0:0:
131,258,87831,1,8,1:0:0:0:
139,312,87948,1,8,1:0:0:0:
183,309,88065,1,0,1:0:0:0:
229,312,88182,1,8,1:0:0:0:
272,320,88299,1,8,1:0:0:0:
316,300,88417,6,0,L|302:376,4,45,4|0|0|0|8,1:0|1:0|1:0|1:0|1:0,0:0:0:0:
382,343,88768,1,0,1:0:0:0:
456,336,88885,2,0,L|431:234,1,90,8|8,1:0|1:0,0:0:0:0:
465,182,89120,1,0,1:0:0:0:
370,204,89237,2,0,P|303:187|284:72,1,180,8|0,1:0|0:0,0:0:0:0:
336,37,89588,2,0,L|433:81,1,90,8|0,1:0|0:0,0:0:0:0:
271,7,89823,1,8,1:0:0:0:
244,24,89940,1,8,1:0:0:0:
211,3,90057,1,0,1:0:0:0:
173,24,90174,1,8,1:0:0:0:
143,9,90292,6,0,L|175:113,1,90,0|0,1:0|0:0,0:0:0:0:
19,135,90526,2,0,L|45:48,1,90,8|0,1:0|0:0,0:0:0:0:
137,162,90760,1,8,1:0:0:0:
106,175,90877,1,8,1:0:0:0:
111,213,90995,1,0,0:0:0:0:
146,204,91112,1,8,1:0:0:0:
216,162,91229,6,0,L|307:200,2,90,8|8|0,1:0|1:0|1:0,0:0:0:0:
208,244,91581,1,8,1:0:0:0:
239,271,91698,2,0,L|155:305,2,90,8|0|8,1:0|1:0|1:0,0:0:0:0:
93,265,92049,1,8,1:0:0:0:
80,342,92167,6,0,L|69:241,1,90,4|0,1:0|0:0,0:0:0:0:
64,171,92401,6,2,B|103:190|103:190|130:172|130:172|150:189|150:189|184:171|184:171|233:187,1,180,10|8,1:0|1:0,1:0:0:0:
268,130,92752,5,8,1:0:0:0:
315,195,92870,1,0,1:0:0:0:
351,207,92987,2,0,P|306:226|291:346,1,180,8|0,1:0|1:0,0:0:0:0:
369,356,93338,1,0,1:0:0:0:
399,323,93456,1,8,1:0:0:0:
410,279,93573,1,8,1:0:0:0:
438,243,93690,1,0,1:0:0:0:
454,260,93807,1,8,1:0:0:0:
456,245,93924,1,0,1:0:0:0:
472,203,94042,6,0,L|461:305,1,90,0|0,1:0|0:0,0:0:0:0:
367,213,94276,2,0,L|357:123,1,90,8|8,1:0|1:0,0:0:0:0:
291,79,94510,1,8,1:0:0:0:
313,43,94627,1,0,1:0:0:0:
351,28,94745,1,8,1:0:0:0:
291,79,94862,5,8,1:0:0:0:
269,43,94979,1,0,0:0:0:0:
231,28,95097,1,8,1:0:0:0:
191,64,95213,1,0,1:0:0:0:
143,49,95331,1,8,1:0:0:0:
93,77,95448,1,8,1:0:0:0:
90,141,95565,1,0,1:0:0:0:
146,192,95682,1,8,1:0:0:0:
221,157,95799,1,0,1:0:0:0:
197,79,95917,6,0,L|208:184,1,90,4|0,1:0|0:0,0:0:0:0:
260,225,96151,6,2,B|239:247|239:247|250:274|250:274|223:284|223:284|236:307|236:307|207:332|207:332|213:367,1,180,10|8,1:0|1:0,1:0:0:0:
283,374,96502,5,8,1:0:0:0:
321,336,96620,1,0,0:0:0:0:
349,350,96737,2,0,L|360:243,1,90,8|0,1:0|0:0,0:0:0:0:
418,210,96971,1,8,1:0:0:0:
439,252,97088,1,0,1:0:0:0:
454,227,97206,1,8,1:0:0:0:
477,242,97323,2,0,L|459:147,1,90,8|0,1:0|0:0,0:0:0:0:
367,120,97557,2,0,L|350:208,1,90,0|8,1:0|1:0,0:0:0:0:
447,71,97792,6,0,L|350:41,1,90,0|0,1:0|0:0,0:0:0:0:
292,94,98026,2,0,L|195:64,1,90,8|8,1:0|1:0,0:0:0:0:
140,14,98260,1,8,1:0:0:0:
100,33,98377,1,0,1:0:0:0:
80,76,98495,1,8,1:0:0:0:
126,142,98612,1,8,1:0:0:0:
145,178,98729,1,0,1:0:0:0:
142,212,98846,1,8,1:0:0:0:
77,262,98963,1,0,1:0:0:0:
65,299,99081,1,8,1:0:0:0:
72,341,99198,2,0,L|158:369,2,90,8|0|8,1:0|1:0|1:0,0:0:0:0:
178,298,99549,1,0,1:0:0:0:
244,360,99667,6,2,B|226:319|226:319|245:264,1,90,6|0,1:0|0:0,1:0:0:0:
297,215,99901,1,8,1:0:0:0:
341,278,100018,1,2,1:0:0:0:
402,227,100135,2,2,L|401:323,1,90,10|0,1:0|0:0,1:0:0:0:
297,215,100370,1,8,1:0:0:0:
355,160,100487,2,2,L|354:70,1,90,2|0,1:0|0:0,1:0:0:0:
329,31,100721,1,8,1:0:0:0:
363,26,100838,1,8,1:0:0:0:
325,23,100956,1,0,1:0:0:0:
285,85,101073,6,0,L|186:61,1,90,8|8,1:0|1:0,0:0:0:0:
140,117,101307,2,0,L|41:93,1,90,0|8,1:0|1:0,0:0:0:0:
34,194,101542,5,0,1:0:0:0:
75,235,101659,1,0,1:0:0:0:
130,229,101776,1,8,1:0:0:0:
171,188,101893,1,0,0:0:0:0:
238,152,102010,5,8,1:0:0:0:
277,162,102127,1,8,1:0:0:0:
238,152,102245,1,0,0:0:0:0:
176,114,102362,5,8,1:0:0:0:
137,124,102480,1,0,0:0:0:0:
176,114,102597,1,8,1:0:0:0:
228,57,102713,6,0,P|269:63|315:107,1,90,8|0,1:0|0:0,0:0:0:0:
346,166,102948,2,0,L|446:133,2,90,8|0|8,1:0|1:0|1:0,0:0:0:0:
439,62,103299,1,0,1:0:0:0:
512,113,103417,6,0,L|502:172,4,45,6|0|2|0|10,1:0|1:0|1:0|1:0|1:0,0:0:0:0:
452,213,103768,1,0,1:0:0:0:
403,271,103885,2,0,L|428:366,2,90,10|0|10,1:0|0:0|1:0,0:0:0:0:
337,356,104237,2,0,P|305:347|282:290,1,90,10|0,1:0|0:0,0:0:0:0:
208,308,104471,1,0,1:0:0:0:
207,232,104588,1,8,1:0:0:0:
204,159,104706,1,0,1:0:0:0:
191,87,104823,1,8,1:0:0:0:
211,128,104940,1,0,0:0:0:0:
216,176,105057,1,8,1:0:0:0:
216,222,105174,1,8,1:0:0:0:
205,274,105292,5,0,1:0:0:0:
194,291,105409,1,0,1:0:0:0:
158,315,105526,5,8,1:0:0:0:
173,329,105643,1,8,1:0:0:0:
196,370,105760,6,0,P|231:359|286:356,2,78.7500007510185,8|0|8,1:0|0:0|1:0,0:0:0:0:
131,334,106112,1,8,1:0:0:0:
107,264,106229,2,0,P|72:253|17:250,1,78.7500007510185,0|8,0:0|1:0,0:0:0:0:
173,227,106463,2,0,P|205:266|205:317,1,78.7500007510185,8|0,1:0|0:0,0:0:0:0:
104,189,106698,1,8,1:0:0:0:
99,136,106815,1,8,1:0:0:0:
157,93,106932,1,0,1:0:0:0:
227,131,107049,1,8,1:0:0:0:
315,116,107167,5,4,1:0:0:0:
