osu file format v14

[General]
AudioFilename: Giga.mp3
AudioLeadIn: 0
PreviewTime: 155915
Countdown: 0
SampleSet: Soft
StackLeniency: 0.7
Mode: 0
LetterboxInBreaks: 0
WidescreenStoryboard: 0

[Editor]
Bookmarks: 47997,70497,95997,119997,155997,158997,179997
DistanceSpacing: 0.5
BeatDivisor: 4
GridSize: 32
TimelineZoom: 2.250001

[Metadata]
Title:Giga
TitleUnicode:Giga
Artist:2ToneDisco x Kabuki
ArtistUnicode:2ToneDisco x Kabuki
Creator:Hazu-
Version:pishi's Hard
Source:osu!
Tags:pishifat with friends 1st first album debut electronic instrumental fa featured artist mg mappers' guild
BeatmapID:2952116
BeatmapSetID:1392421

[Difficulty]
HPDrainRate:5
CircleSize:3.8
OverallDifficulty:6
ApproachRate:8
SliderMultiplier:0.999999999999999
SliderTickRate:1

[Events]
//Background and Video events
0,0,"Giga.jpg",0,0
//Break Periods
2,96209,107259
//Storyboard Layer 0 (Background)
//Storyboard Layer 1 (Fail)
//Storyboard Layer 2 (Pass)
//Storyboard Layer 3 (Foreground)
//Storyboard Layer 4 (Overlay)
//Storyboard Sound Samples

[TimingPoints]
9,375,4,2,1,30,1,0
13509,-93.4579439252336,4,2,1,30,0,0
15009,-86.9565217391304,4,2,1,30,0,0
16509,-81.9672131147541,4,2,1,30,0,0
18009,-76.9230769230769,4,2,1,35,0,0
19509,-72.992700729927,4,2,1,40,0,0
21009,-71.4285714285714,4,2,1,30,0,0
21665,-71.4285714285714,4,2,1,45,0,0
22509,-68.9655172413793,4,2,1,50,0,0
24009,-64.5161290322581,4,2,1,70,0,0
24290,-64.5161290322581,4,2,1,5,0,0
24384,-64.5161290322581,4,2,1,70,0,0
24946,-64.5161290322581,4,2,1,5,0,0
25040,-64.5161290322581,4,2,1,70,0,0
25227,-64.5161290322581,4,2,1,5,0,0
25321,-64.5161290322581,4,2,1,70,0,0
25790,-64.5161290322581,4,2,1,5,0,0
25884,-64.5161290322581,4,2,1,70,0,0
27290,-64.5161290322581,4,2,1,5,0,0
27384,-64.5161290322581,4,2,1,70,0,0
28040,-64.5161290322581,4,2,1,5,0,0
28134,-64.5161290322581,4,2,1,70,0,0
30009,-62.5,4,2,1,70,0,0
30290,-62.5,4,2,1,5,0,0
30384,-62.5,4,2,1,70,0,0
30571,-62.5,4,2,1,40,0,0
30759,-62.5,4,2,1,70,0,0
30946,-62.5,4,2,1,5,0,0
31040,-62.5,4,2,1,70,0,0
31227,-62.5,4,2,1,5,0,0
31321,-62.5,4,2,1,70,0,0
33290,-62.5,4,2,1,5,0,0
33384,-62.5,4,2,1,70,0,0
34040,-62.5,4,2,1,5,0,0
34134,-62.5,4,2,1,70,0,0
34321,-62.5,4,2,1,40,0,0
34509,-62.5,4,2,1,70,0,0
36009,-62.5,4,2,1,60,0,0
36384,-83.3333333333333,4,2,1,60,0,0
37884,-76.9230769230769,4,2,1,60,0,0
39384,-71.4285714285714,4,2,1,60,0,0
46509,-71.4285714285714,4,2,1,50,0,0
48009,-64.5161290322581,4,2,2,80,0,1
58321,-80,4,2,2,60,0,0
58977,-80,4,2,2,5,0,0
59071,-80,4,2,2,60,0,0
59540,-80,4,2,2,5,0,0
59634,-80,4,2,2,60,0,0
60009,-80,4,2,2,30,0,0
60196,-80,4,2,2,50,0,0
60759,-64.5161290322581,4,2,2,80,0,1
70321,-80,4,2,2,80,0,1
70509,-80,4,2,2,65,0,0
71915,-80,4,2,2,5,0,0
72009,-74.0740740740741,4,2,2,60,0,0
94509,-86.9565217391304,4,2,2,50,0,0
95259,-86.9565217391304,4,2,2,40,0,0
108009,-111.111111111111,4,2,1,40,0,0
117759,-100,4,2,1,40,0,0
118509,-90.9090909090909,4,2,1,40,0,0
120009,-76.9230769230769,4,2,1,60,0,0
129759,-83.3333333333333,4,2,1,60,0,0
130509,-100,4,2,1,60,0,0
130977,-100,4,2,1,5,0,0
131071,-100,4,2,1,60,0,0
132009,-100,4,2,1,40,0,0
133884,-93.4579439252336,4,2,1,40,0,0
135384,-86.9565217391304,4,2,1,40,0,0
138009,-81.3008130081301,4,2,1,40,0,0
144009,-81.3008130081301,4,2,1,60,0,0
144384,-74.0740740740741,4,2,1,60,0,0
147384,-71.4285714285714,4,2,1,60,0,0
156009,-62.5,4,2,2,80,0,1
157134,-62.5,4,2,2,50,0,0
157321,-100,4,2,2,50,0,0
158259,-76.9230769230769,4,2,2,50,0,0
159009,-64.5161290322581,4,2,2,80,0,1
166321,-80,4,2,2,60,0,0
166977,-80,4,2,2,5,0,0
167071,-80,4,2,2,60,0,0
167540,-80,4,2,2,5,0,0
167634,-80,4,2,2,60,0,0
168196,-80,4,2,2,50,0,0
168759,-64.5161290322581,4,2,2,80,0,1
178321,-80,4,2,2,80,0,1
178509,-80,4,2,2,65,0,1
180009,-80,4,2,2,50,0,0

[Colours]
Combo1 : 224,157,247
Combo2 : 106,199,234
Combo3 : 255,98,255
Combo4 : 114,152,224

[HitObjects]
50,177,12009,6,0,L|32:59,1,99.9999999999999,2|2,0:0|0:0,0:0:0:0:
35,78,12759,2,0,L|98:90,1,50,10|0,0:0|0:0,0:0:0:0:
150,38,13134,2,0,L|213:50,1,50,10|0,0:0|0:0,0:0:0:0:
275,90,13509,6,0,P|336:80|390:69,1,106.999996734619,2|2,0:0|0:0,0:0:0:0:
380,71,14259,2,0,P|370:124|369:134,1,53.4999983673096,10|0,0:0|0:0,0:0:0:0:
425,190,14634,2,0,P|420:216|415:242,1,53.4999983673096,10|0,0:0|0:0,0:0:0:0:
352,306,15009,6,0,B|336:308|336:308|326:324,7,28.7500005483627,10|8|8|8|10|8|8|8,0:0|0:0|0:0|0:0|0:0|0:0|0:0|0:0,0:0:0:0:
329,318,15759,2,0,P|319:364|318:382,1,57.5000010967254,10|0,0:0|0:0,0:0:0:0:
252,286,16134,2,0,P|242:241|228:208,1,57.5000010967254,10|0,0:0|0:0,0:0:0:0:
184,340,16509,6,0,P|133:339|45:308,1,121.999994973755,2|2,0:0|0:0,0:0:0:0:
25,183,17165,1,8,0:0:0:0:
12,195,17259,2,0,P|44:212|87:223,1,60.9999974868775,10|0,0:0|0:0,0:0:0:0:
171,122,17634,2,0,P|144:137|115:147,1,60.9999974868775,10|0,0:0|0:0,0:0:0:0:
53,83,18009,6,0,B|62:70|62:70|59:53,7,32.4999985122681,10|8|8|8|10|8|8|8,0:0|0:0|0:0|0:0|0:0|0:0|0:0|0:0,0:0:0:0:
59,53,18759,2,0,P|122:37|147:41,1,64.9999970245362,10|0,0:0|0:0,0:0:0:0:
171,122,19134,2,0,P|200:134|233:138,1,64.9999970245362,10|0,0:0|0:0,0:0:0:0:
345,83,19509,6,0,B|355:68|355:68|351:41,7,34.250000966835,10|8|8|8|10|8|8|8,0:0|0:0|0:0|0:0|0:0|0:0|0:0|0:0,0:0:0:0:
352,51,20259,2,0,P|302:60|282:82,1,68.50000193367,10|0,0:0|0:0,0:0:0:0:
345,214,20634,2,0,P|378:212|407:193,1,68.50000193367,10|0,0:0|0:0,0:0:0:0:
477,123,21009,6,0,P|499:192|488:276,1,139.999995727539,2|2,0:0|0:0,0:0:0:0:
336,330,21665,1,8,0:0:0:0:
320,321,21759,2,0,P|300:354|305:403,1,69.9999978637695,10|0,0:0|0:0,0:0:0:0:
401,276,22134,2,0,P|398:241|379:212,1,69.9999978637695,10|0,0:0|0:0,0:0:0:0:
105,343,22696,5,8,0:0:0:0:
175,277,22884,2,0,L|218:289,2,36.2500011062622,10|8|8,0:0|0:0|0:3,0:0:0:0:
73,221,23259,5,10,0:0:0:0:
152,177,23446,1,10,0:0:0:0:
212,107,23634,1,10,0:0:0:0:
212,107,23727,1,8,0:0:0:0:
212,107,23821,1,10,0:0:0:0:
236,13,24009,6,0,B|255:42|255:42|402:63,1,155.000001182556,10|8,0:3|0:0,0:0:0:0:
374,59,24759,2,0,P|413:13|474:46,2,116.250000886917,10|10|10,0:3|0:3|0:3,0:0:0:0:
444,115,25509,6,0,B|458:153|458:153|436:225|436:225|459:274,1,155.000001182556,10|8,0:3|0:0,0:0:0:0:
452,260,26259,2,0,L|342:280,1,77.500000591278,10|0,0:3|0:0,0:0:0:0:
366,297,26540,1,10,0:3:0:0:
366,297,26634,2,0,P|301:282|271:259,1,77.500000591278,8|10,0:0|0:3,0:0:0:0:
195,204,27009,6,0,B|155:222|155:222|122:264|155:352,1,155.000001182556,10|10,0:3|0:0,0:0:0:0:
237,346,27571,1,8,0:3:0:0:
292,276,27759,6,0,L|269:103,1,155.000001182556,10|8,0:3|0:0,0:0:0:0:
284,32,28321,1,8,0:3:0:0:
190,82,28509,6,0,P|151:79|105:52,1,77.500000591278,10|8,0:3|0:3,0:0:0:0:
43,119,28884,2,0,P|52:156|74:187,1,77.500000591278,10|8,0:0|0:3,0:0:0:0:
173,210,29259,5,10,0:3:0:0:
250,222,29446,1,8,0:3:0:0:
177,290,29634,2,0,L|272:306,1,77.500000591278,10|8,0:0|0:3,0:0:0:0:
356,354,30009,6,0,B|391:375|391:375|437:371|481:329,1,120,10|0,0:3|0:0,0:0:0:0:
462,344,30384,1,8,0:0:0:0:
484,244,30571,2,0,L|525:236,2,26.6666666666666,8|8|8,0:3|0:3|0:3,0:0:0:0:
471,255,30759,2,0,P|442:210|431:130,1,120,10|10,0:0|0:0,0:0:0:0:
512,0,31321,1,8,0:3:0:0:
430,59,31509,6,0,L|337:41,1,79.9999999999999,10|8,0:3|0:0,0:0:0:0:
351,43,31790,1,8,0:0:0:0:
351,43,31884,1,8,0:0:0:0:
190,151,32259,2,0,L|89:167,1,79.9999999999999,10|8,0:3|0:0,0:0:0:0:
91,152,32540,1,10,0:3:0:0:
91,152,32634,2,0,L|107:91,2,40,8|8|10,0:0|0:0|0:3,0:0:0:0:
26,228,33009,6,0,P|47:297|94:331,1,120,10|0,0:3|0:0,0:0:0:0:
82,326,33384,2,0,P|115:312|188:317,1,79.9999999999999,10|8,0:3|0:3,0:0:0:0:
246,356,33759,2,0,B|281:379|281:379|396:368,1,120,10|0,0:3|0:0,0:0:0:0:
358,371,34134,1,10,0:3:0:0:
320,283,34321,2,0,L|281:276,2,26.6666666666666,8|8|8,0:3|0:3|0:3,0:0:0:0:
337,295,34509,6,0,P|368:237|371:202,1,79.9999999999999,10|8,0:3|0:0,0:0:0:0:
365,122,34884,2,0,P|343:76|313:48,1,79.9999999999999,10|8,0:3|0:0,0:0:0:0:
206,14,35259,5,10,0:0:0:0:
127,68,35446,1,10,0:0:0:0:
190,129,35634,1,10,0:0:0:0:
142,180,35821,1,10,0:0:0:0:
162,217,36009,1,10,0:3:0:0:
28,303,36384,6,0,L|42:244,2,59.9999981689453,10|2|10,0:3|0:0|0:3,0:0:0:0:
93,361,36946,2,0,L|151:343,1,59.9999981689453,2|8,0:0|0:0,0:0:0:0:
167,262,37321,2,0,L|122:220,1,59.9999981689453,2|8,0:0|0:3,0:0:0:0:
454,213,37884,6,0,L|439:275,2,64.9999970245362,10|2|10,0:3|0:0|0:0,0:0:0:0:
385,151,38446,2,0,L|324:170,1,64.9999970245362,2|8,0:0|0:3,0:0:0:0:
354,299,38821,2,0,L|307:255,1,64.9999970245362,2|8,0:0|0:3,0:0:0:0:
60,120,39384,6,0,L|79:50,2,69.9999978637695,10|2|10,0:3|0:0|0:3,0:0:0:0:
127,179,39946,2,0,L|198:159,1,69.9999978637695,2|8,0:0|0:0,0:0:0:0:
216,74,40321,2,0,L|163:23,1,69.9999978637695,2|8,0:0|0:3,0:0:0:0:
78,52,40696,2,0,L|60:120,1,69.9999978637695,2|8,0:0|0:3,0:0:0:0:
18,269,41071,6,0,L|36:201,1,69.9999978637695,2|8,0:0|0:0,0:0:0:0:
127,179,41446,1,2,0:0:0:0:
214,215,41634,1,10,0:3:0:0:
293,197,41821,1,2,0:0:0:0:
364,226,42009,6,0,L|371:270,7,34.9999989318848,10|8|10|8|10|8|10|8,0:0|0:0|0:0|0:0|0:3|0:0|0:0|0:0,0:0:0:0:
408,239,42759,2,0,L|415:283,6,34.9999989318848,10|8|10|8|8|8|10,0:3|0:0|0:0|0:0|0:3|0:0|0:0,0:0:0:0:
477,145,43509,2,0,L|482:110,7,34.9999989318848,8|8|10|8|8|8|10|8,0:3|0:0|0:0|0:0|0:3|0:0|0:0|0:0,0:0:0:0:
442,112,44259,2,0,L|447:77,7,34.9999989318848,8|8|10|8|8|8|10|8,0:3|0:0|0:0|0:0|0:3|0:0|0:0|0:0,0:0:0:0:
256,192,45009,12,8,47259,0:3:0:0:
38,54,48009,6,0,P|82:28|123:28,1,77.500000591278,14|0,0:3|0:0,0:0:0:0:
177,82,48384,2,0,P|245:126|328:120,1,155.000001182556,10|10,0:3|0:0,0:0:0:0:
38,54,49134,5,10,0:3:0:0:
98,120,49321,2,0,L|82:199,1,77.500000591278,2|0,0:0|0:0,0:0:0:0:
177,82,49696,2,0,L|193:3,1,77.500000591278,2|8,0:0|0:3,0:0:0:0:
234,155,50071,2,0,L|218:234,2,77.500000591278,2|10|2,0:0|0:0|0:0,0:0:0:0:
316,124,50634,2,0,L|332:45,1,77.500000591278,10|8,0:3|0:3,0:0:0:0:
427,19,51009,6,0,P|477:53|490:83,1,77.500000591278,10|0,0:3|0:0,0:0:0:0:
450,151,51384,2,0,P|408:170|378:268,1,155.000001182556,10|10,0:3|0:0,0:0:0:0:
427,19,52134,5,10,0:3:0:0:
358,84,52321,2,0,P|316:76|264:59,1,77.500000591278,2|0,0:0|0:0,0:0:0:0:
211,125,52696,2,0,P|254:165|300:190,1,77.500000591278,2|8,0:0|0:3,0:0:0:0:
177,266,53071,2,0,P|157:217|150:176,1,77.500000591278,2|8,0:0|0:0,0:0:0:0:
63,141,53446,1,2,0:0:0:0:
45,220,53634,1,10,0:3:0:0:
27,298,53821,1,2,0:0:0:0:
79,378,54009,6,0,P|127:368|168:337,1,77.500000591278,10|0,0:3|0:0,0:0:0:0:
177,266,54384,2,0,P|228:198|308:187,1,155.000001182556,10|10,0:3|0:0,0:0:0:0:
79,378,55134,5,10,0:3:0:0:
164,351,55321,2,0,L|266:366,1,77.500000591278,2|0,0:0|0:0,0:0:0:0:
177,266,55696,2,0,L|75:251,1,77.500000591278,2|8,0:0|0:3,0:0:0:0:
126,167,56071,1,2,0:0:0:0:
126,167,56259,2,0,L|228:182,1,77.500000591278,10|2,0:0|0:0,0:0:0:0:
293,184,56634,2,0,L|277:94,1,77.500000591278,10|10,0:3|0:3,0:0:0:0:
337,36,57009,6,0,P|389:44|474:126,2,155.000001182556,10|10|10,0:3|0:3|0:0,0:0:0:0:
280,108,57946,2,0,P|231:102|186:71,1,77.500000591278,2|10,0:0|0:3,0:0:0:0:
133,33,58321,6,0,L|54:16,1,62.4999999999999,2|8,0:0|0:3,0:0:0:0:
20,86,58696,1,2,0:0:0:0:
20,86,59071,2,0,P|49:132|71:218,1,125,2|0,0:0|0:0,0:0:0:0:
0,256,59634,2,0,P|47:294|80:360,1,125,2|0,0:0|0:0,0:0:0:0:
77,350,60196,5,8,0:3:0:0:
162,298,60384,1,10,0:3:0:0:
201,384,60571,1,8,0:3:0:0:
286,337,60759,6,0,P|301:301|299:238,1,77.500000591278,14|0,0:0|0:0,0:0:0:0:
236,184,61134,2,0,P|298:225|381:216,1,155.000001182556,10|10,0:3|0:3,0:0:0:0:
413,139,61696,5,2,0:0:0:0:
413,139,61884,2,0,L|398:50,1,77.500000591278,10|0,0:3|0:0,0:0:0:0:
471,8,62259,2,0,L|307:29,2,155.000001182556,10|10|10,0:0|0:3|0:3,0:0:0:0:
230,85,63384,6,0,P|170:56|132:61,1,77.500000591278,10|0,0:3|0:0,0:0:0:0:
86,102,63759,2,0,P|90:168|114:198,1,77.500000591278,10|0,0:0|0:0,0:0:0:0:
172,218,64134,2,0,P|227:180|241:145,1,77.500000591278,10|0,0:3|0:0,0:0:0:0:
165,83,64509,5,2,0:0:0:0:
115,151,64696,1,2,0:0:0:0:
202,161,64884,1,10,0:3:0:0:
16,297,65259,6,0,L|98:279,1,77.500000591278,10|0,0:0|0:0,0:0:0:0:
150,349,65634,2,0,L|225:365,1,77.500000591278,10|0,0:3|0:0,0:0:0:0:
310,339,66009,6,0,P|332:289|329:247,1,77.500000591278,10|0,0:3|0:0,0:0:0:0:
276,189,66384,2,0,P|334:227|431:229,2,155.000001182556,10|10|10,0:3|0:0|0:3,0:0:0:0:
248,105,67321,6,0,L|233:17,1,77.500000591278,2|8,0:0|0:3,0:0:0:0:
328,41,67696,2,0,L|341:117,1,77.500000591278,10|10,0:3|0:3,0:0:0:0:
433,124,68071,1,2,0:0:0:0:
433,124,68259,2,0,L|420:48,1,77.500000591278,10|0,0:0|0:0,0:0:0:0:
500,190,68634,2,0,P|461:211|412:216,1,77.500000591278,10|8,0:3|0:3,0:0:0:0:
317,263,69009,6,0,P|369:286|431:378,2,155.000001182556,10|10|10,0:3|0:3|0:0,0:0:0:0:
244,307,69946,1,0,0:0:0:0:
172,352,70134,1,10,0:3:0:0:
88,299,70321,6,0,L|73:220,1,62.4999999999999,2|8,0:0|0:3,0:0:0:0:
159,207,70696,2,0,L|189:146,1,62.4999999999999,2|0,0:0|0:0,0:0:0:0:
268,184,71071,2,0,L|527:129,1,250,2|0,0:0|0:0,0:0:0:0:
415,43,72009,6,0,P|366:66|323:70,1,67.500000257492,14|8,0:3|0:3,0:0:0:0:
276,50,72384,2,0,L|184:36,1,67.500000257492,10|8,0:0|0:3,0:0:0:0:
209,39,72665,1,8,0:3:0:0:
209,39,72759,2,0,L|226:124,2,67.500000257492,10|8|10,0:0|0:3|0:0,0:0:0:0:
93,107,73509,6,0,P|135:140|153:242,1,135.000000514984,10|10,0:3|0:0,0:0:0:0:
98,279,74071,1,8,0:3:0:0:
98,279,74165,1,8,0:3:0:0:
98,279,74259,2,0,L|16:264,1,67.500000257492,10|8,0:0|0:3,0:0:0:0:
2,350,74634,1,10,0:0:0:0:
206,354,75009,6,0,P|221:318|222:274,1,67.500000257492,10|8,0:3|0:3,0:0:0:0:
297,241,75384,2,0,P|326:270|343:309,1,67.500000257492,10|8,0:0|0:3,0:0:0:0:
338,293,75665,1,8,0:3:0:0:
338,293,75759,2,0,L|411:306,1,67.500000257492,10|8,0:0|0:3,0:0:0:0:
476,253,76134,1,10,0:0:0:0:
356,173,76509,6,0,L|336:32,1,135.000000514984,10|10,0:3|0:0,0:0:0:0:
436,91,77071,1,8,0:3:0:0:
436,91,77165,1,0,0:0:0:0:
436,91,77259,2,0,P|496:108|524:105,2,67.500000257492,10|8|10,0:0|0:3|0:0,0:0:0:0:
182,40,78009,6,0,B|160:42|160:42|136:65,7,33.750000128746,10|8|8|8|10|8|8|8,0:3|0:0|0:0|0:0|0:0|0:0|0:0|0:3,0:0:0:0:
152,51,78759,2,0,P|97:42|67:25,1,67.500000257492,10|8,0:0|0:3,0:0:0:0:
164,135,79134,2,0,P|183:187|183:221,1,67.500000257492,10|8,0:0|0:3,0:0:0:0:
109,247,79509,6,0,P|181:247|230:291,1,135.000000514984,10|10,0:3|0:0,0:0:0:0:
272,373,80071,1,8,0:3:0:0:
272,373,80165,1,8,0:3:0:0:
272,373,80259,2,0,L|357:385,1,67.500000257492,8|8,0:0|0:3,0:0:0:0:
413,328,80634,1,8,0:0:0:0:
280,174,81009,6,0,P|260:121|260:87,1,67.500000257492,10|8,0:3|0:3,0:0:0:0:
312,39,81384,2,0,P|367:47|396:64,1,67.500000257492,10|8,0:0|0:3,0:0:0:0:
377,52,81665,1,8,0:3:0:0:
377,52,81759,1,10,0:0:0:0:
465,24,81946,1,8,0:3:0:0:
512,97,82134,1,10,0:0:0:0:
367,239,82509,6,0,B|364:222|364:222|376:190,7,33.750000128746,10|8|8|8|8|8|8|8,0:3|0:0|0:0|0:0|0:0|0:0|0:0|0:3,0:0:0:0:
367,239,83259,1,10,0:0:0:0:
329,310,83446,1,8,0:3:0:0:
260,351,83634,1,10,0:0:0:0:
180,361,83821,1,8,0:3:0:0:
100,345,84009,6,0,B|82:343|82:343|67:351,7,33.750000128746,10|8|8|8|10|8|8|8,0:3|0:0|0:0|0:0|0:0|0:0|0:0|0:3,0:0:0:0:
68,350,84759,2,0,L|56:264,1,67.500000257492,10|8,0:0|0:3,0:0:0:0:
73,266,85040,1,8,0:3:0:0:
73,266,85134,2,0,L|60:179,1,67.500000257492,10|8,0:0|0:3,0:0:0:0:
47,102,85509,6,0,L|-24:87,2,67.500000257492,10|8|10,0:3|0:3|0:0,0:0:0:0:
127,55,86071,1,8,0:3:0:0:
127,55,86165,1,8,0:3:0:0:
127,55,86259,2,0,P|193:27|280:40,1,135.000000514984,10|10,0:0|0:0,0:0:0:0:
333,74,86821,1,8,0:3:0:0:
414,35,87009,6,0,B|434:29|434:29|456:37,7,33.750000128746,10|8|8|8|10|8|8|8,0:3|0:0|0:0|0:0|0:0|0:0|0:0|0:3,0:0:0:0:
446,33,87759,2,0,P|475:78|476:113,1,67.500000257492,10|8,0:0|0:3,0:0:0:0:
464,115,88040,1,8,0:3:0:0:
464,115,88134,2,0,L|450:194,1,67.500000257492,10|8,0:0|0:3,0:0:0:0:
496,264,88509,5,10,0:3:0:0:
419,291,88696,1,8,0:3:0:0:
375,364,88884,2,0,L|294:351,1,67.500000257492,10|8,0:0|0:3,0:0:0:0:
292,371,89165,1,8,0:3:0:0:
292,371,89259,2,0,L|206:357,1,67.500000257492,10|8,0:0|0:3,0:0:0:0:
207,372,89540,1,8,0:3:0:0:
207,372,89634,1,10,0:0:0:0:
121,358,89821,1,8,0:3:0:0:
81,279,90009,6,0,B|91:262|91:262|86:232,7,33.750000128746,10|8|8|8|10|8|8|8,0:3|0:0|0:0|0:0|0:0|0:0|0:0|0:3,0:0:0:0:
88,248,90759,2,0,L|176:237,1,67.500000257492,10|8,0:0|0:3,0:0:0:0:
179,252,91040,1,8,0:3:0:0:
179,252,91134,2,0,P|195:194|191:159,1,67.500000257492,10|8,0:0|0:3,0:0:0:0:
136,108,91509,6,0,L|-10:85,1,135.000000514984,10|10,0:3|0:0,0:0:0:0:
89,16,92071,1,8,0:3:0:0:
89,16,92165,1,8,0:3:0:0:
89,16,92259,2,0,L|163:1,1,67.500000257492,10|8,0:0|0:3,0:0:0:0:
180,22,92540,1,8,0:3:0:0:
180,22,92634,2,0,L|246:35,1,67.500000257492,10|8,0:0|0:3,0:0:0:0:
343,12,93009,6,0,P|378:42|393:84,1,67.500000257492,10|8,0:3|0:3,0:0:0:0:
355,139,93384,2,0,P|320:169|305:211,1,67.500000257492,10|8,0:0|0:3,0:0:0:0:
332,215,93665,1,8,0:3:0:0:
332,215,93759,2,0,L|347:287,1,67.500000257492,10|8,0:0|0:3,0:0:0:0:
262,329,94134,2,0,L|247:257,1,67.500000257492,10|8,0:0|0:3,0:0:0:0:
177,212,94509,6,0,B|109:220|88:291|109:285|98:355|26:365,2,230.000004386902,10|10|2,0:3|0:3|0:0,0:0:0:0:
229,135,108009,6,0,L|336:151,1,89.999997253418,2|2,0:0|0:0,0:0:0:0:
283,249,108759,2,0,L|176:233,1,89.999997253418,2|2,0:0|0:0,0:0:0:0:
194,236,109509,6,0,P|244:249|287:263,1,89.999997253418,2|2,0:0|0:0,0:0:0:0:
318,148,110259,2,0,P|268:135|224:120,1,89.999997253418,2|2,0:0|0:0,0:0:0:0:
231,123,111009,6,0,P|310:118|336:106,1,89.999997253418,2|2,0:0|0:0,0:0:0:0:
281,261,111759,2,0,P|202:266|176:278,1,89.999997253418,2|2,0:0|0:0,0:0:0:0:
192,269,112509,6,0,P|255:293|279:314,1,89.999997253418,2|2,0:0|0:0,0:0:0:0:
320,115,113259,2,0,P|257:91|233:70,1,89.999997253418,2|2,0:0|0:0,0:0:0:0:
31,52,114009,6,0,L|59:142,1,89.999997253418,2|2,0:0|0:0,0:0:0:0:
21,235,114759,2,0,L|49:325,1,89.999997253418,2|2,0:0|0:0,0:0:0:0:
119,17,115509,6,0,P|141:68|151:108,1,89.999997253418,2|2,0:0|0:0,0:0:0:0:
104,212,116259,2,0,P|116:255|134:296,1,89.999997253418,2|2,0:0|0:0,0:0:0:0:
255,7,117009,6,0,P|278:50|283:100,1,89.999997253418,2|2,0:0|0:0,0:0:0:0:
214,223,117759,2,0,P|220:267|247:318,1,99.9999999999999,2|2,0:0|0:0,0:0:0:0:
421,17,118509,6,0,P|449:57|444:132,1,110.000003356934,2|2,0:0|0:0,0:0:0:0:
323,242,119259,2,0,P|341:292|353:304,1,55.0000016784668,2|2,0:0|0:0,0:0:0:0:
415,267,119634,2,0,P|397:217|385:205,1,55.0000016784668,2|2,0:0|0:0,0:0:0:0:
292,162,120009,6,0,P|226:181|191:249,1,129.999994049072,10|2,0:3|0:0,0:0:0:0:
110,64,120759,2,0,P|87:124|100:187,1,129.999994049072,2|2,0:0|0:0,0:0:0:0:
320,339,121509,2,0,P|325:238|186:239,1,259.999988098145,2|10,0:0|0:0,0:0:0:0:
151,293,122446,1,2,0:0:0:0:
76,272,122634,1,10,0:3:0:0:
71,195,122821,1,2,0:0:0:0:
143,171,123009,6,0,L|174:36,1,129.999994049072,10|2,0:3|0:0,0:0:0:0:
221,231,123759,2,0,L|323:138,1,129.999994049072,2|0,0:0|0:0,0:0:0:0:
390,247,124321,1,8,0:3:0:0:
327,304,124509,2,0,L|260:316,1,64.9999970245362,10|10,0:0|0:0,0:0:0:0:
287,102,125071,1,8,0:3:0:0:
268,184,125259,2,0,L|221:232,1,64.9999970245362,10|10,0:0|0:0,0:0:0:0:
151,124,125634,2,0,L|140:190,1,64.9999970245362,10|8,0:3|0:3,0:0:0:0:
56,221,126009,6,0,P|12:174|3:90,1,129.999994049072,10|2,0:3|0:0,0:0:0:0:
120,353,126759,2,0,P|150:308|247:294,1,129.999994049072,10|10,0:0|0:3,0:0:0:0:
467,216,127509,2,0,P|421:260|325:140,1,259.999988098145,10|10,0:3|0:0,0:0:0:0:
360,85,128446,1,2,0:0:0:0:
316,24,128634,1,10,0:3:0:0:
245,50,128821,1,2,0:0:0:0:
247,125,129009,6,0,L|103:147,1,129.999994049072,10|2,0:3|0:0,0:0:0:0:
301,207,129759,2,0,L|204:301,1,119.999996337891,10|2,0:3|0:0,0:0:0:0:
403,237,130509,2,0,L|376:362,1,125,10|0,0:3|0:0,0:0:0:0:
387,375,131071,6,0,L|414:366,3,16.6666666666667,8|8|8|10,0:3|0:3|0:3|0:0,0:0:0:0:
508,286,131634,2,0,L|489:384,1,99.9999999999999,8|0,0:0|0:0,0:0:0:0:
400,93,132384,6,0,L|413:148,1,50,2|0,0:0|0:0,0:0:0:0:
370,73,132759,2,0,L|353:127,1,50,0|2,0:0|0:0,0:0:0:0:
349,41,133134,2,0,L|307:79,1,50,0|2,0:0|0:0,0:0:0:0:
203,182,133884,6,0,L|137:170,1,53.4999983673096,2|0,0:0|0:0,0:0:0:0:
208,218,134259,2,0,L|150:251,1,53.4999983673096,0|2,0:0|0:0,0:0:0:0:
236,242,134634,2,0,L|213:305,1,53.4999983673096,0|2,0:0|0:0,0:0:0:0:
54,318,135384,6,0,P|41:285|32:247,1,57.5000010967254,2|0,0:0|0:0,0:0:0:0:
70,238,135759,2,0,P|86:206|110:175,1,57.5000010967254,0|2,0:0|0:0,0:0:0:0:
142,207,136134,2,0,P|176:199|215:197,1,57.5000010967254,0|2,0:0|0:0,0:0:0:0:
385,264,136696,5,2,0:0:0:0:
473,71,137071,1,2,0:0:0:0:
461,235,137446,5,2,0:0:0:0:
429,167,137634,1,2,0:0:0:0:
396,101,137821,1,2,0:0:0:0:
415,175,138009,5,2,0:0:0:0:
268,80,138384,6,0,L|251:7,1,61.5000009384155,2|2,0:0|0:0,0:0:0:0:
217,136,138759,2,0,L|238:64,1,61.5000009384155,2|2,0:0|0:0,0:0:0:0:
146,167,139134,2,0,L|200:115,1,61.5000009384155,0|2,0:0|0:0,0:0:0:0:
21,250,139696,5,2,0:0:0:0:
245,226,140071,1,2,0:0:0:0:
85,326,140446,5,2,0:0:0:0:
178,151,140821,1,2,0:0:0:0:
126,234,141009,5,2,0:0:0:0:
136,225,141384,5,2,0:0:0:0:
118,227,141759,5,2,0:0:0:0:
130,240,142134,5,2,0:0:0:0:
121,241,142509,5,2,0:0:0:0:
126,230,142884,5,2,0:0:0:0:
101,97,143259,5,2,0:0:0:0:
158,380,143634,1,2,0:0:0:0:
101,97,144009,1,10,0:3:0:0:
207,132,144384,6,0,L|296:115,1,67.500000257492,10|2,0:3|0:0,0:0:0:0:
321,45,144759,1,10,0:3:0:0:
321,45,144946,2,0,L|299:133,1,67.500000257492,2|8,0:0|0:0,0:0:0:0:
339,192,145321,2,0,L|279:123,1,67.500000257492,2|8,0:0|0:3,0:0:0:0:
273,286,145884,6,0,L|361:305,1,67.500000257492,10|2,0:3|0:0,0:0:0:0:
465,340,146259,1,10,0:0:0:0:
396,378,146446,2,0,L|368:291,1,67.500000257492,2|8,0:0|0:3,0:0:0:0:
415,228,146821,2,0,L|354:295,1,67.500000257492,2|8,0:0|0:3,0:0:0:0:
208,189,147384,6,0,P|173:181|120:175,1,69.9999978637695,10|2,0:3|0:0,0:0:0:0:
19,218,147759,1,10,0:3:0:0:
78,279,147946,2,0,P|102:252|134:209,1,69.9999978637695,2|8,0:0|0:0,0:0:0:0:
71,122,148321,2,0,P|81:156|102:205,1,69.9999978637695,2|8,0:0|0:3,0:0:0:0:
208,189,148696,2,0,P|173:181|120:175,1,69.9999978637695,2|8,0:0|0:3,0:0:0:0:
208,285,149071,6,0,P|242:280|277:273,1,69.9999978637695,2|8,0:0|0:0,0:0:0:0:
361,221,149446,1,2,0:0:0:0:
391,135,149634,1,10,0:3:0:0:
376,57,149821,1,2,0:0:0:0:
326,0,150009,6,0,L|276:10,7,34.9999989318848,10|8|10|8|10|8|10|8,0:3|0:0|0:0|0:0|0:3|0:0|0:0|0:0,0:0:0:0:
259,37,150759,2,0,L|209:47,6,34.9999989318848,10|8|10|8|8|8|10,0:3|0:0|0:0|0:0|0:3|0:0|0:0,0:0:0:0:
79,109,151509,2,0,L|129:119,7,34.9999989318848,8|8|10|8|8|8|10|8,0:3|0:0|0:0|0:0|0:3|0:0|0:0|0:0,0:0:0:0:
137,146,152259,2,0,L|187:156,7,34.9999989318848,8|8|10|8|8|8|10|8,0:3|0:0|0:0|0:0|0:3|0:0|0:0|0:0,0:0:0:0:
256,192,153009,12,10,155259,0:3:0:0:
58,336,155821,6,0,P|46:320|48:289,1,34.9999989318848,10|0,0:0|0:0,0:0:0:0:
58,269,156009,6,0,B|98:262|98:262|156:307,1,79.9999999999999,14|0,0:3|0:0,0:0:0:0:
163,313,156290,1,2,0:0:0:0:
163,313,156384,2,0,L|253:289,1,79.9999999999999,14|0,0:3|0:0,0:0:0:0:
342,265,156759,2,0,P|408:275|475:372,1,160,10|2,0:0|0:0,0:0:0:0:
468,341,157321,6,0,L|490:232,2,99.9999999999999,2|2|2,0:0|0:0|0:0,0:0:0:0:
503,233,158259,2,0,L|490:156,1,64.9999970245362,10|0,0:0|0:0,0:0:0:0:
469,35,158634,1,2,0:0:0:0:
469,35,159009,6,0,P|445:65|411:82,1,77.500000591278,10|0,0:3|0:0,0:0:0:0:
300,50,159384,2,0,P|342:69|372:167,1,155.000001182556,10|10,0:3|0:0,0:0:0:0:
141,52,160134,5,10,0:3:0:0:
218,92,160321,2,0,P|228:129|235:167,1,77.500000591278,2|0,0:0|0:0,0:0:0:0:
148,269,160696,2,0,P|154:230|156:192,1,77.500000591278,2|8,0:0|0:3,0:0:0:0:
89,128,161071,2,0,P|78:165|61:199,1,77.500000591278,2|8,0:0|0:0,0:0:0:0:
0,276,161446,1,2,0:0:0:0:
68,312,161634,1,10,0:3:0:0:
127,366,161821,1,2,0:0:0:0:
193,301,162009,6,0,P|226:282|264:276,1,77.500000591278,10|0,0:3|0:0,0:0:0:0:
345,329,162384,2,0,P|297:243|302:152,1,155.000001182556,10|10,0:3|0:0,0:0:0:0:
427,44,163134,5,10,0:3:0:0:
375,119,163321,2,0,L|477:134,1,77.500000591278,10|0,0:0|0:0,0:0:0:0:
295,189,163696,2,0,L|276:86,1,77.500000591278,2|8,0:0|0:3,0:0:0:0:
388,211,164071,1,2,0:0:0:0:
388,211,164259,2,0,L|490:226,1,77.500000591278,10|2,0:0|0:0,0:0:0:0:
315,282,164634,2,0,L|299:192,1,77.500000591278,10|10,0:0|0:3,0:0:0:0:
280,96,165009,6,0,P|225:41|151:23,2,155.000001182556,10|10|10,0:3|0:3|0:0,0:0:0:0:
219,165,165946,2,0,P|177:169|124:210,1,77.500000591278,2|10,0:0|0:3,0:0:0:0:
71,229,166321,6,0,L|57:160,1,62.4999999999999,2|8,0:0|0:3,0:0:0:0:
86,86,166696,1,2,0:0:0:0:
86,86,167071,2,0,L|54:278,1,187.5,2|2,0:0|0:0,0:0:0:0:
55,270,168196,5,10,0:3:0:0:
31,174,168384,1,10,0:3:0:0:
86,86,168571,1,10,0:3:0:0:
109,187,168759,6,0,P|145:202|208:200,1,77.500000591278,14|0,0:0|0:0,0:0:0:0:
229,133,169134,2,0,P|291:92|374:101,1,155.000001182556,10|10,0:3|0:3,0:0:0:0:
413,179,169696,5,2,0:0:0:0:
413,179,169884,2,0,L|502:194,1,77.500000591278,10|0,0:3|0:0,0:0:0:0:
437,269,170259,2,0,L|273:290,2,155.000001182556,10|10|10,0:0|0:3|0:3,0:0:0:0:
219,346,171384,6,0,P|200:312|196:274,1,77.500000591278,10|0,0:3|0:0,0:0:0:0:
200,153,171759,2,0,P|180:186|148:208,1,77.500000591278,10|0,0:0|0:0,0:0:0:0:
59,192,172134,2,0,P|40:158|36:120,1,77.500000591278,10|0,0:3|0:0,0:0:0:0:
93,52,172509,5,2,0:0:0:0:
176,66,172696,1,2,0:0:0:0:
121,131,172884,1,10,0:3:0:0:
291,16,173259,6,0,L|373:-2,1,77.500000591278,10|0,0:0|0:0,0:0:0:0:
462,62,173634,2,0,L|387:78,1,77.500000591278,10|0,0:3|0:0,0:0:0:0:
277,127,174009,6,0,P|255:177|258:219,1,77.500000591278,10|0,0:3|0:0,0:0:0:0:
331,246,174384,2,0,P|389:208|486:206,2,155.000001182556,10|10|10,0:3|0:0|0:3,0:0:0:0:
268,305,175321,6,0,L|281:381,1,77.500000591278,2|8,0:0|0:3,0:0:0:0:
180,299,175696,2,0,L|167:223,1,77.500000591278,10|10,0:3|0:3,0:0:0:0:
95,301,176071,1,2,0:0:0:0:
95,301,176259,2,0,L|108:377,1,77.500000591278,10|0,0:0|0:0,0:0:0:0:
11,270,176634,2,0,P|18:232|37:198,1,77.500000591278,10|10,0:3|0:3,0:0:0:0:
120,162,177009,6,0,P|172:139|234:47,2,155.000001182556,10|10|10,0:3|0:3|0:0,0:0:0:0:
53,101,177946,1,0,0:0:0:0:
130,61,178134,1,10,0:3:0:0:
55,14,178321,6,0,L|-12:5,1,62.4999999999999,2|8,0:0|0:3,0:0:0:0:
53,101,178696,2,0,L|-22:92,1,62.4999999999999,2|8,0:0|0:3,0:0:0:0:
130,61,179071,2,0,B|221:217|84:207|188:385,1,312.5,2|2,0:0|0:0,0:0:0:0:
