osu file format v14

[General]
AudioFilename: Giga.mp3
AudioLeadIn: 0
PreviewTime: 155915
Countdown: 0
SampleSet: Soft
StackLeniency: 0.7
Mode: 0
LetterboxInBreaks: 0
WidescreenStoryboard: 0

[Editor]
Bookmarks: 95997,119997
DistanceSpacing: 1
BeatDivisor: 4
GridSize: 32
TimelineZoom: 2.250001

[Metadata]
Title:Giga
TitleUnicode:Giga
Artist:2ToneDisco x Kabuki
ArtistUnicode:2ToneDisco x Kabuki
Creator:Hazu-
Version:Normal
Source:osu!
Tags:pishifat with friends 1st first album debut electronic instrumental fa featured artist mg mappers' guild
BeatmapID:2952094
BeatmapSetID:1392421

[Difficulty]
HPDrainRate:4
CircleSize:3.5
OverallDifficulty:4
ApproachRate:5.5
SliderMultiplier:1.2
SliderTickRate:1

[Events]
//Background and Video events
0,0,"Giga.jpg",0,0
//Break Periods
2,96208,118884
2,132209,142884
//Storyboard Layer 0 (Background)
//Storyboard Layer 1 (Fail)
//Storyboard Layer 2 (Pass)
//Storyboard Layer 3 (Foreground)
//Storyboard Layer 4 (Overlay)
//Storyboard Sound Samples

[TimingPoints]
9,375,4,2,2,30,1,0
12009,-100,4,2,2,30,0,0
18009,-100,4,2,2,35,0,0
19509,-100,4,2,2,40,0,0
21009,-100,4,2,2,30,0,0
21665,-100,4,2,2,45,0,0
22509,-100,4,2,1,50,0,0
24009,-100,4,2,1,70,0,0
24290,-100,4,2,1,5,0,0
24384,-100,4,2,1,70,0,0
24759,-100,4,2,1,70,0,0
24946,-100,4,2,1,5,0,0
25040,-100,4,2,1,70,0,0
25227,-100,4,2,1,5,0,0
25321,-100,4,2,1,70,0,0
25509,-100,4,2,1,70,0,0
25790,-100,4,2,1,5,0,0
25884,-100,4,2,1,70,0,0
26259,-100,4,2,1,70,0,0
27009,-100,4,2,1,70,0,0
27290,-100,4,2,1,5,0,0
27384,-100,4,2,1,70,0,0
28040,-100,4,2,1,5,0,0
28134,-100,4,2,1,70,0,0
30290,-100,4,2,1,5,0,0
30384,-100,4,2,1,70,0,0
30571,-100,4,2,1,40,0,0
30759,-100,4,2,1,70,0,0
30946,-100,4,2,1,5,0,0
31040,-100,4,2,1,70,0,0
31227,-100,4,2,1,5,0,0
31321,-100,4,2,1,70,0,0
31509,-100,4,2,1,70,0,0
32259,-100,4,2,1,70,0,0
33009,-100,4,2,1,70,0,0
33290,-100,4,2,1,5,0,0
33384,-100,4,2,1,70,0,0
33759,-100,4,2,1,70,0,0
34040,-100,4,2,1,5,0,0
34134,-100,4,2,1,70,0,0
34321,-100,4,2,1,40,0,0
34509,-100,4,2,1,70,0,0
36009,-100,4,2,1,60,0,0
46509,-100,4,2,1,50,0,0
48009,-100,4,2,2,80,0,1
58321,-100,4,2,1,60,0,0
58696,-100,4,2,1,60,0,0
58977,-100,4,2,1,5,0,0
59071,-100,4,2,1,60,0,0
59540,-100,4,2,1,5,0,0
59634,-100,4,2,1,60,0,0
60009,-100,4,2,1,30,0,0
60196,-100,4,2,1,50,0,0
60759,-100,4,2,2,80,0,1
70509,-100,4,2,2,65,0,0
71915,-100,4,2,2,5,0,0
72009,-100,4,2,2,60,0,0
94509,-100,4,2,2,50,0,0
95259,-100,4,2,2,40,0,0
96009,-100,4,2,2,40,0,0
120009,-100,4,2,1,60,0,0
132009,-100,4,2,1,40,0,0
144009,-100,4,2,1,60,0,0
156009,-100,4,2,2,80,0,1
157134,-100,4,2,2,50,0,0
159009,-100,4,2,2,80,0,1
166321,-100,4,2,1,60,0,0
166696,-100,4,2,1,60,0,0
166977,-100,4,2,1,5,0,0
167071,-100,4,2,1,60,0,0
167540,-100,4,2,1,5,0,0
167634,-100,4,2,1,60,0,0
168196,-100,4,2,1,50,0,0
168759,-100,4,2,2,80,0,1
178509,-100,4,2,2,65,0,1
180009,-100,4,2,2,50,0,0

[Colours]
Combo1 : 224,157,247
Combo2 : 106,199,234
Combo3 : 255,98,255
Combo4 : 114,152,224

[HitObjects]
63,217,12009,6,0,P|121:210|179:258,1,120,2|2,0:0|0:0,0:0:0:0:
260,321,12759,2,0,P|318:328|376:280,1,120,10|10,0:0|0:0,0:0:0:0:
426,190,13509,1,2,0:0:0:0:
318,136,13884,2,0,P|304:62|287:-14,2,120,2|10|10,0:0|0:0|0:0,0:0:0:0:
426,190,15009,6,0,P|465:236|424:347,1,180,10|8,0:0|0:0,0:0:0:0:
392,354,15759,1,10,0:0:0:0:
294,284,16134,1,10,0:0:0:0:
185,334,16509,2,0,P|125:325|58:315,1,120,2|2,0:0|0:0,0:0:0:0:
44,197,17259,2,0,P|104:206|171:216,1,120,10|10,0:0|0:0,0:0:0:0:
271,163,18009,6,0,B|363:146|350:243|444:223,1,180,10|8,0:0|0:0,0:0:0:0:
461,195,18759,1,10,0:0:0:0:
510,85,19134,1,10,0:0:0:0:
407,22,19509,2,0,P|324:29|310:138,1,180,10|8,0:0|0:0,0:0:0:0:
323,143,20259,1,10,0:0:0:0:
211,186,20634,1,10,0:0:0:0:
108,123,21009,6,0,P|118:65|130:-4,2,120,2|2|10,0:0|0:0|0:0,0:0:0:0:
25,210,22134,2,0,P|2:274|39:335,1,120,10|2,0:0|0:0,0:0:0:0:
59,336,22696,1,8,0:0:0:0:
59,336,22884,2,0,P|92:332|137:326,1,60,10|8,0:0|0:3,0:0:0:0:
157,345,23259,1,10,0:0:0:0:
238,256,23634,2,0,P|271:252|316:246,1,60,10|10,0:0|0:0,0:0:0:0:
332,272,24009,6,0,P|410:281|449:247,1,120,10|8,0:3|0:0,0:0:0:0:
419,140,24759,2,0,P|481:149|518:155,2,90,10|10|10,0:3|0:3|0:3,0:0:0:0:
394,105,25509,2,0,P|316:96|277:130,1,120,10|8,0:3|0:0,0:0:0:0:
235,227,26259,2,0,P|243:271|256:341,2,90,10|10|10,0:3|0:3|0:3,0:0:0:0:
200,202,27009,5,10,0:3:0:0:
96,262,27384,2,0,B|65:264|65:264|27:240,1,60,10|8,0:0|0:3,0:0:0:0:
27,208,27759,1,10,0:3:0:0:
89,105,28134,2,0,B|120:103|120:103|158:127,1,60,8|8,0:0|0:3,0:0:0:0:
158,159,28509,1,10,0:3:0:0:
240,72,28884,1,10,0:0:0:0:
319,161,29259,1,10,0:3:0:0:
401,74,29634,1,10,0:0:0:0:
488,155,30009,6,0,P|477:214|461:296,1,120,10|8,0:3|0:0,0:0:0:0:
426,288,30571,1,8,0:3:0:0:
426,288,30759,2,0,P|435:339|444:394,2,90,10|10|8,0:0|0:0|0:3,0:0:0:0:
389,266,31509,2,0,P|348:258|313:250,1,60,10|8,0:3|0:0,0:0:0:0:
293,274,31884,1,8,0:0:0:0:
221,177,32259,2,0,P|180:169|145:161,1,60,10|8,0:3|0:0,0:0:0:0:
125,185,32634,2,0,P|84:177|49:169,1,60,8|10,0:0|0:3,0:0:0:0:
26,188,33009,5,10,0:3:0:0:
76,297,33384,2,0,P|117:305|152:313,1,60,10|8,0:3|0:3,0:0:0:0:
156,345,33759,1,10,0:3:0:0:
241,261,34134,2,0,B|269:249|269:249|299:261,1,60,10|8,0:3|0:3,0:0:0:0:
319,294,34509,1,10,0:3:0:0:
436,267,34884,1,10,0:3:0:0:
475,153,35259,1,10,0:0:0:0:
436,39,35634,1,10,0:0:0:0:
319,12,36009,6,0,P|328:64|343:146,1,120,10|10,0:3|0:3,0:0:0:0:
305,154,36571,2,0,P|299:191|293:229,1,60,2|10,0:0|0:3,0:0:0:0:
329,238,36946,1,2,0:0:0:0:
227,302,37321,1,2,0:0:0:0:
154,142,37884,1,10,0:3:0:0:
154,142,38071,2,0,B|184:128|184:128|228:143,1,60,2|10,0:0|0:0,0:0:0:0:
236,168,38446,1,2,0:0:0:0:
327,90,38821,5,2,0:0:0:0:
166,20,39384,1,10,0:3:0:0:
166,20,39571,2,0,P|137:25|92:35,1,60,2|10,0:0|0:3,0:0:0:0:
81,64,39946,1,2,0:0:0:0:
166,148,40321,2,0,P|157:204|143:285,2,120,2|2|2,0:0|0:0|0:0,0:0:0:0:
257,69,41446,1,2,0:0:0:0:
257,69,41634,2,0,P|265:117|274:158,1,60,10|2,0:3|0:0,0:0:0:0:
301,152,42009,5,10,0:0:0:0:
385,67,42384,1,10,0:3:0:0:
385,67,42571,2,0,P|419:62|470:53,1,60,10|10,0:0|0:3,0:0:0:0:
478,81,42946,1,10,0:0:0:0:
416,184,43321,1,10,0:0:0:0:
309,128,43696,2,0,P|275:123|172:109,1,120,10|10,0:0|0:0,0:0:0:0:
89,46,44446,1,10,0:0:0:0:
15,140,44821,5,10,0:0:0:0:
15,140,45009,2,0,P|29:206|44:280,1,120,10|10,0:0|0:0,0:0:0:0:
136,187,45759,2,0,P|150:253|165:327,1,120,10|10,0:0|0:0,0:0:0:0:
256,233,46509,2,0,P|270:299|285:373,1,120,10|10,0:0|0:0,0:0:0:0:
384,290,47259,1,8,0:3:0:0:
197,138,48009,6,0,P|140:138|99:198,2,120,14|10|10,0:3|0:3|0:0,0:0:0:0:
310,190,49134,1,10,0:3:0:0:
310,190,49321,2,0,P|378:180|458:167,1,120,2|2,0:0|0:0,0:0:0:0:
512,264,50071,1,2,0:0:0:0:
512,264,50259,1,10,0:0:0:0:
425,346,50634,2,0,B|396:352|396:352|358:334,1,60,10|8,0:3|0:3,0:0:0:0:
344,304,51009,5,10,0:3:0:0:
232,349,51384,1,10,0:3:0:0:
149,261,51759,2,0,P|101:268|13:280,1,120,10|10,0:0|0:3,0:0:0:0:
5,244,52321,1,2,0:0:0:0:
62,138,52696,2,0,P|110:131|198:119,1,120,2|2,0:0|0:0,0:0:0:0:
284,191,53446,1,2,0:0:0:0:
284,191,53634,2,0,P|278:225|270:260,1,60,10|2,0:3|0:0,0:0:0:0:
300,281,54009,5,10,0:3:0:0:
394,207,54384,1,10,0:3:0:0:
330,105,54759,2,0,P|271:91|213:131,1,120,10|10,0:0|0:3,0:0:0:0:
197,153,55321,1,2,0:0:0:0:
94,91,55696,1,2,0:0:0:0:
37,198,56071,1,2,0:0:0:0:
37,198,56259,1,10,0:0:0:0:
139,259,56634,2,0,P|186:251|230:242,1,60,10|10,0:3|0:3,0:0:0:0:
237,263,57009,5,10,0:3:0:0:
186,154,57384,1,10,0:3:0:0:
257,57,57759,1,10,0:0:0:0:
257,57,57946,2,0,P|323:47|395:35,1,120,2|2,0:0|0:0,0:0:0:0:
475,105,58696,1,2,0:0:0:0:
361,142,59071,2,0,B|325:234|420:217|384:328,2,180,2|2|8,0:0|0:0|0:3,0:0:0:0:
397,121,60384,2,0,P|405:99|395:52,1,60,10|8,0:3|0:3,0:0:0:0:
367,37,60759,5,14,0:0:0:0:
252,72,61134,2,0,P|194:63|114:52,1,120,10|10,0:3|0:3,0:0:0:0:
99,77,61696,1,2,0:0:0:0:
99,77,61884,1,10,0:3:0:0:
10,157,62259,1,10,0:0:0:0:
102,233,62634,2,0,P|160:224|240:213,1,120,10|10,0:3|0:3,0:0:0:0:
263,236,63196,5,2,0:0:0:0:
263,236,63384,1,10,0:3:0:0:
333,138,63759,1,10,0:0:0:0:
435,200,64134,2,0,P|468:261|445:329,1,120,10|2,0:3|0:0,0:0:0:0:
428,336,64696,1,2,0:0:0:0:
428,336,64884,2,0,P|362:327|287:316,1,120,10|10,0:3|0:0,0:0:0:0:
199,368,65634,1,10,0:3:0:0:
130,269,66009,6,0,P|143:212|161:133,2,120,10|10|10,0:3|0:3|0:0,0:0:0:0:
15,296,67134,1,10,0:3:0:0:
15,296,67321,2,0,P|28:239|46:160,1,120,2|10,0:0|0:3,0:0:0:0:
135,104,68071,1,2,0:0:0:0:
135,104,68259,1,10,0:0:0:0:
208,198,68634,2,0,P|199:234|191:269,1,60,10|8,0:3|0:3,0:0:0:0:
161,283,69009,5,10,0:3:0:0:
255,356,69384,1,10,0:3:0:0:
342,273,69759,2,0,P|420:262|472:254,1,120,10|10,0:0|0:3,0:0:0:0:
492,283,70321,1,2,0:0:0:0:
505,163,70696,1,2,0:0:0:0:
412,86,71071,2,0,P|316:77|283:166,1,180,2|0,0:0|0:0,0:0:0:0:
360,230,72009,6,0,P|417:223|486:212,2,120,14|10|10,0:3|0:0|0:0,0:0:0:0:
270,309,73134,1,10,0:0:0:0:
190,219,73509,2,0,P|144:208|73:248,1,120,10|10,0:3|0:0,0:0:0:0:
103,355,74259,2,0,P|149:366|220:326,1,120,10|10,0:0|0:0,0:0:0:0:
280,236,75009,5,10,0:3:0:0:
178,171,75384,2,0,P|190:107|201:39,1,120,10|10,0:0|0:0,0:0:0:0:
312,12,76134,1,10,0:0:0:0:
408,83,76509,2,0,P|396:147|385:215,1,120,10|10,0:3|0:0,0:0:0:0:
492,259,77259,2,0,P|504:323|515:391,1,120,10|10,0:0|0:0,0:0:0:0:
393,362,78009,6,0,P|329:284|241:314,1,180,10|8,0:3|0:0,0:0:0:0:
233,328,78759,1,10,0:0:0:0:
121,373,79134,1,10,0:0:0:0:
22,305,79509,2,0,P|13:227|48:179,1,120,10|10,0:3|0:0,0:0:0:0:
143,147,80259,2,0,P|216:162|270:172,1,120,8|8,0:0|0:0,0:0:0:0:
358,239,81009,6,0,P|374:307|390:371,2,120,10|10|10,0:3|0:0|0:0,0:0:0:0:
427,140,82134,1,10,0:0:0:0:
329,70,82509,2,0,B|233:51|260:145|144:114,1,180,10|8,0:3|0:0,0:0:0:0:
135,87,83259,1,10,0:0:0:0:
32,150,83634,1,10,0:0:0:0:
101,248,84009,6,0,B|183:238|183:238|208:248|208:248|303:236,1,180,10|8,0:3|0:0,0:0:0:0:
309,211,84759,1,10,0:0:0:0:
382,116,85134,1,10,0:0:0:0:
487,174,85509,2,0,P|473:244|457:321,1,120,10|10,0:3|0:0,0:0:0:0:
379,378,86259,2,0,P|365:308|349:231,1,120,10|10,0:0|0:0,0:0:0:0:
265,179,87009,6,0,B|131:153|131:153|72:186,1,180,10|8,0:3|0:0,0:0:0:0:
73,211,87759,1,10,0:0:0:0:
5,112,88134,1,10,0:0:0:0:
99,37,88509,2,0,P|159:46|246:58,1,120,10|10,0:3|0:0,0:0:0:0:
261,166,89259,2,0,P|201:157|113:141,1,120,10|10,0:0|0:0,0:0:0:0:
71,243,90009,6,0,P|131:252|289:277,1,180,10|8,0:3|0:0,0:0:0:0:
285,249,90759,1,10,0:0:0:0:
224,145,91134,1,10,0:0:0:0:
323,78,91509,2,0,P|395:73|441:117,1,120,10|10,0:3|0:0,0:0:0:0:
492,203,92259,2,0,P|475:283|462:345,1,120,10|10,0:0|0:0,0:0:0:0:
360,375,93009,6,0,P|343:295|330:233,1,120,10|10,0:3|0:0,0:0:0:0:
230,199,93759,1,10,0:0:0:0:
315,114,94134,1,10,0:0:0:0:
210,54,94509,2,0,B|146:29|97:77|122:98|78:157|-1:125,2,240,10|10|2,0:3|0:3|0:0,0:0:0:0:
210,54,120009,6,0,P|147:68|82:80,1,120,10|2,0:3|0:0,0:0:0:0:
4,160,120759,2,0,P|62:171|121:184,1,120,2|2,0:0|0:0,0:0:0:0:
220,252,121509,2,0,P|274:152|407:188,1,240,2|10,0:0|0:0,0:0:0:0:
465,254,122634,1,10,0:3:0:0:
407,359,123009,6,0,P|346:351|269:342,1,120,10|2,0:3|0:0,0:0:0:0:
172,376,123759,2,0,P|111:368|34:359,1,120,2|0,0:0|0:0,0:0:0:0:
33,330,124321,1,8,0:3:0:0:
33,330,124509,2,0,P|43:269|45:252,1,60,10|10,0:0|0:0,0:0:0:0:
134,193,125071,1,8,0:3:0:0:
134,193,125259,2,0,P|144:254|146:270,1,60,10|10,0:0|0:0,0:0:0:0:
181,271,125634,1,10,0:3:0:0:
270,191,126009,6,0,P|353:180|423:169,1,120,10|2,0:3|0:0,0:0:0:0:
463,80,126759,2,0,P|380:69|310:58,1,120,10|10,0:0|0:3,0:0:0:0:
234,14,127509,2,0,B|247:89|247:89|216:155|216:155|235:264,1,240,10|10,0:3|0:0,0:0:0:0:
143,326,128634,1,10,0:3:0:0:
34,275,129009,6,0,P|20:204|5:127,1,120,10|2,0:3|0:0,0:0:0:0:
109,88,129759,2,0,P|123:159|137:235,1,120,10|2,0:3|0:0,0:0:0:0:
220,287,130509,2,0,P|318:299|375:226,1,180,10|8,0:3|0:3,0:0:0:0:
372,203,131259,1,10,0:0:0:0:
296,109,131634,1,8,0:0:0:0:
177,130,132009,5,0,0:0:0:0:
177,130,144009,6,0,P|186:182|201:264,1,120,10|10,0:3|0:3,0:0:0:0:
173,282,144571,2,0,P|137:277|101:271,1,60,2|10,0:0|0:3,0:0:0:0:
78,296,144946,1,2,0:0:0:0:
22,189,145321,1,2,0:0:0:0:
165,78,145884,1,10,0:3:0:0:
165,78,146071,2,0,P|201:83|237:89,1,60,2|10,0:0|0:0,0:0:0:0:
252,118,146446,1,2,0:0:0:0:
345,43,146821,5,2,0:0:0:0:
490,158,147384,1,10,0:3:0:0:
490,158,147571,2,0,P|485:182|472:239,1,60,2|10,0:0|0:3,0:0:0:0:
441,239,147946,1,2,0:0:0:0:
331,189,148321,2,0,P|322:133|308:52,2,120,2|2|2,0:0|0:0|0:0,0:0:0:0:
240,267,149446,1,2,0:0:0:0:
240,267,149634,2,0,P|232:315|223:356,1,60,10|2,0:3|0:0,0:0:0:0:
254,360,150009,5,10,0:3:0:0:
141,333,150384,1,10,0:3:0:0:
141,333,150571,2,0,P|107:338|56:347,1,60,10|10,0:0|0:3,0:0:0:0:
50,370,150946,1,10,0:0:0:0:
4,258,151321,1,10,0:0:0:0:
90,174,151696,2,0,P|124:169|227:152,1,120,10|10,0:0|0:0,0:0:0:0:
307,222,152446,1,10,0:0:0:0:
407,154,152821,5,10,0:0:0:0:
407,154,153009,2,0,P|422:89|377:26,1,120,10|10,0:0|0:0,0:0:0:0:
284,7,153759,2,0,P|220:26|188:96,1,120,10|10,0:0|0:0,0:0:0:0:
216,186,154509,2,0,P|264:231|341:224,1,120,10|10,0:0|0:0,0:0:0:0:
407,154,155259,2,0,B|437:146|437:146|474:164,1,60,10|2,0:3|0:0,0:0:0:0:
484,195,155634,2,0,P|478:230|471:262,1,60,10|10,0:3|0:0,0:0:0:0:
485,294,156009,5,14,0:3:0:0:
370,259,156384,2,0,P|312:268|240:279,1,120,14|10,0:3|0:0,0:0:0:0:
150,339,157134,1,2,0:0:0:0:
150,339,157321,2,0,P|160:270|168:206,1,120,2|2,0:0|0:0,0:0:0:0:
262,148,158071,2,0,P|270:61|177:23,1,180,2|2,0:0|0:0,0:0:0:0:
83,57,159009,5,10,0:3:0:0:
35,167,159384,1,10,0:3:0:0:
122,248,159759,2,0,P|170:241|251:228,1,120,10|10,0:0|0:3,0:0:0:0:
276,251,160321,1,2,0:0:0:0:
364,169,160696,2,0,P|350:95|337:29,1,120,2|2,0:0|0:0,0:0:0:0:
456,10,161446,1,2,0:0:0:0:
456,10,161634,2,0,P|462:40|470:84,1,60,10|2,0:3|0:0,0:0:0:0:
500,95,162009,5,10,0:3:0:0:
398,159,162384,1,10,0:3:0:0:
299,90,162759,2,0,P|240:76|182:116,1,120,10|10,0:0|0:3,0:0:0:0:
177,143,163321,1,10,0:0:0:0:
139,259,163696,1,2,0:0:0:0:
29,223,164071,1,2,0:0:0:0:
29,223,164259,1,10,0:0:0:0:
63,108,164634,2,0,P|57:71|49:24,1,60,10|10,0:0|0:3,0:0:0:0:
89,26,165009,5,10,0:3:0:0:
189,91,165384,1,10,0:3:0:0:
293,29,165759,1,10,0:0:0:0:
293,29,165946,2,0,P|359:39|431:51,1,120,2|2,0:0|0:0,0:0:0:0:
464,155,166696,1,2,0:0:0:0:
376,237,167071,2,0,P|284:224|254:120,1,180,2|2,0:0|0:0,0:0:0:0:
262,112,167821,1,2,0:0:0:0:
152,63,168196,1,10,0:3:0:0:
152,63,168384,2,0,P|104:70|79:74,1,60,10|10,0:3|0:3,0:0:0:0:
52,60,168759,5,14,0:0:0:0:
93,172,169134,2,0,P|151:181|231:192,1,120,10|10,0:3|0:3,0:0:0:0:
242,225,169696,1,2,0:0:0:0:
242,225,169884,1,10,0:3:0:0:
335,150,170259,1,10,0:0:0:0:
440,207,170634,2,0,P|457:272|427:327,1,120,10|10,0:3|0:3,0:0:0:0:
405,344,171196,5,0,0:0:0:0:
405,344,171384,1,10,0:3:0:0:
309,271,171759,1,10,0:0:0:0:
210,339,172134,2,0,P|152:348|68:361,1,120,10|2,0:3|0:0,0:0:0:0:
58,340,172696,1,2,0:0:0:0:
58,340,172884,2,0,P|34:275|62:218,1,120,10|10,0:3|0:0,0:0:0:0:
149,161,173634,1,10,0:3:0:0:
241,237,174009,6,0,P|230:298|214:378,2,120,10|10|10,0:3|0:3|0:0,0:0:0:0:
149,161,175134,1,10,0:3:0:0:
149,161,175321,2,0,P|137:102|126:43,1,120,2|10,0:0|0:3,0:0:0:0:
243,5,176071,1,2,0:0:0:0:
243,5,176259,1,10,0:0:0:0:
361,25,176634,2,0,P|370:61|378:96,1,60,10|10,0:3|0:3,0:0:0:0:
404,113,177009,5,10,0:3:0:0:
317,196,177384,1,10,0:3:0:0:
229,114,177759,2,0,P|151:103|110:134,1,120,10|10,0:0|0:3,0:0:0:0:
99,160,178321,1,2,0:0:0:0:
39,263,178696,1,2,0:0:0:0:
133,336,179071,2,0,B|187:353|232:321|205:294|261:267|315:297,1,180,2|8,0:0|0:3,0:0:0:0:
393,357,180009,5,2,0:0:0:0:
