osu file format v14

[General]
AudioFilename: audio.mp3
AudioLeadIn: 0
PreviewTime: 65188
Countdown: 0
SampleSet: Normal
StackLeniency: 0.7
Mode: 1
LetterboxInBreaks: 0
WidescreenStoryboard: 0

[Editor]
Bookmarks: 12370,16438,32709,48980,97794,114065,162878,179150
DistanceSpacing: 0.6
BeatDivisor: 4
GridSize: 32
TimelineZoom: 2.1

[Metadata]
Title:Shoelaces (feat. Puniden)
TitleUnicode:Shoelaces (feat. Puniden)
Artist:2ToneDisco x Cosmicosmo
ArtistUnicode:2ToneDisco x Cosmicosmo
Creator:Jaltzu
Version:Futsuu
Source:osu!
Tags:japanese electronic dance music edm with friends ぷにぷに電機 punipuni denki featured artist fa
BeatmapID:2968913
BeatmapSetID:1442235

[Difficulty]
HPDrainRate:7
CircleSize:2
OverallDifficulty:3.3
ApproachRate:10
SliderMultiplier:1.4
SliderTickRate:1

[Events]
//Background and Video events
0,0,"sneakers.jpg",0,40
//Break Periods
//Storyboard Layer 0 (Background)
//Storyboard Layer 1 (Fail)
//Storyboard Layer 2 (Pass)
//Storyboard Layer 3 (Foreground)
//Storyboard Layer 4 (Overlay)
//Storyboard Sound Samples

[TimingPoints]
167,508.474576271186,4,1,0,40,1,0
12688,-100,4,1,0,42,0,0
12815,-100,4,1,0,43,0,0
13069,-100,4,1,0,44,0,0
13196,-100,4,1,0,44,0,0
13450,-100,4,1,0,46,0,0
13959,-100,4,1,0,48,0,0
14340,-100,4,1,0,50,0,0
14722,-100,4,1,0,54,0,0
15103,-100,4,1,0,58,0,0
15484,-100,4,1,0,61,0,0
15866,-100,4,1,0,65,0,0
15993,-100,4,1,0,66,0,0
16247,-100,4,1,0,69,0,0
16374,-95.2380952380952,4,1,0,70,0,0
48916,-100,4,1,0,60,0,0
63662,-98.3574309039048,4,1,0,60,0,0
64171,-96.7773153972709,4,1,0,60,0,0
64679,-95.2380952380952,4,1,0,60,0,0
65124,-90.9090909090909,4,1,0,70,0,0
65251,-90.9090909090909,4,1,0,70,0,1
81522,-90.9090909090909,4,1,0,70,0,0
81904,-95.2380952380952,4,1,0,70,0,0
97730,-100,4,1,0,60,0,0
105866,-95.2380952380952,4,1,0,70,0,0
114001,-100,4,1,0,60,0,0
128747,-98.3574309039048,4,1,0,60,0,0
129256,-96.7773153972709,4,1,0,60,0,0
129764,-95.2380952380952,4,1,0,60,0,0
130272,-90.9090909090909,4,1,0,70,0,0
130336,-90.9090909090909,4,1,0,70,0,1
145336,-90.9090909090909,4,1,0,70,0,0
145717,-95.2380952380952,4,1,0,40,0,0
146544,-95.2380952380952,4,1,0,70,0,0
146607,-95.2380952380952,4,1,0,70,0,0
179086,-100,4,1,0,50,0,0

[HitObjects]
256,192,167,5,0,0:0:0:0:
256,192,929,1,8,0:0:0:0:
256,192,1819,1,8,0:0:0:0:
256,192,2200,1,0,0:0:0:0:
256,192,2963,1,8,0:0:0:0:
256,192,3980,1,0,0:0:0:0:
256,192,4234,1,8,0:0:0:0:
256,192,4997,1,8,0:0:0:0:
256,192,5887,1,8,0:0:0:0:
256,192,6268,1,0,0:0:0:0:
256,192,6650,1,8,0:0:0:0:
256,192,7031,1,0,0:0:0:0:
256,192,7794,1,8,0:0:0:0:
256,192,8302,1,0,0:0:0:0:
256,192,9065,1,8,0:0:0:0:
256,192,9955,1,8,0:0:0:0:
256,192,10336,1,0,0:0:0:0:
256,192,10717,1,0,0:0:0:0:
256,192,11099,1,8,0:0:0:0:
256,192,12116,1,0,0:0:0:0:
256,192,12370,1,8,0:0:0:0:
256,192,13133,1,8,0:0:0:0:
256,192,14022,1,8,0:0:0:0:
256,192,14404,1,0,0:0:0:0:
256,192,14785,1,8,0:0:0:0:
256,192,15166,1,0,0:0:0:0:
256,192,15548,1,0,0:0:0:0:
256,192,15929,1,8,0:0:0:0:
256,192,16438,5,0,0:0:0:0:
256,192,17200,1,0,0:0:0:0:
256,192,17963,1,8,0:0:0:0:
256,192,18472,1,8,0:0:0:0:
256,192,18853,1,0,0:0:0:0:
256,192,19234,1,0,0:0:0:0:
256,192,19997,1,8,0:0:0:0:
256,192,20505,1,0,0:0:0:0:
256,192,21014,1,8,0:0:0:0:
256,192,21268,1,0,0:0:0:0:
256,192,22031,1,8,0:0:0:0:
256,192,22539,1,0,0:0:0:0:
256,192,22921,1,8,0:0:0:0:
256,192,23302,1,0,0:0:0:0:
256,192,23683,1,8,0:0:0:0:
256,192,23938,1,8,0:0:0:0:
256,192,24192,1,8,0:0:0:0:
256,192,24573,5,0,0:0:0:0:
256,192,25336,1,0,0:0:0:0:
256,192,26099,1,8,0:0:0:0:
256,192,26607,1,0,0:0:0:0:
256,192,26989,1,8,0:0:0:0:
256,192,27370,1,0,0:0:0:0:
256,192,28133,1,8,0:0:0:0:
256,192,28641,1,0,0:0:0:0:
256,192,29404,1,0,0:0:0:0:
256,192,30166,1,8,0:0:0:0:
256,192,30675,1,0,0:0:0:0:
256,192,31056,1,8,0:0:0:0:
256,192,31438,1,8,0:0:0:0:
256,192,31819,1,0,0:0:0:0:
256,192,32073,1,8,0:0:0:0:
256,192,32328,1,8,0:0:0:0:
256,192,32709,5,8,0:0:0:0:
256,192,33472,1,0,0:0:0:0:
256,192,34361,1,0,0:0:0:0:
256,192,34743,1,8,0:0:0:0:
256,192,35124,1,8,0:0:0:0:
256,192,35505,1,0,0:0:0:0:
256,192,36522,1,0,0:0:0:0:
256,192,36777,1,8,0:0:0:0:
256,192,37539,1,0,0:0:0:0:
256,192,38429,1,0,0:0:0:0:
256,192,38811,1,0,0:0:0:0:
256,192,39192,1,8,0:0:0:0:
256,192,39573,1,0,0:0:0:0:
256,192,39955,1,8,0:0:0:0:
256,192,40336,1,8,0:0:0:0:
256,192,40590,1,0,0:0:0:0:
256,192,40844,5,8,0:0:0:0:
256,192,41607,1,0,0:0:0:0:
256,192,42497,1,0,0:0:0:0:
256,192,42878,1,8,0:0:0:0:
256,192,43260,1,8,0:0:0:0:
256,192,43641,1,0,0:0:0:0:
256,192,44658,1,0,0:0:0:0:
256,192,44912,1,8,0:0:0:0:
256,192,45675,1,0,0:0:0:0:
256,192,46565,1,8,0:0:0:0:
256,192,46946,1,0,0:0:0:0:
256,192,47328,1,8,0:0:0:0:
256,192,47709,1,0,0:0:0:0:
256,192,48090,1,0,0:0:0:0:
256,192,48344,1,8,0:0:0:0:
256,192,48599,1,8,0:0:0:0:
256,192,48980,5,0,0:0:0:0:
256,192,49870,1,8,0:0:0:0:
256,192,51014,1,0,0:0:0:0:
256,192,51904,1,8,0:0:0:0:
256,192,53048,1,8,0:0:0:0:
256,192,53938,1,0,0:0:0:0:
256,192,55082,1,8,0:0:0:0:
256,192,55590,1,8,0:0:0:0:
256,192,55844,1,8,0:0:0:0:
256,192,56353,1,8,0:0:0:0:
256,192,56607,1,0,0:0:0:0:
256,192,57116,1,0,0:0:0:0:
256,192,57624,1,8,0:0:0:0:
256,192,58005,1,0,0:0:0:0:
256,192,58895,1,0,0:0:0:0:
256,192,59150,1,8,0:0:0:0:
256,192,59658,1,8,0:0:0:0:
256,192,60039,1,0,0:0:0:0:
256,192,61183,1,0,0:0:0:0:
256,192,61692,1,8,0:0:0:0:
256,192,62073,1,0,0:0:0:0:
256,192,63217,1,0,0:0:0:0:
256,192,63726,1,8,0:0:0:0:
256,192,64234,1,8,0:0:0:0:
256,192,64743,1,8,0:0:0:0:
256,192,65251,5,0,0:0:0:0:
256,192,65760,1,8,0:0:0:0:
256,192,66268,1,0,0:0:0:0:
256,192,66522,1,8,0:0:0:0:
256,192,66777,1,0,0:0:0:0:
256,192,67285,1,0,0:0:0:0:
256,192,67666,1,8,0:0:0:0:
256,192,68048,1,0,0:0:0:0:
256,192,68556,1,0,0:0:0:0:
256,192,68811,1,8,0:0:0:0:
256,192,69065,1,8,0:0:0:0:
256,192,69319,1,0,0:0:0:0:
256,192,69828,1,8,0:0:0:0:
256,192,70082,1,0,0:0:0:0:
256,192,70336,1,8,0:0:0:0:
256,192,71353,1,0,0:0:0:0:
256,192,71734,1,8,0:0:0:0:
256,192,72116,1,8,0:0:0:0:
256,192,72370,1,0,0:0:0:0:
256,192,72878,1,8,0:0:0:0:
256,192,73387,1,0,0:0:0:0:
256,192,73895,1,8,0:0:0:0:
256,192,74404,1,0,0:0:0:0:
256,192,74658,1,8,0:0:0:0:
256,192,74912,1,0,0:0:0:0:
256,192,75421,1,0,0:0:0:0:
256,192,75802,1,8,0:0:0:0:
256,192,76183,1,0,0:0:0:0:
256,192,76692,1,0,0:0:0:0:
256,192,76946,1,0,0:0:0:0:
256,192,77200,1,8,0:0:0:0:
256,192,77455,1,0,0:0:0:0:
256,192,77963,1,8,0:0:0:0:
256,192,78217,1,0,0:0:0:0:
256,192,78980,1,8,0:0:0:0:
256,192,79234,1,8,0:0:0:0:
256,192,79489,1,0,0:0:0:0:
256,192,79870,1,0,0:0:0:0:
256,192,80251,1,0,0:0:0:0:
256,192,80760,1,4,0:0:0:0:
256,192,81014,1,12,0:0:0:0:
256,192,81268,1,12,0:0:0:0:
256,192,81522,1,4,0:0:0:0:
256,192,82031,5,8,0:0:0:0:
256,192,82539,1,8,0:0:0:0:
256,192,83556,1,0,0:0:0:0:
256,192,83811,1,0,0:0:0:0:
256,192,84065,1,8,0:0:0:0:
256,192,84573,1,8,0:0:0:0:
256,192,84955,1,8,0:0:0:0:
256,192,85590,1,8,0:0:0:0:
256,192,85844,1,0,0:0:0:0:
256,192,86099,1,8,0:0:0:0:
256,192,86607,1,8,0:0:0:0:
256,192,87116,1,8,0:0:0:0:
256,192,87370,1,0,0:0:0:0:
256,192,87878,1,0,0:0:0:0:
256,192,88133,1,8,0:0:0:0:
256,192,88641,1,8,0:0:0:0:
256,192,89658,1,0,0:0:0:0:
256,192,90166,1,8,0:0:0:0:
256,192,90675,1,8,0:0:0:0:
256,192,91183,1,0,0:0:0:0:
256,192,91946,1,0,0:0:0:0:
256,192,92200,1,8,0:0:0:0:
256,192,92455,1,0,0:0:0:0:
256,192,92963,1,0,0:0:0:0:
256,192,93217,1,8,0:0:0:0:
256,192,93472,1,8,0:0:0:0:
256,192,93980,1,8,0:0:0:0:
256,192,94234,1,8,0:0:0:0:
256,192,94743,1,0,0:0:0:0:
256,192,95760,1,0,0:0:0:0:
256,192,96141,1,8,0:0:0:0:
256,192,96522,1,8,0:0:0:0:
256,192,96777,1,0,0:0:0:0:
256,192,97285,1,8,0:0:0:0:
256,192,97794,5,0,0:0:0:0:
256,192,98556,1,0,0:0:0:0:
256,192,99446,1,8,0:0:0:0:
256,192,99828,1,0,0:0:0:0:
256,192,100590,1,0,0:0:0:0:
256,192,101607,1,8,0:0:0:0:
256,192,101861,1,0,0:0:0:0:
256,192,102624,1,0,0:0:0:0:
256,192,103514,1,8,0:0:0:0:
256,192,103895,1,0,0:0:0:0:
256,192,104277,1,8,0:0:0:0:
256,192,104658,1,8,0:0:0:0:
256,192,105039,1,8,0:0:0:0:
256,192,105294,1,8,0:0:0:0:
256,192,105548,1,8,0:0:0:0:
256,192,105929,5,0,0:0:0:0:
256,192,106692,1,0,0:0:0:0:
256,192,107582,1,8,0:0:0:0:
256,192,107963,1,8,0:0:0:0:
256,192,108344,1,0,0:0:0:0:
256,192,108726,1,0,0:0:0:0:
256,192,109743,1,0,0:0:0:0:
256,192,109997,1,8,0:0:0:0:
256,192,110760,1,8,0:0:0:0:
256,192,111650,1,8,0:0:0:0:
256,192,112031,1,0,0:0:0:0:
256,192,112412,1,8,0:0:0:0:
256,192,112794,1,0,0:0:0:0:
256,192,113175,1,8,0:0:0:0:
256,192,113429,1,8,0:0:0:0:
256,192,113683,1,8,0:0:0:0:
256,192,114065,5,0,0:0:0:0:
256,192,114955,1,8,0:0:0:0:
256,192,116099,1,0,0:0:0:0:
256,192,116989,1,8,0:0:0:0:
256,192,118133,1,8,0:0:0:0:
256,192,119022,1,0,0:0:0:0:
256,192,120166,1,8,0:0:0:0:
256,192,120675,1,8,0:0:0:0:
256,192,120929,1,8,0:0:0:0:
256,192,121438,1,8,0:0:0:0:
256,192,121692,1,0,0:0:0:0:
256,192,122200,1,0,0:0:0:0:
256,192,122709,1,8,0:0:0:0:
256,192,123090,1,0,0:0:0:0:
256,192,123980,1,0,0:0:0:0:
256,192,124234,1,8,0:0:0:0:
256,192,124743,1,8,0:0:0:0:
256,192,125124,1,0,0:0:0:0:
256,192,126268,1,0,0:0:0:0:
256,192,126777,1,8,0:0:0:0:
256,192,127158,1,0,0:0:0:0:
256,192,128302,1,0,0:0:0:0:
256,192,128811,1,8,0:0:0:0:
256,192,129319,1,8,0:0:0:0:
256,192,129828,1,8,0:0:0:0:
256,192,130336,5,0,0:0:0:0:
256,192,130844,1,8,0:0:0:0:
256,192,131353,1,0,0:0:0:0:
256,192,131607,1,8,0:0:0:0:
256,192,131861,1,0,0:0:0:0:
256,192,132370,1,0,0:0:0:0:
256,192,132751,1,8,0:0:0:0:
256,192,133133,1,0,0:0:0:0:
256,192,133641,1,0,0:0:0:0:
256,192,133895,1,8,0:0:0:0:
256,192,134150,1,8,0:0:0:0:
256,192,134404,1,0,0:0:0:0:
256,192,134912,1,8,0:0:0:0:
256,192,135166,1,0,0:0:0:0:
256,192,135421,1,8,0:0:0:0:
256,192,136438,1,0,0:0:0:0:
256,192,136819,1,8,0:0:0:0:
256,192,137200,1,8,0:0:0:0:
256,192,137455,1,0,0:0:0:0:
256,192,137963,1,8,0:0:0:0:
256,192,138472,1,0,0:0:0:0:
256,192,138980,1,8,0:0:0:0:
256,192,139489,1,0,0:0:0:0:
256,192,139743,1,8,0:0:0:0:
256,192,139997,1,0,0:0:0:0:
256,192,140505,1,0,0:0:0:0:
256,192,140887,1,8,0:0:0:0:
256,192,141268,1,0,0:0:0:0:
256,192,141777,1,0,0:0:0:0:
256,192,142031,1,0,0:0:0:0:
256,192,142285,1,8,0:0:0:0:
256,192,142539,1,0,0:0:0:0:
256,192,143048,1,8,0:0:0:0:
256,192,143302,1,0,0:0:0:0:
256,192,144065,1,8,0:0:0:0:
256,192,144319,1,8,0:0:0:0:
256,192,144573,1,0,0:0:0:0:
256,192,144955,1,0,0:0:0:0:
256,192,145336,1,0,0:0:0:0:
256,192,145844,1,0,0:0:0:0:
256,192,146099,1,8,0:0:0:0:
256,192,146607,1,4,0:0:0:0:
256,192,147116,5,8,0:0:0:0:
256,192,147624,1,8,0:0:0:0:
256,192,148641,1,0,0:0:0:0:
256,192,148895,1,0,0:0:0:0:
256,192,149150,1,8,0:0:0:0:
256,192,149658,1,0,0:0:0:0:
256,192,150039,1,8,0:0:0:0:
256,192,150675,1,0,0:0:0:0:
256,192,151183,1,8,0:0:0:0:
256,192,151438,1,8,0:0:0:0:
256,192,151692,1,0,0:0:0:0:
256,192,152200,1,8,0:0:0:0:
256,192,152455,1,0,0:0:0:0:
256,192,152963,1,0,0:0:0:0:
256,192,153217,1,8,0:0:0:0:
256,192,153726,1,8,0:0:0:0:
256,192,154743,1,0,0:0:0:0:
256,192,155251,1,8,0:0:0:0:
256,192,155760,1,0,0:0:0:0:
256,192,156268,1,8,0:0:0:0:
256,192,156522,1,0,0:0:0:0:
256,192,157031,1,0,0:0:0:0:
256,192,157285,1,8,0:0:0:0:
256,192,157539,1,8,0:0:0:0:
256,192,158048,1,8,0:0:0:0:
256,192,158302,1,0,0:0:0:0:
256,192,158556,1,8,0:0:0:0:
256,192,159065,1,8,0:0:0:0:
256,192,159319,1,8,0:0:0:0:
256,192,159828,1,0,0:0:0:0:
256,192,160844,1,0,0:0:0:0:
256,192,161226,1,8,0:0:0:0:
256,192,161607,1,8,0:0:0:0:
256,192,161861,1,0,0:0:0:0:
256,192,162370,1,8,0:0:0:0:
256,192,162878,5,0,0:0:0:0:
256,192,163387,1,8,0:0:0:0:
256,192,163895,1,8,0:0:0:0:
256,192,164912,1,0,0:0:0:0:
256,192,165166,1,0,0:0:0:0:
256,192,165421,1,8,0:0:0:0:
256,192,165929,1,0,0:0:0:0:
256,192,166311,1,8,0:0:0:0:
256,192,166692,1,8,0:0:0:0:
256,192,166946,1,0,0:0:0:0:
256,192,167455,1,8,0:0:0:0:
256,192,167963,1,8,0:0:0:0:
256,192,168980,1,0,0:0:0:0:
256,192,169489,1,8,0:0:0:0:
256,192,169743,1,0,0:0:0:0:
256,192,169997,1,8,0:0:0:0:
256,192,170378,1,8,0:0:0:0:
256,192,170760,1,8,0:0:0:0:
256,192,171014,1,0,0:0:0:0:
256,192,171522,1,8,0:0:0:0:
256,192,172031,1,8,0:0:0:0:
256,192,173048,1,0,0:0:0:0:
256,192,173556,1,8,0:0:0:0:
256,192,173811,1,0,0:0:0:0:
256,192,174065,1,0,0:0:0:0:
256,192,174446,1,8,0:0:0:0:
256,192,174828,1,8,0:0:0:0:
256,192,175082,1,0,0:0:0:0:
256,192,175590,1,8,0:0:0:0:
256,192,175844,1,0,0:0:0:0:
256,192,176099,1,8,0:0:0:0:
256,192,176607,1,8,0:0:0:0:
256,192,176861,1,8,0:0:0:0:
256,192,177370,1,0,0:0:0:0:
256,192,177624,1,8,0:0:0:0:
256,192,178133,1,8,0:0:0:0:
256,192,178387,1,8,0:0:0:0:
256,192,178641,1,0,0:0:0:0:
256,192,179150,5,8,0:0:0:0:
256,192,179912,1,0,0:0:0:0:
256,192,180802,1,0,0:0:0:0:
256,192,181183,1,8,0:0:0:0:
256,192,181946,1,0,0:0:0:0:
256,192,182963,1,0,0:0:0:0:
256,192,183217,1,8,0:0:0:0:
256,192,183980,1,0,0:0:0:0:
256,192,184870,1,0,0:0:0:0:
256,192,185251,1,8,0:0:0:0:
256,192,186014,1,0,0:0:0:0:
256,192,186650,1,8,0:0:0:0:
256,192,187285,1,8,0:0:0:0:
256,192,188048,1,0,0:0:0:0:
256,192,188938,1,0,0:0:0:0:
256,192,189319,1,8,0:0:0:0:
256,192,190082,1,8,0:0:0:0:
256,192,191099,1,0,0:0:0:0:
256,192,191353,1,8,0:0:0:0:
256,192,192116,1,0,0:0:0:0:
256,192,193005,1,0,0:0:0:0:
256,192,193387,1,8,0:0:0:0:
256,192,194150,1,0,0:0:0:0:
