osu file format v14

[General]
AudioFilename: audio.mp3
AudioLeadIn: 0
PreviewTime: 1139
Countdown: 0
SampleSet: Normal
StackLeniency: 0.2
Mode: 0
LetterboxInBreaks: 0
WidescreenStoryboard: 1

[Editor]
Bookmarks: 13264,25339,37415,49490,61566,73641,85717,97792
DistanceSpacing: 0.1
BeatDivisor: 6
GridSize: 16
TimelineZoom: 2.599999

[Metadata]
Title:Life Goes On (short ver)
TitleUnicode:Life Goes On (short ver)
Artist:2Pac
ArtistUnicode:2Pac
Creator:Raikozen
Version:sleep tight irre our little pupper
Source:
Tags:
BeatmapID:1565888
BeatmapSetID:742381

[Difficulty]
HPDrainRate:5
CircleSize:4.3
OverallDifficulty:8.5
ApproachRate:9
SliderMultiplier:2.3
SliderTickRate:1

[Events]
//Background and Video events
0,0,"funeral43.png",0,0
//Break Periods
//Storyboard Layer 0 (Background)
//Storyboard Layer 1 (Fail)
//Storyboard Layer 2 (Pass)
//Storyboard Layer 3 (Foreground)
//Storyboard Sound Samples

[TimingPoints]
385,377.358490566038,4,1,1,40,1,0
951,-166.666666666667,4,1,1,40,0,0
1119,-100,4,1,1,30,0,0
1141,-100,4,1,1,5,0,0
1189,377.358490566038,4,1,1,55,1,0
1189,-83.3333333333333,4,1,1,55,0,0
1472,-83.3333333333333,4,1,1,5,0,0
1566,-111.111111111111,4,1,1,55,0,0
2604,-111.111111111111,4,1,1,5,0,0
2698,-66.6666666666667,4,1,1,55,0,0
3170,-83.3333333333333,4,1,1,55,0,0
3453,-90.9090909090909,4,1,1,55,0,0
3736,-90.9090909090909,4,1,1,5,0,0
3830,-200,4,1,1,55,0,0
4207,-83.3333333333333,4,1,1,55,0,0
4490,-83.3333333333333,4,1,1,5,0,0
4585,-83.3333333333333,4,1,1,55,0,0
5339,-66.6666666666667,4,1,1,55,0,0
6094,-200,4,1,1,55,0,0
6472,-83.3333333333333,4,1,1,55,0,0
6755,-83.3333333333333,4,1,1,5,0,0
6849,-66.6666666666667,4,1,1,55,0,0
7509,-66.6666666666667,4,1,1,5,0,0
7604,-133.333333333333,4,1,1,55,0,0
7981,-76.9230769230769,4,1,1,55,0,0
8924,-55.5555555555556,4,1,1,55,0,0
9113,-200,4,1,1,55,0,0
9490,-125,4,1,1,55,0,0
10245,-100,4,1,1,55,0,0
10339,-100,4,1,1,5,0,0
10434,-66.6666666666667,4,1,1,55,0,0
11377,-100,4,1,1,55,0,0
11755,-76.9230769230769,4,1,1,55,0,0
13264,-66.6666666666667,4,1,1,55,0,0
13547,-66.6666666666667,4,1,1,5,0,0
13641,-66.6666666666667,4,1,1,55,0,0
14396,-111.111111111111,4,1,1,55,0,0
14679,-111.111111111111,4,1,1,5,0,0
14773,-66.6666666666667,4,1,1,55,0,0
15151,-83.3333333333333,4,1,1,55,0,0
15811,-83.3333333333333,4,1,1,5,0,0
15905,-200,4,1,1,55,0,0
16283,-83.3333333333333,4,1,1,55,0,0
16566,-83.3333333333333,4,1,1,5,0,0
16660,-83.3333333333333,4,1,1,55,0,0
16943,-83.3333333333333,4,1,1,5,0,0
17038,-200,4,1,1,55,0,0
17321,-200,4,1,1,5,0,0
17415,-200,4,1,1,55,0,0
17792,-83.3333333333333,4,1,1,55,0,0
18075,-83.3333333333333,4,1,1,5,0,0
18170,-200,4,1,1,55,0,0
18547,-66.6666666666667,4,1,1,55,0,0
18830,-66.6666666666667,4,1,1,5,0,0
18924,-66.6666666666667,4,1,1,55,0,0
19585,-66.6666666666667,4,1,1,5,0,0
19679,-200,4,1,1,55,0,0
20056,-76.9230769230769,4,1,1,55,0,0
20811,-76.9230769230769,4,1,1,55,0,0
21377,-200,4,1,1,55,0,0
21472,-200,4,1,1,5,0,0
21566,-66.6666666666667,4,1,1,55,0,0
22321,-100,4,1,1,55,0,0
23358,-100,4,1,1,5,0,0
23453,-100,4,1,1,55,0,0
23830,-133.333333333333,4,1,1,55,0,0
24585,-66.6666666666667,4,1,1,55,0,0
24868,-66.6666666666667,4,1,1,5,0,0
24962,-200,4,1,1,55,0,0
25308,377.358490566038,4,1,1,55,1,0
25308,-100,4,1,1,55,0,0
25591,-100,4,1,1,5,0,0
25686,-200,4,1,1,55,0,0
26818,-83.3333333333333,4,1,1,55,0,0
27195,-166.666666666667,4,1,1,55,0,0
28326,-66.6666666666667,4,1,11,55,0,0
28610,-66.6666666666667,4,1,11,5,0,0
28704,-90.0900900900901,4,1,11,55,0,0
28988,-90.0900900900901,4,1,11,5,0,0
29081,-133.333333333333,4,1,11,55,0,0
29365,-133.333333333333,4,1,11,5,0,0
29459,-133.333333333333,4,1,1,55,0,0
30214,-100,4,1,1,55,0,0
30969,-66.6666666666667,4,1,1,55,0,0
31252,-100,4,1,1,5,0,0
31346,-100,4,1,1,55,0,0
32101,-100,4,1,1,55,0,0
32667,-76.9230769230769,4,1,1,55,0,0
32950,-76.9230769230769,4,1,1,5,0,0
33044,-100,4,1,1,55,0,0
33327,-100,4,1,1,5,0,0
33422,-100,4,1,1,55,0,0
33893,-100,4,1,1,5,0,0
33988,-83.3333333333333,4,1,1,55,0,0
34553,-66.6666666666667,4,1,1,55,0,0
34647,-83.3333333333333,4,1,1,55,0,0
35308,-66.6666666666667,4,1,1,55,0,0
35497,-66.6666666666667,4,1,1,55,0,0
36441,-200,4,1,1,55,0,0
38138,-50,4,1,1,55,0,0
38515,-133.333333333333,4,1,1,55,0,0
38704,-100,4,1,1,55,0,0
38987,-100,4,1,1,5,0,0
39081,-100,4,1,1,55,0,0
39175,-100,4,1,1,5,0,0
39270,-200,4,1,1,55,0,0
39364,-200,4,1,1,5,0,0
39458,-200,4,1,1,55,0,0
39553,-200,4,1,1,5,0,0
39647,-83.3333333333333,4,1,1,55,0,0
40402,-100,4,1,1,55,0,0
40402,-200,4,1,1,55,0,0
40449,-200,4,1,1,5,0,0
40591,-200,4,1,1,55,0,0
41157,-100,4,1,1,55,0,0
42100,-200,4,1,1,55,0,0
42194,-200,4,1,1,5,0,0
42289,-200,4,1,1,55,0,0
42383,-200,4,1,1,5,0,0
42478,-200,4,1,1,55,0,0
42572,-200,4,1,1,5,0,0
42666,-83.3333333333333,4,1,1,55,0,0
43232,-200,4,1,1,55,0,0
43326,-200,4,1,1,5,0,0
43421,-66.6666666666667,4,1,1,55,0,0
43892,-66.6666666666667,4,1,1,5,0,0
43987,-66.6666666666667,4,1,1,55,0,0
44553,-66.6666666666667,4,1,1,5,0,0
44741,-66.6666666666667,4,1,1,55,0,0
44930,-100,4,1,1,55,0,0
45308,-100,4,1,1,55,0,0
45402,-100,4,1,1,5,0,0
45496,-100,4,1,1,55,0,0
45591,-100,4,1,1,5,0,0
45685,-74.0740740740741,4,1,1,55,0,0
45968,-74.0740740740741,4,1,1,5,0,0
46062,-200,4,1,1,55,0,0
46251,-66.6666666666667,4,1,1,55,0,0
46534,-66.6666666666667,4,1,1,5,0,0
46628,-66.6666666666667,4,1,1,55,0,0
47572,-200,4,1,1,55,0,0
47666,-200,4,1,1,5,0,0
47760,-66.6666666666667,4,1,1,55,0,0
48326,-200,4,1,1,55,0,0
48704,-66.6666666666667,4,1,1,55,0,0
49270,-133.333333333333,4,1,1,55,0,0
49458,-50,4,1,1,55,0,0
49600,-50,4,1,1,5,0,0
49647,-66.6666666666667,4,1,1,55,0,0
49741,-66.6666666666667,4,1,1,5,0,0
49836,-66.6666666666667,4,1,1,55,0,0
49930,-66.6666666666667,4,1,1,5,0,0
50024,-200,4,1,1,55,0,0
50213,-66.6666666666667,4,1,1,55,0,0
50308,-66.6666666666667,4,1,1,5,0,0
50402,-100,4,1,1,55,0,0
50496,-100,4,1,1,5,0,0
50591,-100,4,1,1,55,0,0
50968,-66.6666666666667,4,1,1,55,0,0
51345,-66.6666666666667,4,1,1,55,0,0
51723,-133.333333333333,4,1,1,55,0,0
53232,-71.4285714285714,4,1,1,55,0,0
53798,-58.8235294117647,4,1,1,55,0,0
54081,-58.8235294117647,4,1,1,5,0,0
54175,-100,4,1,1,55,0,0
55024,-100,4,1,1,5,0,0
55119,-166.666666666667,4,1,1,55,0,0
55496,-83.3333333333333,4,1,1,55,0,0
57100,-83.3333333333333,4,1,1,5,0,0
57194,-125,4,1,1,55,0,0
57760,-83.3333333333333,4,1,1,55,0,0
58043,-83.3333333333333,4,1,1,5,0,0
58138,-83.3333333333333,4,1,1,55,0,0
60024,-133.333333333333,4,1,1,55,0,0
60402,-100,4,1,1,55,0,0
60779,-50,4,1,1,55,0,0
60968,-66.6666666666667,4,1,1,55,0,0
61157,-200,4,1,1,55,0,0
61440,-200,4,1,1,5,0,0
61534,-200,4,1,1,55,0,0
61675,-133.333333333333,4,1,1,55,0,0
63421,-200,4,1,1,55,0,0
63798,-100,4,1,1,55,0,0
63892,-100,4,1,1,5,0,0
63987,-100,4,1,1,55,0,0
64081,-100,4,1,1,5,0,0
64175,-200,4,1,1,55,0,0
64270,-200,4,1,1,5,0,0
64364,-200,4,1,1,55,0,0
64458,-200,4,1,1,5,0,0
64553,-66.6666666666667,4,1,1,55,0,0
65119,-200,4,1,1,55,0,0
65308,-76.9230769230769,4,1,1,55,0,0
65685,-200,4,1,1,55,0,0
65874,-76.9230769230769,4,1,1,55,0,0
66817,-200,4,1,1,55,0,0
67006,-66.6666666666667,4,1,1,55,0,0
67572,-100,4,1,1,55,0,0
68138,-200,4,1,1,55,0,0
68326,-76.9230769230769,4,1,1,55,0,0
69081,-100,4,1,1,55,0,0
70402,-200,4,1,1,55,0,0
70591,-74.0740740740741,4,1,1,55,0,0
71911,-200,4,1,1,55,0,0
72006,-200,4,1,1,5,0,0
72100,-66.6666666666667,4,1,1,55,0,0
73232,-100,4,1,1,55,0,0
73421,-200,4,1,1,55,0,0
73609,-50,4,1,1,55,0,1
73892,-50,4,1,1,5,0,1
73987,-66.6666666666667,4,1,1,55,0,1
74270,-66.6666666666667,4,1,1,55,0,1
74364,-66.6666666666667,4,1,1,55,0,1
74458,-66.6666666666667,4,1,1,5,0,1
74553,-66.6666666666667,4,1,1,55,0,1
74647,-66.6666666666667,4,1,1,5,0,1
74741,-100,4,1,1,55,0,1
75119,-52.6315789473684,4,1,1,55,0,1
75496,-66.6666666666667,4,1,1,55,0,1
76157,-66.6666666666667,4,1,1,5,0,1
76251,-66.6666666666667,4,1,1,55,0,1
76440,-200,4,1,1,55,0,1
76628,-55.5555555555556,4,1,1,55,0,1
76911,-55.5555555555556,4,1,1,5,0,1
77006,-55.5555555555556,4,1,1,55,0,1
77289,-55.5555555555556,4,1,1,5,0,1
77383,-55.5555555555556,4,1,1,55,0,1
77713,-55.5555555555556,4,1,1,5,0,1
77760,-55.5555555555556,4,1,1,55,0,1
78279,-55.5555555555556,4,1,1,5,0,1
78326,-50,4,1,1,55,0,1
78845,-50,4,1,1,5,0,1
78892,-100,4,1,1,55,0,1
79647,-50,4,1,1,55,0,1
79930,-50,4,1,1,5,0,1
80024,-50,4,1,1,55,0,1
80166,-50,4,1,1,55,0,1
80213,-66.6666666666667,4,1,1,5,0,1
80402,-50,4,1,1,55,0,1
80968,-133.333333333333,4,1,1,55,0,1
81157,-50,4,1,1,55,0,1
81298,-50,4,1,1,5,0,1
81345,-50,4,1,1,55,0,1
81534,-66.6666666666667,4,1,1,55,0,1
81723,-100,4,1,1,55,0,1
83704,-100,4,1,1,5,0,1
83798,-100,4,1,1,55,0,1
84175,-71.4285714285714,4,1,1,55,0,1
84647,-71.4285714285714,4,1,1,5,0,1
84741,-71.4285714285714,4,1,1,55,0,1
84930,-55.5555555555556,4,1,1,55,0,1
85308,-66.6666666666667,4,1,1,55,0,1
85591,-66.6666666666667,4,1,1,55,0,0
85685,-50,4,1,1,55,0,1
86062,-66.6666666666667,4,1,1,55,0,1
86440,-66.6666666666667,4,1,1,55,0,1
86534,-66.6666666666667,4,1,1,5,0,1
86628,-66.6666666666667,4,1,1,55,0,1
86723,-66.6666666666667,4,1,1,5,0,1
86817,-100,4,1,1,55,0,1
87194,-52.6315789473684,4,1,1,55,0,1
87572,-66.6666666666667,4,1,1,55,0,1
87949,-50,4,1,1,55,0,1
88232,-50,4,1,1,5,0,1
88326,-200,4,1,1,55,0,1
88704,-55.5555555555556,4,1,1,55,0,1
88987,-55.5555555555556,4,1,1,5,0,1
89081,-55.5555555555556,4,1,1,55,0,1
89364,-55.5555555555556,4,1,1,5,0,1
89458,-55.5555555555556,4,1,1,55,0,1
89789,-55.5555555555556,4,1,1,5,0,1
89836,-55.5555555555556,4,1,1,55,0,1
90355,-55.5555555555556,4,1,1,5,0,1
90402,-55.5555555555556,4,1,1,55,0,1
90543,-55.5555555555556,4,1,1,5,0,1
90591,-55.5555555555556,4,1,1,55,0,1
90779,-100,4,1,1,55,0,1
90874,-100,4,1,1,5,0,1
90968,-50,4,1,1,55,0,1
91251,-50,4,1,1,5,0,1
91345,-50,4,1,1,55,0,1
92006,-50,4,1,1,5,0,1
92100,-66.6666666666667,4,1,1,55,0,1
92572,-66.6666666666667,4,1,1,5,0,1
92666,-66.6666666666667,4,1,1,55,0,1
92760,-66.6666666666667,4,1,1,5,0,1
92855,-200,4,1,1,55,0,1
93232,-66.6666666666667,4,1,1,55,0,1
93374,-66.6666666666667,4,1,1,5,0,1
93421,-100,4,1,1,55,0,1
93609,-66.6666666666667,4,1,1,55,0,1
93987,-50,4,1,1,55,0,1
94270,-50,4,1,1,5,0,1
94364,-50,4,1,1,55,0,1
94741,-200,4,1,1,55,0,1
94930,-100,4,1,1,55,0,1
95874,-133.333333333333,4,1,1,55,0,1
96251,-1000,4,1,1,55,0,1
97006,-66.6666666666667,4,1,1,55,0,1
97336,-66.6666666666667,4,1,1,5,0,1
97383,-66.6666666666667,4,1,1,55,0,1
97760,-66.6666666666667,4,1,2,55,0,1

[Colours]
Combo1 : 233,233,233
Combo2 : 128,128,128
Combo3 : 193,164,186
Combo4 : 99,111,85

[HitObjects]
26,40,385,5,0,2:0:0:0:
44,121,573,1,0,2:0:0:0:
130,13,762,1,0,2:0:0:0:
83,202,951,2,0,L|163:191,1,68.9999978942872
179,194,1189,6,0,B|87:189|123:297|3:294,1,206.999993682862,4|0,0:0|0:0,0:0:0:0:
32,217,1566,2,0,P|26:142|41:101,1,103.499996841431
130,13,1943,5,8,0:0:0:0:
46,0,2132,1,0,0:0:0:0:
187,75,2321,2,0,P|243:57|353:41,1,155.249995262146
415,73,2698,6,0,P|372:39|346:-7,1,86.2500032901765
473,3,2887,1,0,0:0:0:0:
333,123,3075,1,0,0:0:0:0:
333,123,3170,2,0,B|307:142|307:142|319:260,1,137.999995788574
342,321,3453,6,0,B|289:310|258:345|258:345|143:326,1,189.750005790711,8|0,0:0|0:0,0:0:0:0:
7,304,3830,6,0,L|13:367,1,57.5
105,114,4207,6,0,P|76:183|90:328,1,206.999993682861
83,312,4585,2,0,P|109:243|97:170,1,137.999995788574
28,31,4962,5,8,0:0:0:0:
3,138,5151,1,0,3:0:0:0:
161,25,5339,2,0,B|193:51|193:51|341:33,1,172.500006580353
345,20,5622,1,0,0:0:0:0:
419,67,5717,6,0,P|415:125|385:164,1,86.2500032901765
465,204,5905,2,0,P|412:229|356:215,1,86.2500032901765
342,94,6094,1,0,0:0:0:0:
342,94,6283,6,0,L|338:51,1,28.75
443,324,6472,2,0,P|399:330|279:218,1,206.999993682861,8|0,0:0|0:0,0:0:0:0:
281,234,6849,6,0,P|362:255|354:378,1,172.500006580353
125,364,7226,6,0,B|137:254|137:254|148:244|148:244|164:96,1,258.75000987053
174,14,7604,1,0,0:0:0:0:
174,14,7792,6,0,L|230:4,1,43.1250016450883
377,111,7981,2,0,B|360:94|360:94|235:81,1,149.499993156433,8|0,0:0|0:0,0:0:0:0:
15,102,8358,1,0,0:0:0:0:
174,14,8547,1,0,0:0:0:0:
42,18,8736,6,0,P|73:37|91:70,1,74.7499965782167
1,277,8924,2,0,P|52:175|67:175,1,103.499996841431
96,235,9113,6,0,L|58:246,1,28.75
15,102,9302,1,0,0:0:0:0:
181,184,9490,6,0,B|167:266|167:266|170:275|170:275|153:373,1,184,8|0,0:0|0:0,0:0:0:0:
96,235,10056,1,0,0:0:0:0:
96,235,10245,6,0,P|96:300|82:325,1,57.5
44,384,10434,2,0,B|-22:404|-68:280|82:259|167:341,1,258.75000987053
247,355,10811,1,0,0:0:0:0:
255,352,10905,1,0,0:0:0:0:
263,348,11000,6,0,P|286:233|275:85,1,258.75000987053,8|0,0:0|0:0,0:0:0:0:
260,6,11377,2,0,P|201:48|199:103,1,115
413,305,11755,6,0,B|249:281|313:409|133:375,1,298.999986312867
10,95,12321,1,0,0:0:0:0:
43,4,12509,6,0,P|103:73|69:175,1,149.499993156433,8|0,0:0|0:0,0:0:0:0:
0,364,12886,1,0,0:0:0:0:
73,198,13075,6,0,P|43:220|8:234,1,74.7499965782167
10,95,13264,6,0,B|148:68|84:188|257:152,1,258.75000987053,4|0,0:0|0:0,0:0:0:0:
323,50,13641,2,0,P|406:34|477:80,1,172.500006580353
324,213,14019,1,8,0:0:0:0:
386,144,14207,1,0,0:0:0:0:
261,281,14396,2,0,B|139:293|139:293|104:322,1,155.249995262146,0|0,0:0|2:0,0:0:0:0:
282,361,14773,6,0,B|275:298|275:298|261:280,1,86.2500032901765
324,213,14962,1,0,0:0:0:0:
149,76,15151,1,0,0:0:0:0:
149,76,15245,2,0,P|177:136|152:199,1,137.999995788574
271,52,15528,6,0,B|370:12|369:109|487:61,1,206.999993682861,8|0,0:0|2:0,0:0:0:0:
307,131,15905,2,0,P|326:140|306:137,1,57.5
412,157,16283,6,0,P|347:232|249:216,1,206.999993682861
405,289,16660,2,0,P|306:296|248:215,1,206.999993682861
409,71,17038,6,0,L|412:159,1,86.25,8|0,3:1|2:0,0:0:0:0:
405,289,17415,1,0,0:0:0:0:
248,215,17604,1,0,0:0:0:0:
75,336,17792,5,0,0:0:0:0:
75,336,17887,2,0,B|86:233|86:233|75:200,1,137.999995788574,0|0,0:0|2:0,0:0:0:0:
32,95,18170,1,0,0:0:0:0:
32,95,18358,2,0,L|77:103,1,28.75
300,75,18547,6,0,B|200:16|168:91|120:153|30:80,1,258.75000987053,8|0,0:0|0:0,0:0:0:0:
358,157,18924,6,0,P|396:82|366:4,1,172.500006580353
268,299,19302,6,0,B|462:273|462:273|501:212,1,258.75000987053,0|0,0:0|2:0,0:0:0:0:
358,157,19679,1,0,0:0:0:0:
358,157,19868,2,0,L|329:160,1,28.75
151,54,20056,6,0,L|299:74,1,149.499993156433,8|0,0:0|0:0,0:0:0:0:
498,221,20434,1,0,0:0:0:0:
462,67,20622,1,0,0:0:0:0:
323,276,20811,6,0,P|289:291|253:285,1,74.7499965782167
142,162,21000,2,0,P|175:177|193:209,1,74.7499965782167
162,329,21189,1,0,0:0:0:0:
162,329,21377,2,0,L|106:336,1,28.75,0|0,0:0|2:0,0:0:0:0:
15,157,21566,6,8,B|183:225|158:10|343:82,1,345.000013160706,8|0,0:0|0:0,0:0:0:0:
277,190,22132,1,0,0:0:0:0:
277,190,22321,6,0,L|286:258,1,57.5
370,287,22509,2,0,P|281:287|342:371,1,230
444,245,22981,1,0,0:0:0:0:
375,191,23075,6,8,P|294:184|215:240,1,172.5,8|8,0:0|2:0,0:0:0:0:
154,312,23453,2,0,P|101:332|45:311,1,115
26,62,23830,6,0,B|55:133|3:138|48:188|48:188|66:167|103:169,1,172.500006580353
385,42,24585,6,8,P|497:61|472:175,1,258.75000987053,8|8,0:0|2:0,0:0:0:0:
421,105,24962,6,0,P|440:102|421:107,1,57.5
146,70,25308,6,0,P|117:122|6:118,1,172.5,4|0,0:0|0:0,0:0:0:0:
62,58,25686,2,0,P|53:26|54:-15,1,57.5
174,232,26063,5,8,0:0:0:0:
86,212,26252,1,0,0:0:0:0:
228,304,26441,2,0,P|195:304|161:316,1,57.5
1,302,26818,6,0,B|134:294|60:403|214:382,1,206.999993682861
290,352,27195,2,0,P|304:319|299:257,1,68.9999978942872
178,384,27573,5,8,0:0:0:0:
412,328,27762,1,0,0:0:0:0:
307,206,27950,2,0,P|350:212|405:229,1,68.9999978942872
501,20,28326,6,0,P|401:9|239:81,1,258.75000987053,2|0,0:1|0:0,0:0:0:0:
364,99,28704,6,0,P|301:184|288:281,1,191.475004674683,2|0,0:1|0:2,0:2:0:0:
364,255,29081,6,0,P|373:348|411:393,1,129.375004935265,10|0,0:1|0:2,0:2:0:0:
512,348,29459,6,0,P|479:317|420:304,1,86.2500032901765,0|0,0:2|0:2,0:2:0:0:
132,384,29837,2,0,P|175:370|216:326,1,86.2500032901765
268,7,30214,6,0,P|236:40|241:185,1,172.5
299,223,30591,5,8,0:0:0:0:
342,104,30780,2,0,P|300:152|293:179,1,57.5
322,366,30969,2,0,B|394:282|357:190|357:190|328:226|276:223,1,258.75000987053
299,223,31346,5,0,0:0:0:0:
472,10,31535,2,0,P|457:89|455:166,1,115
485,362,31912,1,0,0:0:0:0:
494,251,32101,6,0,P|426:269|384:322,1,115,8|0,0:0|0:0,0:0:0:0:
269,0,32478,1,0,0:0:0:0:
335,61,32667,6,0,P|362:125|291:281,1,224.24998973465
371,327,33044,2,0,P|254:344|170:284,1,172.5
313,264,33422,1,0,0:0:0:0:
138,376,33610,5,8,0:0:0:0:
138,376,33799,6,0,L|129:285,1,57.5
119,114,33988,2,0,B|113:130|113:130|127:267,1,137.999995788574
170,51,34365,5,0,0:0:0:0:
21,342,34554,2,0,B|38:186|38:186|32:169,2,172.500006580353
1,104,35120,6,0,P|41:38|87:18,1,68.9999978942872,8|0,0:0|0:0,0:0:0:0:
90,104,35308,2,0,P|163:95|221:141,1,86.2500032901765
137,175,35497,1,0,0:0:0:0:
275,90,35686,6,0,P|266:17|312:-41,1,86.2500032901765
345,40,35874,2,0,P|387:-4|446:-4,1,86.2500032901765
446,273,36063,6,0,P|373:282|315:236,1,86.2500032901765
396,203,36251,2,0,P|352:161|352:102,1,86.2500032901765
425,131,36441,6,0,L|464:122,1,28.75
384,365,36629,2,0,L|345:356,1,28.75,8|0,0:0|0:0,0:0:0:0:
425,131,36818,5,0,0:0:0:0:
275,365,37007,2,0,L|209:380,1,57.5
148,354,37289,1,0,0:0:0:0:
148,354,37383,5,4,0:0:0:0:
40,112,37572,5,0,0:0:0:0:
152,138,37760,1,0,0:0:0:0:
40,112,37949,1,0,0:0:0:0:
300,294,38138,6,0,B|386:345|504:255|488:148|394:47|268:103|254:181|301:255|386:214,1,460,8|0,0:0|0:0,0:0:0:0:
339,222,38704,1,0,0:0:0:0:
252,37,38892,6,0,L|172:48,1,57.5,0|0,0:0|2:0,0:0:0:0:
124,153,39081,2,0,L|204:142,1,57.5,0|0,0:0|2:0,0:0:0:0:
117,26,39270,2,0,L|75:31,1,28.75,0|0,0:0|2:0,0:0:0:0:
272,143,39458,2,0,L|313:137,1,28.75,0|0,0:0|2:0,0:0:0:0:
141,246,39647,6,0,B|81:252|81:252|66:293|66:293|83:268|96:267,1,137.999995788574,8|0,0:0|0:0,0:0:0:0:
117,26,40024,1,0,0:0:0:0:
10,76,40213,1,0,0:0:0:0:
241,163,40402,6,0,L|281:168,1,28.75,0|0,0:0|2:0,0:0:0:0:
337,123,40591,1,0,0:0:0:0:
404,232,40779,1,0,0:0:0:0:
352,317,40968,1,0,0:0:0:0:
494,44,41157,6,0,P|441:24|383:41,1,115,8|0,0:0|0:0,0:0:0:0:
269,166,41534,5,0,0:0:0:0:
470,216,41723,2,0,P|471:159|435:110,1,115
269,166,42100,2,0,P|279:176|277:193,1,28.75
220,259,42289,2,0,P|206:262|192:252,1,28.75
155,159,42477,2,0,P|158:145|174:138,1,28.75
309,332,42666,6,0,B|248:317|246:367|169:335,1,137.999995788574,8|0,0:0|0:0,0:0:0:0:
98,71,43043,1,0,0:0:0:0:
47,207,43232,2,0,L|51:247,1,28.75,0|0,0:0|2:0,0:0:0:0:
168,20,43421,5,0,0:0:0:0:
317,142,43609,2,0,B|439:122|439:122|402:209|402:209|355:154,1,258.75000987053
358,15,43987,1,0,0:0:0:0:
492,202,44175,6,0,B|423:360|423:360|314:226,1,345.000013160706,8|0,0:0|0:0,0:0:0:0:
358,15,44741,1,0,0:0:0:0:
134,137,44930,6,0,P|63:126|19:33,1,172.5
116,29,45308,2,0,P|124:49|107:36,1,57.5
232,97,45496,2,0,P|224:76|241:90,1,57.5
218,248,45685,6,0,B|165:309|62:273|62:273|106:263|125:213,1,232.875000888348,8|0,0:0|0:0,0:0:0:0:
52,195,46062,2,0,L|54:166,1,28.75
218,248,46251,6,0,B|216:334|105:376|105:376|135:337|122:305,1,258.75000987053
52,195,46628,5,0,0:0:0:0:
118,80,46817,1,0,0:0:0:0:
261,112,47006,1,0,0:0:0:0:
410,342,47194,5,8,0:0:0:0:
444,48,47383,1,0,0:0:0:0:
400,237,47572,2,0,L|394:189,1,28.75
184,64,47760,6,0,B|133:157|225:157|180:251|180:251|179:204|135:184,1,258.75000987053
97,257,48138,1,0,0:0:0:0:
261,112,48326,6,0,P|279:109|301:96,1,28.75
89,41,48515,2,0,P|76:47|65:57,1,28.75
296,224,48704,6,0,B|367:195|407:255|439:263|480:229|468:180|430:150|374:203,1,258.75000987053,8|0,0:0|0:0,0:0:0:0:
330,315,49081,1,0,0:0:0:0:
330,315,49270,2,0,L|333:372,1,43.1250016450883
168,24,49458,5,4,0:0:0:0:
158,142,49647,6,0,P|89:168|57:161,1,86.2500032901765
61,280,49836,2,0,P|3:233|-6:202,1,86.2500032901765
99,88,50024,6,0,L|101:53,1,28.75
166,384,50213,6,0,P|143:339|148:288,1,86.2500032901765,8|0,0:0|0:0,0:0:0:0:
395,240,50402,2,0,P|387:267|370:290,1,57.5
267,384,50591,5,0,0:0:0:0:
285,107,50779,1,0,0:0:0:0:
512,381,50968,6,0,P|478:324|476:213,1,172.500006580353
479,5,51345,2,0,B|548:-14|587:73|481:160|347:47,1,258.75000987053
320,41,51723,6,0,P|360:8|423:6,1,86.2500032901765,8|0,0:0|0:0,0:0:0:0:
350,300,52100,2,0,P|361:341|351:382,1,86.2500032901765
92,347,52477,6,0,B|60:341|60:341|155:326,1,129.375004935265
229,338,52855,1,0,0:0:0:0:
229,338,53043,6,0,L|222:387,1,43.1250016450883
226,207,53232,2,0,L|214:30,1,160.99999508667,8|0,0:0|0:0,0:0:0:0:
183,275,53609,1,0,0:0:0:0:
351,69,53798,6,0,P|380:154|209:187,1,293.2500055933
141,216,54175,2,0,P|158:148|229:117,1,115
284,131,54553,1,0,0:0:0:0:
100,332,54741,6,0,P|63:260|96:125,1,172.5,8|0,0:0|0:0,0:0:0:0:
109,28,55119,6,0,B|157:21|157:21|126:45,1,68.9999978942872
6,102,55496,6,0,B|134:70|119:129|166:202|311:118,1,275.999991577149
143,9,56062,1,0,0:0:0:0:
55,187,56251,6,0,B|18:232|18:232|134:201,1,137.999995788574,8|0,0:0|0:0,0:0:0:0:
6,102,56628,1,0,0:0:0:0:
123,337,56817,6,0,B|177:316|177:316|20:307,1,206.999993682861
29,308,57194,6,0,P|8:357|30:408,2,92
152,204,57760,2,0,B|210:173|181:111|68:100|39:199,1,206.999993682861,8|0,0:0|0:0,0:0:0:0:
21,235,58138,2,0,P|45:139|22:66,1,137.999995788574
8,17,58515,5,0,0:0:0:0:
38,102,58704,1,0,0:0:0:0:
159,182,58892,1,0,0:0:0:0:
346,166,59081,1,0,0:0:0:0:
510,13,59270,6,0,P|474:131|475:175,1,137.999995788574,8|0,0:0|0:0,0:0:0:0:
482,381,59647,2,0,B|513:354|513:354|335:375,1,206.999993682861
273,366,60024,6,0,L|277:323,1,43.1250016450883
288,236,60213,1,0,0:0:0:0:
194,378,60402,1,0,0:0:0:0:
375,222,60591,1,0,0:0:0:0:
375,222,60685,1,0,0:0:0:0:
375,222,60779,6,0,P|321:157|243:164,1,115,8|0,0:0|0:0,0:0:0:0:
437,54,60968,2,0,P|361:97|353:137,1,86.2500032901765
434,135,61157,6,0,B|498:125|498:125|477:149,1,86.25
484,140,61534,5,4,0:0:0:0:
306,306,61911,2,0,L|204:296,1,86.2500032901765
93,32,62289,5,8,0:0:0:0:
232,18,62477,1,0,0:0:0:0:
248,142,62666,1,0,0:0:0:0:
53,205,62855,6,0,B|32:253|32:253|63:300|63:300|92:242,1,172.500006580353
123,95,63421,2,0,B|115:112|115:112|126:128|126:128|136:108,1,57.5
349,48,63798,6,0,P|377:59|399:84,1,57.5,8|0,0:0|2:0,0:0:0:0:
460,190,63987,2,0,P|468:163|461:135,1,57.5,0|0,0:0|2:0,0:0:0:0:
330,126,64175,6,0,P|341:136|345:152,1,28.75,0|0,0:0|2:0,0:0:0:0:
296,272,64364,2,0,P|302:260|302:246,1,28.75,0|0,0:0|2:0,0:0:0:0:
36,40,64553,6,0,B|116:10|116:74|204:42,1,172.500006580353
74,137,64930,1,0,0:0:0:0:
29,229,65119,6,0,L|34:271,1,28.75
131,363,65308,6,0,L|148:214,1,149.499993156433,8|0,0:0|0:0,0:0:0:0:
379,208,65685,6,0,L|374:166,1,28.75
277,74,65874,6,0,L|259:222,1,149.499993156433
74,138,66251,5,0,0:0:0:0:
421,23,66440,1,0,0:0:0:0:
459,164,66628,1,0,0:0:0:0:
177,295,66817,6,0,P|161:302|130:303,1,28.75,8|0,0:0|0:0,0:0:0:0:
145,183,67006,2,0,P|112:170|67:128,1,86.2500032901765
270,169,67194,2,0,P|235:90|222:5,1,172.500006580353
371,260,67572,6,0,B|393:285|415:231|416:275|438:328|438:328|441:271|427:229|466:273|486:244,1,230
439,151,68138,2,0,L|443:116,1,28.75
309,18,68326,6,0,B|326:71|326:71|323:108,1,74.7499965782167,8|0,0:0|0:0,0:0:0:0:
249,114,68515,2,0,B|223:163|223:163|208:175,1,74.7499965782167
35,288,68704,2,0,B|73:291|73:291|180:258,1,149.499993156433
460,35,69081,6,8,B|388:158|467:176|551:255|467:329|263:317|376:72|552:192,1,460,0|8,0:0|0:0,0:0:0:0:
346,111,70024,1,0,0:0:0:0:
318,21,70213,1,0,0:0:0:0:
248,185,70402,6,0,P|245:199|245:213,1,28.75
102,146,70591,6,0,B|94:22|94:22|109:64,1,155.250000592232
249,319,70968,1,0,0:0:0:0:
336,269,71157,1,0,0:0:0:0:
56,292,71345,6,0,B|104:49|104:49|95:102|111:138,1,310.500001184463,8|0,0:0|0:0,0:0:0:0:
343,148,71911,6,0,L|349:175,1,28.75
22,354,72100,6,0,B|8:383|-25:377|-25:377|71:169|71:169|61:208|74:235,1,345.000013160706
138,327,72666,1,0,0:0:0:0:
368,75,72855,6,0,P|414:145|327:302,1,258.75000987053,8|0,0:0|0:0,0:0:0:0:
368,75,73232,6,0,P|362:103|302:120,1,57.5
368,75,73421,6,0,P|356:82|330:68,1,28.75
55,137,73609,6,4,B|4:69|4:69|316:118,1,345
440,175,73987,2,0,P|425:282|438:400,1,172.500006580353
428,346,74270,1,0,0:0:0:0:
428,346,74364,6,0,B|453:306|453:306|431:234,1,86.2500032901765,8|0,0:0|0:0,0:0:0:0:
339,33,74553,2,0,B|385:43|385:43|416:19,1,86.2500032901765
416,19,74741,6,0,B|354:10|354:10|341:76,1,115
512,24,75119,6,0,B|479:-4|479:-4|280:15,1,218.499994165421
41,48,75496,1,0,0:0:0:0:
41,48,75591,2,0,B|-14:60|-14:60|163:91,1,172.500006580353
290,93,75874,6,0,P|208:19|240:133,1,258.75000987053,8|0,0:0|0:0,0:0:0:0:
257,169,76251,5,0,0:0:0:0:
257,169,76440,2,0,L|254:214,1,28.75
215,366,76628,6,0,P|274:238|262:30,1,310.499990524292
95,285,77006,2,0,P|79:131|0:0,1,310.499990524292
0,197,77383,6,0,B|-24:247|-24:247|44:281,1,103.499996841431,8|0,0:0|0:0,0:0:0:0:
218,199,77572,2,0,P|121:197|60:221,1,155.249995262146
67,216,77760,5,0,0:0:0:0:
67,216,77949,1,0,0:0:0:0:
74,351,78138,6,0,B|135:334|135:334|169:358|169:358|247:338,1,155.249995262146
217,345,78326,6,0,B|228:285|228:285|172:275,1,115
1,378,78515,1,0,0:0:0:0:
288,233,78704,6,0,P|330:158|345:42,1,172.5
392,14,78892,2,0,B|334:-11|334:-11|286:30,1,115,8|0,0:0|0:0,0:0:0:0:
361,360,79270,5,0,0:0:0:0:
346,73,79458,1,0,0:0:0:0:
461,341,79647,6,0,B|512:286|512:286|228:259,1,345
58,319,80024,6,0,B|34:354|34:354|179:331,1,172.5
189,329,80213,1,0,0:0:0:0:
181,195,80402,6,0,P|111:142|91:244,1,230,8|0,0:0|0:0,0:0:0:0:
268,371,80779,1,0,0:0:0:0:
268,371,80968,2,0,L|272:322,1,43.1250016450883
346,33,81157,6,0,B|339:99|339:99|344:108|344:108|329:217,1,172.5
330,202,81345,6,0,P|266:175|250:109,1,115
170,157,81534,2,0,P|185:75|216:53,1,86.2500032901765
146,9,81723,2,0,P|203:3|222:7,1,57.5
261,56,81911,5,8,0:0:0:0:
235,329,82289,1,0,0:0:0:0:
261,56,82477,6,0,L|256:113,1,57.5
235,329,82666,5,0,0:0:0:0:
297,274,82855,2,0,B|330:232|248:187|248:187|149:218|195:279,1,230
235,329,83326,1,0,0:0:0:0:
235,329,83421,6,0,B|150:309|156:378|66:354,1,172.5,8|0,0:0|0:0,0:0:0:0:
1,339,83798,6,0,P|35:296|94:291,1,115
393,349,84175,6,0,B|366:424|313:388|286:367|284:331|297:285|348:257|392:253|406:162|346:73,1,402.499987716675
302,46,84741,2,0,B|327:12|327:12|378:21,1,80.499997543335
203,377,84930,6,0,P|170:294|175:166,1,206.999993682861,8|0,0:0|0:0,0:0:0:0:
231,6,85308,2,0,P|227:58|209:109,1,80.499997543335
93,318,85496,1,0,0:0:0:0:
363,76,85685,6,0,B|381:260|381:260|347:322|347:322|335:215,1,345,4|0,0:0|0:0,0:0:0:0:
474,11,86062,2,0,L|496:207,1,172.500006580353
493,182,86345,1,0,0:0:0:0:
493,182,86440,6,0,P|470:217|484:256,1,86.2500032901765,8|0,0:0|0:0,0:0:0:0:
363,76,86628,2,0,P|372:116|409:134,1,86.2500032901765
167,88,86817,6,0,P|215:118|269:99,1,115
222,41,87194,6,0,B|71:70|71:70|42:182,1,218.499994165421
298,313,87572,1,0,0:0:0:0:
298,313,87666,2,0,B|375:286|374:355|484:308,1,172.500006580353
222,41,87949,6,0,B|155:156|241:148|201:267|201:267|232:209|314:200,1,345,8|0,0:0|0:0,0:0:0:0:
100,205,88326,1,0,0:0:0:0:
100,205,88515,6,0,L|59:217,1,28.75
222,41,88704,6,0,B|458:109|458:109|514:187,1,310.499990524292
374,325,89081,2,0,B|137:256|137:256|81:178,1,310.499990524292
312,157,89458,6,0,P|343:183|302:189,1,103.499996841431,8|0,1:0|3:0,3:0:0:0:
218,144,89647,2,0,B|146:176|146:106|69:133,1,155.249995262146
69,133,89836,5,0,0:0:0:0:
69,133,90024,1,0,0:0:0:0:
403,41,90213,6,0,L|427:205,1,155.249995262146,0|0,0:0|2:0,0:0:0:0:
425,194,90402,2,0,L|452:5,1,155.249995262146
425,278,90591,1,0,0:0:0:0:
248,332,90779,6,0,P|218:334|191:322,1,57.5,0|0,0:0|2:0,0:0:0:0:
221,144,90968,2,0,P|229:255|214:147,1,345,8|0,0:0|2:0,0:0:0:0:
425,194,91345,1,0,0:0:0:0:
224,0,91534,1,0,0:0:0:0:
33,303,91723,6,0,B|57:57|57:57|100:147,1,345
113,345,92100,2,0,B|124:221|124:221|146:266,1,172.500006580353
355,65,92477,6,0,P|396:58|454:89,1,86.2500032901765,8|0,0:0|0:0,0:0:0:0:
272,117,92666,2,0,P|231:105|192:53,1,86.2500032901765
389,143,92855,1,0,0:0:0:0:
389,143,93043,6,0,L|396:179,1,28.75
299,353,93232,6,0,L|331:185,1,129.375004935265
323,226,93421,2,0,L|333:282,1,57.5
177,326,93609,2,0,P|100:360|22:328,1,172.500006580353
322,35,93987,6,0,B|379:51|441:30|441:30|398:79|376:153|376:153|418:183|408:239,1,345.000013160706,8|0,0:0|0:0,0:0:0:0:
323,226,94364,1,0,0:0:0:0:
477,133,94553,5,0,0:0:0:0:
323,226,94741,6,0,L|320:259,1,28.75
379,307,94930,2,0,B|353:315|345:332|362:357|362:357|336:365|320:382|320:382|303:365|278:357|278:357|294:332|286:315|261:307,1,230
228,226,95402,1,0,0:0:0:0:
228,226,95496,6,0,B|143:206|146:284|60:246,1,172.5,8|0,0:0|0:0,0:0:0:0:
101,169,95874,6,0,L|85:75,1,86.2500032901765
204,306,96251,6,0,L|200:328,1,23
199,328,96817,1,0,0:0:0:0:
304,32,97006,6,0,B|400:14|399:117|539:91|539:91|504:119|478:156,1,301.875011515618,8|0,0:0|0:0,0:0:0:0:
502,125,97383,1,0,0:0:0:0:
502,125,97572,1,0,0:0:0:0:
256,192,97760,5,4,0:0:0:0:
