osu file format v14

[General]
AudioFilename: audio.mp3
AudioLeadIn: 0
PreviewTime: 142193
Countdown: 0
SampleSet: Soft
StackLeniency: 0.7
Mode: 0
LetterboxInBreaks: 0
WidescreenStoryboard: 0

[Editor]
Bookmarks: 198443
DistanceSpacing: 1.5
BeatDivisor: 8
GridSize: 4
TimelineZoom: 3.900004

[Metadata]
Title:I AM THE BEST
TitleUnicode:I AM THE BEST
Artist:2NE1
ArtistUnicode:2NE1
Creator:P o M u T a
Version:OMG
Source:
Tags:nolza pomuta 내가 제일 잘 나가 tu-aeniwon T'u-aeniwŏn 투애니원 twenty-one to anyone kpop k-pop bom dara cl minzy
BeatmapID:981654
BeatmapSetID:458077

[Difficulty]
HPDrainRate:6.5
CircleSize:4.3
OverallDifficulty:7.5
ApproachRate:8.7
SliderMultiplier:1.4
SliderTickRate:2

[Events]
//Background and Video events
Video,0,"2NE1 - I AM THE BEST Japanese Ver.avi"
0,0,"bg.jpg",0,0
//Break Periods
2,127870,133783
2,187870,190268
//Storyboard Layer 0 (Background)
//Storyboard Layer 1 (Fail)
//Storyboard Layer 2 (Pass)
//Storyboard Layer 3 (Foreground)
//Storyboard Sound Samples

[TimingPoints]
171,468.75,4,2,0,80,1,0
20385,-100,4,2,0,20,0,0
20561,-100,4,2,0,80,0,0
22202,-66.6666666666667,4,2,0,80,0,0
35796,-200,4,2,0,80,0,0
36733,-200,4,2,0,40,0,0
37553,-200,4,2,0,20,0,0
37671,-66.6666666666667,4,2,0,80,0,0
80796,-142.857142857143,4,2,0,80,0,0
82671,-57.1428571428571,4,2,0,80,0,1
84487,-57.1428571428571,4,2,0,20,0,1
84546,-57.1428571428571,4,2,0,80,0,1
88237,-57.1428571428571,4,2,0,20,0,1
88296,-57.1428571428571,4,2,0,80,0,1
91987,-57.1428571428571,4,2,0,20,0,1
92046,-57.1428571428571,4,2,0,80,0,1
95796,-100,4,2,0,80,0,0
97085,-100,4,2,0,20,0,0
97671,-66.6666666666667,4,2,0,80,0,0
134936,-133.333333333333,4,2,0,80,0,0
135171,-66.6666666666667,4,2,0,80,0,0
140796,-100,4,2,0,80,0,0
142202,-50,4,2,0,80,0,0
142671,-57.1428571428571,4,2,0,80,0,1
144487,-57.1428571428571,4,2,0,20,0,1
144546,-57.1428571428571,4,2,0,80,0,1
148237,-57.1428571428571,4,2,0,20,0,1
148296,-57.1428571428571,4,2,0,80,0,1
151987,-57.1428571428571,4,2,0,20,0,1
152046,-57.1428571428571,4,2,0,80,0,1
155796,-100,4,2,0,80,0,0
157085,-100,4,2,0,20,0,0
157671,-133.333333333333,4,2,0,80,0,0
172671,-57.1428571428571,4,2,0,80,0,0
187202,-80,4,2,0,80,0,0
187671,-80,4,2,0,20,0,0
190952,-66.6666666666667,4,2,0,80,0,0
191421,-57.1428571428571,4,2,0,80,0,0
205014,-200,4,2,0,80,0,0
205249,-200,4,2,0,40,0,0
206186,-200,4,2,0,20,0,0

[Colours]
Combo1 : 255,181,218
Combo2 : 209,209,209
Combo3 : 255,223,191
Combo4 : 136,217,255

[HitObjects]
372,56,7202,5,0,0:0:0:0:
480,147,7436,1,0,0:0:0:0:
296,100,7671,6,0,B|268:112|268:112|196:92|196:92|160:104,1,140
256,28,8374,1,0,0:0:0:0:
207,174,8608,2,0,L|218:254,1,70
128,196,9077,1,0,0:0:0:0:
298,244,9311,1,0,0:0:0:0:
98,179,9546,2,0,L|109:259,1,70
123,317,9897,1,0,0:0:0:0:
123,317,10014,2,0,P|91:336|45:332,1,70
98,179,10483,2,0,P|97:141|124:103,1,70
9,279,10952,1,0,0:0:0:0:
172,156,11186,1,0,0:0:0:0:
9,23,11421,6,0,L|23:171,1,140
108,79,12124,1,0,0:0:0:0:
172,156,12358,2,0,P|201:122|208:99,1,70
108,79,12827,1,0,0:0:0:0:
123,232,13061,1,0,0:0:0:0:
327,173,13296,2,0,L|248:178,1,70
299,256,13647,1,0,0:0:0:0:
299,256,13764,2,0,L|378:251,1,70
256,103,14233,1,0,0:0:0:0:
214,245,14467,1,0,0:0:0:0:
182,155,14702,1,0,0:0:0:0:
299,256,14936,1,0,0:0:0:0:
174,358,15171,6,0,L|30:351,1,140
255,324,15874,1,0,0:0:0:0:
104,195,16108,2,0,L|118:271,1,70
246,92,16577,1,0,0:0:0:0:
218,193,16811,1,0,0:0:0:0:
45,81,17046,2,0,P|83:86|118:72,1,70
167,21,17397,1,0,0:0:0:0:
167,21,17514,2,0,L|240:25,1,70
441,77,17983,2,0,L|368:81,1,70
204,209,18452,1,0,0:0:0:0:
353,246,18686,1,0,0:0:0:0:
264,95,18921,6,0,L|284:204,1,105
263,271,19389,1,0,0:0:0:0:
372,152,19624,1,0,0:0:0:0:
163,148,19858,1,0,0:0:0:0:
26,211,20092,1,0,0:0:0:0:
264,294,20327,2,0,L|262:269,1,23.3333333333333
100,372,20561,2,0,L|98:347,1,17.5
340,321,20796,6,0,B|305:336|270:319|270:319|244:343|207:335,1,140
325,242,21499,1,0,0:0:0:0:
171,134,21733,2,0,L|160:249,1,105
33,152,22202,6,0,P|106:174|171:135,1,157.500006008148
2,226,22671,6,0,L|13:341,1,105.000004005432,4|0,0:0|0:0,0:0:0:0:
102,280,23022,1,0,0:0:0:0:
102,280,23139,2,0,L|92:384,1,105.000004005432,8|0,0:0|0:0,0:0:0:0:
341,250,23608,1,0,0:3:0:0:
171,134,23842,1,0,0:3:0:0:
41,107,23960,2,0,B|65:147|65:147|108:114|172:134,1,157.500006008148,0|0,0:3|0:3,0:3:0:0:
350,67,24546,6,0,P|301:95|241:81,1,105.000004005432
286,7,24897,1,0,0:0:0:0:
427,22,25014,2,0,P|440:75|419:127,1,105.000004005432,8|0,0:0|0:0,0:0:0:0:
308,294,25483,2,0,L|316:242,1,52.5000020027161
181,219,25717,2,0,L|190:271,1,52.5000020027161
345,366,25952,2,0,L|362:265,1,52.5000020027161,8|0,0:0|0:0,0:0:0:0:
133,275,26186,2,0,L|142:327,1,52.5000020027161
230,148,26421,6,0,L|123:143,1,105.000004005432
33,136,26772,1,0,0:0:0:0:
11,116,26889,2,0,P|-8:55|10:11,1,105.000004005432,8|0,0:0|0:0,0:0:0:0:
86,212,27358,1,0,0:0:0:0:
260,228,27592,1,0,0:0:0:0:
230,311,27710,2,0,P|155:328|89:290,1,157.500006008148
327,356,28296,6,0,B|314:315|314:315|330:251,1,105.000004005432
405,267,28647,1,0,0:0:0:0:
478,175,28764,2,0,B|494:236|494:236|481:277,1,105.000004005432,8|0,0:0|0:0,0:0:0:0:
160,148,29233,2,0,P|190:145|212:119,1,52.5000020027161
206,36,29467,2,0,P|185:20|160:19,1,52.5000020027161
305,130,29702,2,0,P|326:146|352:148,1,52.5000020027161,8|0,0:0|0:0,0:0:0:0:
352,19,29936,2,0,P|326:20|305:36,1,52.5000020027161
500,83,30171,6,0,L|394:83,1,105.000004005432
351,148,30522,1,0,0:0:0:0:
427,203,30639,2,0,L|327:244,1,105.000004005432,8|0,0:0|0:0,0:0:0:0:
81,192,31108,1,0,0:0:0:0:
119,351,31342,1,0,0:0:0:0:
200,375,31460,2,0,B|214:317|168:281|168:281|168:227,1,157.500006008148
335,13,32046,6,0,P|338:64|313:110,1,105.000004005432
256,46,32397,1,0,0:0:0:0:
198,110,32514,2,0,P|173:64|177:13,1,105.000004005432,8|0,0:0|0:0,0:0:0:0:
308,244,32983,2,0,L|361:235,1,52.5000020027161
423,305,33217,2,0,L|476:296,1,52.5000020027161
345,259,33452,2,0,L|398:250,1,52.5000020027161,8|0,0:0|0:0,0:0:0:0:
460,320,33686,2,0,L|513:311,1,52.5000020027161
451,96,33921,6,0,P|445:156|468:212,1,105.000004005432
458,197,34272,1,0,0:0:0:0:
370,167,34389,2,0,L|246:173,1,105.000004005432,8|0,0:0|0:0,0:0:0:0:
81,179,34858,1,0,0:0:0:0:
210,377,35092,2,0,L|157:381,1,52.5000020027161
256,316,35327,2,0,L|362:326,1,105.000004005432,8|0,0:0|0:0,0:0:0:0:
126,45,35796,5,0,0:0:0:0:
386,45,36030,1,0,0:0:0:0:
256,235,36264,2,0,L|256:162,1,70
80,120,36967,5,0,0:0:0:0:
31,192,37085,1,0,0:0:0:0:
80,264,37202,2,0,B|93:264|93:264|127:245,1,52.5
183,192,37671,5,4,0:0:0:0:
256,343,37905,1,0,0:0:0:0:
329,192,38139,1,8,0:0:0:0:
136,323,38374,1,0,0:0:0:0:
376,323,38608,1,0,0:0:0:0:
376,61,38842,1,0,0:0:0:0:
376,323,39077,2,0,L|502:315,1,105.000004005432,8|0,0:0|0:0,0:0:0:0:
306,372,39546,6,0,P|292:303|351:241,1,157.500006008148
433,206,40014,2,0,L|267:196,1,157.500006008148,8|0,0:0|0:0,0:0:0:0:
198,335,40483,2,0,P|123:347|68:294,1,157.500006008148
31,208,40952,2,0,L|21:365,1,157.500006008148,8|0,0:0|0:0,0:0:0:0:
161,104,41421,6,0,L|53:113,1,105.000004005432
161,104,41772,2,0,L|214:100,1,52.5000020027161,0|8,0:0|0:0,0:0:0:0:
4,116,42124,2,0,L|57:112,1,52.5000020027161
161,104,42358,2,0,L|214:100,1,52.5000020027161
280,141,42592,1,0,0:0:0:0:
280,61,42710,1,0,0:0:0:0:
208,28,42827,1,8,0:0:0:0:
349,25,43061,1,0,0:0:0:0:
486,198,43296,6,0,L|475:88,1,105.000004005432
384,164,43647,1,0,0:0:0:0:
388,122,43764,1,8,0:0:0:0:
216,224,43999,2,0,P|190:206|178:187,1,52.5000020027161
263,305,44233,2,0,P|265:335|275:355,1,52.5000020027161
301,228,44467,1,0,0:0:0:0:
72,192,44702,1,8,0:0:0:0:
301,156,44936,1,0,0:0:0:0:
84,73,45171,6,0,B|56:52|56:52|78:30|129:42,1,105.000004005432
199,74,45522,1,0,0:0:0:0:
273,36,45639,2,0,B|320:15|320:61|373:36,1,105.000004005432,8|0,0:0|0:0,0:0:0:0:
496,220,46108,2,0,B|514:194|514:194|493:118,1,105.000004005432
449,288,46460,1,0,0:0:0:0:
344,294,46577,2,0,L|448:287,1,105.000004005432,8|0,0:0|0:0,0:0:0:0:
176,226,47046,6,0,P|210:281|187:369,1,157.500006008148
258,207,47514,2,0,L|266:102,1,105.000004005432,8|0,0:0|0:0,0:0:0:0:
105,289,47983,2,0,P|81:216|118:149,1,157.500006008148
27,25,48452,2,0,L|36:130,1,105.000004005432,8|0,0:0|0:0,0:0:0:0:
318,99,48921,6,0,L|266:102,1,52.5000020027161
418,51,49155,2,0,L|368:39,1,52.5000020027161
491,19,49389,1,8,0:0:0:0:
448,261,49624,2,0,L|458:319,1,52.5000020027161
379,230,49858,2,0,P|417:192|482:192,1,105.000004005432
456,312,50210,2,0,L|446:370,1,52.5000020027161,0|8,0:0|0:0,0:0:0:0:
392,118,50561,1,0,0:0:0:0:
305,314,50796,5,0,0:0:0:0:
141,158,51030,1,0,0:0:0:0:
186,143,51147,1,0,0:0:0:0:
230,159,51264,2,0,P|244:211|242:240,1,52.5000020027161,8|0,0:0|0:0,0:0:0:0:
224,290,51499,6,0,P|210:342|212:371,1,52.5000020027161
288,94,51733,2,0,P|302:42|300:13,1,52.5000020027161
212,1,51967,1,0,0:0:0:0:
192,14,52026,1,0,0:0:0:0:
170,24,52085,1,0,0:0:0:0:
146,24,52143,1,0,0:0:0:0:
122,17,52202,2,0,P|94:19|64:35,1,52.5000020027161,8|0,0:0|0:0,0:0:0:0:
27,93,52436,2,0,P|25:127|37:150,1,52.5000020027161
104,190,52671,6,0,P|51:186|0:218,1,105.000004005432
229,212,53139,2,0,L|215:97,1,105.000004005432,8|0,0:0|0:0,0:0:0:0:
69,275,53608,1,0,0:0:0:0:
225,361,53842,1,0,0:0:0:0:
225,361,53960,1,0,0:0:0:0:
225,361,54077,1,8,0:0:0:0:
359,244,54311,2,0,P|387:236|415:240,1,52.5000020027161
487,228,54546,6,0,P|459:182|411:164,1,105.000004005432
325,146,54897,1,0,0:0:0:0:
382,77,55014,2,0,L|370:16,1,52.5000020027161,8|0,0:0|0:0,0:0:0:0:
316,171,55249,1,0,0:0:0:0:
58,132,55483,2,0,P|111:142|165:119,1,105.000004005432
114,185,55835,1,0,0:0:0:0:
165,229,55952,2,0,P|115:219|66:237,1,105.000004005432,8|0,0:0|0:0,0:0:0:0:
308,352,56421,6,0,B|283:367|283:367|222:360|222:360|204:364,1,105.000004005432
261,288,56772,1,0,0:0:0:0:
236,219,56889,2,0,P|267:214|296:224,1,52.5000020027161,8|0,0:0|0:0,0:0:0:0:
261,288,57124,1,0,0:0:0:0:
196,28,57358,2,0,P|189:85|211:136,1,105.000004005432
289,142,57710,1,0,0:0:0:0:
388,138,57827,2,0,P|337:125|288:141,1,105.000004005432,8|0,0:0|0:0,0:0:0:0:
139,226,58296,6,0,B|109:240|109:240|33:230,1,105.000004005432
2,160,58647,1,0,0:0:0:0:
64,310,58764,2,0,P|132:316|173:334,1,105.000004005432,8|0,0:0|0:0,0:0:0:0:
448,310,59233,2,0,P|380:316|339:334,1,105.000004005432
260,381,59585,1,0,0:0:0:0:
256,281,59702,2,0,B|263:238|241:209|241:209|260:213|278:209,1,105.000004005432,8|0,0:0|0:0,0:0:0:0:
460,87,60171,6,0,P|403:89|363:117,1,105.000004005432
176,47,60522,1,0,0:0:0:0:
197,71,60639,2,0,L|306:64,1,105.000004005432,8|0,0:0|0:0,0:0:0:0:
135,191,61108,1,0,0:0:0:0:
7,24,61342,1,0,0:0:0:0:
10,66,61460,1,0,0:0:0:0:
14,107,61577,2,0,B|60:126|60:126|117:115,1,105.000004005432,8|0,0:0|0:0,0:0:0:0:
369,247,62046,6,0,L|313:252,1,52.5000020027161
143,247,62280,2,0,L|195:251,1,52.5000020027161
437,280,62514,2,0,L|347:288,1,52.5000020027161,8|0,0:0|0:0,0:0:0:0:
74,280,62749,2,0,L|158:287,1,52.5000020027161
318,131,62983,2,0,P|256:173|195:131,1,157.500006008148
256,206,63452,2,0,L|256:314,1,105.000004005432,8|0,0:0|0:0,0:0:0:0:
460,194,63921,6,0,P|471:143|457:89,1,105.000004005432
269,54,64272,1,0,0:0:0:0:
289,81,64389,2,0,P|342:85|386:49,1,105.000004005432,8|0,0:0|0:0,0:0:0:0:
162,36,64858,2,0,P|131:34|93:41,1,52.5000020027161
205,115,65092,2,0,P|174:117|136:110,1,52.5000020027161
76,150,65327,2,0,P|71:121|75:93,1,52.5000020027161,8|0,0:0|0:0,0:0:0:0:
0,231,65561,2,0,P|5:202|1:174,1,52.5000020027161
79,276,65796,6,0,P|72:320|96:384,1,105.000004005432
210,94,66264,2,0,L|314:103,1,105.000004005432,8|0,0:0|0:0,0:0:0:0:
485,208,66733,2,0,L|380:217,1,105.000004005432
291,300,67085,1,0,0:0:0:0:
332,308,67202,2,0,L|402:320,1,52.5000020027161,12|0,0:0|0:0,0:0:0:0:
470,339,67436,1,0,0:0:0:0:
470,339,67671,5,0,0:0:0:0:
53,192,68608,1,0,0:0:0:0:
198,357,69546,1,0,0:0:0:0:
256,303,69897,1,0,0:0:0:0:
329,331,70249,1,0,0:0:0:0:
53,192,71421,5,0,0:0:0:0:
306,43,72358,1,0,0:0:0:0:
191,266,73296,1,0,0:0:0:0:
132,192,73647,1,0,0:0:0:0:
217,152,73999,1,0,0:0:0:0:
460,340,74467,6,0,L|464:310,1,26.2500010013581,2|0,0:3|0:0,0:0:0:0:
463,287,74585,2,0,L|458:254,1,26.2500010013581,2|0,0:3|0:0,0:0:0:0:
452,235,74702,1,8,0:0:0:0:
312,117,74936,2,0,P|312:144|320:171,1,52.5000020027161
360,68,75171,6,0,L|244:84,1,105.000004005432
172,154,75522,1,0,0:0:0:0:
116,102,75639,2,0,P|108:74|142:2,1,105.000004005432,8|0,0:0|0:0,0:0:0:0:
219,354,76108,2,0,L|232:250,1,105.000004005432
75,384,76577,2,0,L|88:280,1,105.000004005432,8|0,0:0|0:0,0:0:0:0:
8,144,77046,5,8,0:3:0:0:
157,194,77280,2,0,L|92:194,1,52.5000020027161
355,194,77514,1,8,0:0:0:0:
504,144,77749,2,0,B|514:91|514:91|490:41,1,105.000004005432
447,239,78217,1,0,0:0:0:0:
339,83,78452,1,8,0:0:0:0:
303,272,78686,6,0,P|408:265|505:300,1,210.000008010865
355,349,79389,1,8,0:0:0:0:
316,174,79624,1,0,0:0:0:0:
232,366,79858,1,0,0:0:0:0:
193,157,80092,1,0,0:0:0:0:
109,383,80327,2,0,P|93:333|99:277,1,105.000004005432,8|0,0:0|0:0,0:0:0:0:
226,52,80796,6,0,B|191:66|191:66|154:58,1,73.4999977569581
129,47,81264,1,0,0:0:0:0:
300,148,81499,1,0,0:0:0:0:
180,350,81733,1,0,0:0:0:0:
256,287,81850,1,0,0:0:0:0:
332,350,81967,2,0,B|267:342|267:371|205:355,1,122.499996261597
180,350,82671,6,0,P|163:292|174:229,1,122.500001168251,4|0,0:0|0:0,0:0:0:0:
273,93,83022,1,0,0:0:0:0:
338,38,83139,2,0,L|212:46,1,122.500001168251,8|0,0:0|0:0,0:0:0:0:
389,210,83491,1,0,0:0:0:0:
441,151,83608,2,0,P|450:120|441:90,1,61.2500005841255
466,225,83842,2,0,P|456:254|466:284,1,61.2500005841255
512,166,84077,1,8,0:0:0:0:
417,360,84311,2,0,L|310:367,1,91.8750008761883
258,346,84546,6,0,P|233:286|248:220,1,122.500001168251
269,153,84897,1,0,0:0:0:0:
280,132,85014,2,0,P|289:72|265:17,1,122.500001168251,8|0,0:0|0:0,0:0:0:0:
242,230,85366,1,0,0:0:0:0:
382,112,85483,2,0,L|446:116,1,61.2500005841255
164,153,85717,2,0,L|100:149,1,61.2500005841255
401,228,85952,2,0,L|477:232,1,61.2500005841255,8|0,0:0|0:0,0:0:0:0:
139,276,86186,2,0,L|62:271,1,61.2500005841255
319,361,86421,6,0,P|331:300|313:231,1,122.500001168251
223,94,86772,1,0,0:0:0:0:
161,37,86889,2,0,B|161:71|145:95|145:95|161:117|164:154,1,122.500001168251,8|0,0:0|0:0,0:0:0:0:
240,22,87241,1,0,0:0:0:0:
223,94,87358,2,0,P|269:92|289:78,1,61.2500005841255
351,147,87592,2,0,P|396:149|416:163,1,61.2500005841255
481,48,87827,1,8,0:0:0:0:
481,336,88061,2,0,B|458:343|458:343|460:302|503:295,1,91.8750008761883
481,336,88296,6,0,B|424:352|424:352|361:332,1,122.500001168251
87,217,88647,1,0,0:0:0:0:
150,261,88764,2,0,B|208:271|208:271|269:246,1,122.500001168251,8|0,0:0|0:0,0:0:0:0:
439,146,89116,1,0,0:0:0:0:
308,26,89233,2,0,P|308:56|320:85,1,61.2500005841255
192,86,89467,2,0,P|191:116|180:144,1,61.2500005841255
364,170,89702,2,0,P|372:199|390:223,1,61.2500005841255,8|0,0:0|0:0,0:0:0:0:
140,233,89936,2,0,P|131:262|113:286,1,61.2500005841255,0|0,0:3|0:3,0:3:0:0:
17,197,90171,6,0,L|9:65,1,122.500001168251
27,278,90522,1,0,0:0:0:0:
37,359,90639,2,0,L|169:367,1,122.500001168251,8|0,0:0|0:0,0:0:0:0:
256,255,90991,1,0,0:0:0:0:
335,236,91108,2,0,P|337:270|323:298,1,61.2500005841255
185,294,91342,2,0,P|174:266|177:236,1,61.2500005841255
256,354,91577,1,8,0:0:0:0:
256,30,91811,2,0,B|270:21|270:21|284:34|284:34|311:27|340:45,1,91.8750008761883
393,85,92046,6,0,L|512:57,1,122.500001168251
474,147,92397,1,0,0:0:0:0:
277,136,92514,2,0,L|396:164,1,122.500001168251,8|0,0:0|0:0,0:0:0:0:
315,226,92866,1,0,0:0:0:0:
206,354,92983,2,0,P|199:323|203:284,1,61.2500005841255
311,293,93217,2,0,P|312:324|306:354,1,61.2500005841255
106,271,93452,2,0,P|123:244|153:219,1,61.2500005841255,12|0,0:0|0:0,0:0:0:0:
262,22,93686,2,0,P|277:50|283:89,1,61.2500005841255
428,364,93921,6,0,L|298:353,1,122.500001168251
144,224,94272,1,0,0:0:0:0:
177,238,94389,2,0,L|307:227,1,122.500001168251,8|0,0:0|0:0,0:0:0:0:
468,104,94741,1,0,0:0:0:0:
435,118,94858,2,0,L|305:107,1,122.500001168251
80,29,95210,1,0,0:0:0:0:
113,43,95327,5,8,0:0:0:0:
20,73,95561,1,0,0:0:0:0:
188,179,95796,2,0,B|117:220|117:149|56:179,1,140
26,355,96499,1,0,0:0:0:0:
17,250,96733,2,0,L|25:354,1,105
322,125,97671,5,4,0:0:0:0:
189,258,97905,1,0,0:0:0:0:
148,265,98022,1,0,0:0:0:0:
110,246,98139,1,8,0:0:0:0:
322,258,98374,1,0,0:0:0:0:
189,125,98608,2,0,P|174:77|185:22,1,105.000004005432
256,192,98960,1,0,0:0:0:0:
322,258,99077,2,0,P|338:307|327:362,1,105.000004005432,8|0,0:0|0:0,0:0:0:0:
98,203,99546,6,0,L|256:192,1,157.500006008148
173,276,100014,2,0,L|16:288,1,157.500006008148,8|0,0:0|0:0,0:0:0:0:
9,135,100483,2,0,P|-4:212|15:287,1,157.500006008148
98,203,100952,2,0,P|111:125|91:50,1,157.500006008148,8|0,0:0|0:0,0:0:0:0:
289,68,101421,6,0,L|183:82,1,105.000004005432
198,159,101772,1,0,0:0:0:0:
244,153,101889,1,8,0:0:0:0:
463,257,102124,2,0,L|410:264,1,52.5000020027161
410,346,102358,2,0,L|463:339,1,52.5000020027161
328,357,102592,1,0,0:0:0:0:
317,273,102710,1,0,0:0:0:0:
251,325,102827,1,8,0:0:0:0:
47,306,103061,1,0,0:0:0:0:
128,30,103296,6,0,P|132:79|120:136,1,105.000004005432
47,79,103647,1,0,0:0:0:0:
211,75,103764,1,8,0:0:0:0:
480,100,103999,2,0,L|422:105,1,52.5000020027161
312,47,104233,2,0,L|364:51,1,52.5000020027161
359,174,104467,2,0,P|351:151|356:119,1,52.5000020027161
434,31,104702,1,8,0:0:0:0:
256,210,104936,1,0,0:0:0:0:
78,31,105171,6,0,P|59:82|69:135,1,105.000004005432
150,129,105522,1,0,0:0:0:0:
172,226,105639,2,0,P|123:207|72:215,1,105.000004005432,8|0,0:0|0:0,0:0:0:0:
340,226,106108,2,0,P|388:207|439:215,1,105.000004005432
314,244,106460,1,0,0:0:0:0:
341,130,106577,2,0,P|392:137|432:170,1,105.000004005432,8|0,0:0|0:0,0:0:0:0:
206,341,107046,6,0,L|192:178,1,157.500006008148
163,214,107514,2,0,L|171:318,1,105.000004005432,8|0,0:0|0:0,0:0:0:0:
56,41,107983,2,0,L|70:198,1,157.500006008148
35,175,108452,2,0,L|27:71,1,105.000004005432,8|0,0:0|0:0,0:0:0:0:
289,59,108921,6,0,B|263:55|263:55|219:73|252:126,1,105.000004005432
356,81,109272,2,0,P|359:59|352:29,1,52.5000020027161,0|8,0:0|0:0,0:0:0:0:
444,293,109624,2,0,L|450:355,1,52.5000020027161
464,228,109858,2,0,L|470:290,1,52.5000020027161
483,163,110092,1,0,0:0:0:0:
487,199,110210,1,0,0:0:0:0:
491,236,110327,1,8,0:0:0:0:
316,119,110561,1,0,0:0:0:0:
71,201,110796,6,0,P|123:215|198:191,1,105.000004005432
229,151,111147,1,0,0:0:0:0:
43,180,111264,1,8,0:0:0:0:
194,305,111499,2,0,L|202:357,1,52.5000020027161
310,357,111733,2,0,L|317:305,1,52.5000020027161
147,297,111967,1,0,0:0:0:0:
149,315,112026,1,0,0:0:0:0:
151,333,112085,1,0,0:0:0:0:
154,351,112143,1,0,0:0:0:0:
156,370,112202,2,0,P|118:380|85:378,1,52.5000020027161,8|0,0:0|0:0,0:0:0:0:
28,281,112436,2,0,P|27:307|36:332,1,52.5000020027161
69,201,112671,5,0,0:0:0:0:
160,57,112905,1,0,0:0:0:0:
124,78,113022,1,0,0:0:0:0:
82,74,113139,2,0,P|33:50|8:7,1,105.000004005432,8|0,0:0|0:0,0:0:0:0:
230,20,113608,2,0,P|277:8|332:31,1,105.000004005432
273,93,113960,1,0,0:0:0:0:
450,97,114077,2,0,P|403:85|348:108,1,105.000004005432,8|0,0:0|0:0,0:0:0:0:
195,242,114546,6,0,P|183:295|201:351,1,105.000004005432
196,342,114897,1,0,0:0:0:0:
249,191,115014,2,0,L|141:197,1,105.000004005432,8|0,0:0|0:0,0:0:0:0:
354,183,115483,1,0,0:0:0:0:
144,196,115717,1,0,0:0:0:0:
101,198,115835,1,0,0:0:0:0:
58,200,115952,2,0,P|42:150|60:99,1,105.000004005432,8|0,0:0|0:0,0:0:0:0:
134,286,116421,6,0,L|19:298,1,105.000004005432
206,324,116772,1,0,0:0:0:0:
237,329,116889,2,0,L|354:346,1,105.000004005432,8|0,0:0|0:0,0:0:0:0:
38,374,117358,1,0,0:0:0:0:
89,189,117592,1,0,0:0:0:0:
133,184,117710,1,0,0:0:0:0:
171,179,117827,2,0,P|179:129|163:77,1,105.000004005432,8|0,0:0|0:0,0:0:0:0:
362,175,118296,6,0,B|351:171|351:171|278:197|278:197|261:188,1,105.000004005432
281,118,118647,1,0,0:0:0:0:
350,95,118764,2,0,B|361:99|361:99|434:73|434:73|451:82,1,105.000004005432,8|0,0:0|0:0,0:0:0:0:
413,284,119233,2,0,P|443:260|448:313,1,105.000004005432
467,236,119585,1,0,0:0:0:0:
445,377,119702,2,0,P|393:371|359:330,1,105.000004005432,8|0,0:0|0:0,0:0:0:0:
276,280,120053,1,0,0:0:0:0:
255,304,120171,6,0,B|205:317|205:291|151:303,1,105.000004005432
69,361,120522,2,0,P|51:280|93:220,1,157.500006008148
252,146,121108,1,0,0:0:0:0:
115,33,121342,2,0,L|51:38,1,52.5000020027161
19,114,121577,2,0,L|132:104,1,105.000004005432,8|0,0:0|0:0,0:0:0:0:
398,32,122046,5,0,0:0:0:0:
241,46,122280,1,0,0:0:0:0:
490,181,122514,1,8,0:0:0:0:
333,195,122749,1,0,0:0:0:0:
82,304,122983,2,0,P|131:329|182:328,1,105.000004005432
256,282,123335,1,0,0:0:0:0:
256,371,123452,1,8,0:0:0:0:
150,221,123686,1,0,0:0:0:0:
333,195,123921,6,0,B|386:201|386:201|433:181,1,105.000004005432,0|8,0:0|0:3,0:0:0:0:
504,67,124272,1,0,0:0:0:0:
504,67,124389,2,0,L|513:176,1,105.000004005432,8|0,0:0|0:0,0:0:0:0:
341,90,124858,2,0,L|332:199,1,105.000004005432
364,72,125210,1,0,0:0:0:0:
364,72,125327,1,8,0:0:0:0:
227,128,125561,2,0,L|232:186,1,52.5000020027161
58,209,125796,6,0,L|130:203,1,52.5000020027161
314,216,126030,2,0,L|319:274,1,52.5000020027161
145,297,126264,2,0,L|257:287,1,105.000004005432,8|0,0:0|0:0,0:0:0:0:
63,308,126733,2,0,P|46:266|60:204,1,105.000004005432
92,133,127085,2,0,P|92:106|83:79,1,52.5000020027161,0|8,0:0|0:0,0:0:0:0:
256,192,127436,2,0,L|323:192,2,52.5000020027161
256,192,134467,6,0,L|289:192,4,26.2500010013581,2|0|2|0|8,0:3|0:0|0:3|0:0|0:0,0:0:0:0:
442,166,134936,6,0,P|448:183|450:203,1,26.2500010013581
424,228,135171,6,0,B|409:177|443:177|424:124,1,105.000004005432
379,330,135639,2,0,P|431:326|481:359,1,105.000004005432,8|0,0:0|0:0,0:0:0:0:
209,289,136108,2,0,L|214:345,1,52.5000020027161
131,252,136342,2,0,L|126:308,1,52.5000020027161
53,201,136577,2,0,L|28:303,1,105.000004005432,8|0,0:0|0:0,0:0:0:0:
117,27,137046,6,0,B|99:46|99:46|191:46,1,105.000004005432,8|0,0:3|0:0,0:0:0:0:
256,46,137397,1,0,0:0:0:0:
394,65,137514,2,0,B|412:46|412:46|333:46,1,105.000004005432,8|0,0:0|0:0,0:0:0:0:
244,192,137983,2,0,P|239:217|245:252,1,52.5000020027161
270,317,138217,1,0,0:0:0:0:
137,168,138452,1,8,0:0:0:0:
387,192,138686,1,0,0:0:0:0:
152,366,138921,6,0,L|39:370,1,105.000004005432
250,292,139272,1,0,0:0:0:0:
270,317,139389,2,0,L|157:321,1,105.000004005432,8|0,0:0|0:0,0:0:0:0:
368,243,139741,1,0,0:0:0:0:
388,268,139858,2,0,L|275:272,1,105.000004005432
95,139,140327,2,0,P|72:137|34:144,1,52.5000020027161,8|0,0:0|0:0,0:0:0:0:
42,242,140561,2,0,P|68:246|95:245,1,52.5000020027161
167,192,140796,6,0,L|260:192,1,70
274,120,141147,2,0,L|264:77,1,35
398,232,141499,1,0,0:0:0:0:
381,308,141616,2,0,L|371:351,1,35
485,138,141967,1,0,0:0:0:0:
502,62,142085,1,0,0:0:0:0:
432,86,142202,2,0,P|362:41|437:37,1,210
485,138,142671,6,0,B|507:193|507:193|493:261,1,122.500001168251,4|0,0:0|0:0,0:0:0:0:
282,313,143022,1,0,0:0:0:0:
213,261,143139,2,0,L|90:266,1,122.500001168251,8|0,0:0|0:0,0:0:0:0:
274,194,143491,1,0,0:0:0:0:
282,313,143608,2,0,P|313:315|344:298,1,61.2500005841255
90,265,143842,2,0,P|59:263|28:280,1,61.2500005841255
166,359,144077,1,8,0:0:0:0:
283,102,144311,2,0,L|271:204,1,91.8750008761883
253,160,144546,6,0,L|240:33,1,122.500001168251
164,99,144897,1,0,0:0:0:0:
24,23,145014,2,0,B|57:40|57:40|109:23|109:23|142:32,1,122.500001168251,8|0,0:0|0:0,0:0:0:0:
233,249,145483,2,0,L|242:310,1,61.2500005841255
332,379,145717,2,0,L|341:318,1,61.2500005841255
394,178,145952,2,0,L|403:239,1,61.2500005841255,8|0,0:0|0:0,0:0:0:0:
493,384,146186,2,0,L|502:323,1,61.2500005841255
452,138,146421,6,0,L|329:146,1,122.500001168251
109,66,146772,1,0,0:0:0:0:
301,31,146889,2,0,L|178:22,1,122.500001168251,8|0,0:0|0:0,0:0:0:0:
30,41,147241,1,0,0:0:0:0:
144,115,147358,2,0,L|107:64,1,61.2500005841255
23,198,147592,2,0,L|59:147,1,61.2500005841255
181,251,147827,2,0,L|141:197,1,61.2500005841255,8|0,0:0|0:0,0:0:0:0:
49,341,148061,2,0,L|113:253,1,91.8750008761883
181,251,148296,6,0,P|204:310|191:369,1,122.500001168251
222,183,148647,1,0,0:0:0:0:
266,122,148764,2,0,L|254:0,1,122.500001168251,8|0,0:0|0:0,0:0:0:0:
96,154,149233,2,0,L|156:145,1,61.2500005841255
356,114,149467,2,0,L|416:105,1,61.2500005841255
416,279,149702,2,0,L|356:270,1,61.2500005841255,8|0,0:0|0:0,0:0:0:0:
156,239,149936,2,0,L|96:230,1,61.2500005841255
256,207,150171,6,0,P|258:271|228:320,1,122.500001168251
140,344,150522,1,0,0:0:0:0:
313,368,150639,2,0,L|455:361,1,122.500001168251,8|0,0:0|0:0,0:0:0:0:
228,319,150991,1,0,0:0:0:0:
140,344,151108,2,0,L|72:349,1,61.2500005841255
289,314,151342,2,0,L|221:319,1,61.2500005841255
438,284,151577,1,8,0:0:0:0:
120,200,151811,2,0,P|102:158|114:113,1,91.8750008761883
165,67,152046,6,0,B|225:79|225:79|282:58,1,122.500001168251
88,28,152397,1,0,0:0:0:0:
27,88,152514,2,0,P|17:149|34:208,1,122.500001168251,8|0,0:0|0:0,0:0:0:0:
85,276,152866,1,0,0:0:0:0:
218,239,152983,2,0,L|152:243,1,61.2500005841255
241,145,153217,2,0,L|303:142,1,61.2500005841255
312,329,153452,2,0,L|246:333,1,61.2500005841255,8|0,0:0|0:0,0:0:0:0:
338,229,153686,2,0,L|399:225,1,61.2500005841255
478,152,153921,6,0,L|485:296,1,122.500001168251
425,367,154272,1,0,0:0:0:0:
338,229,154389,2,0,L|345:85,1,122.500001168251,8|0,0:0|0:0,0:0:0:0:
285,14,154741,1,0,0:0:0:0:
195,152,154858,2,0,L|202:296,1,122.500001168251
142,367,155210,1,0,0:0:0:0:
54,228,155327,1,8,0:0:0:0:
54,228,155561,1,0,0:0:0:0:
54,228,155796,6,0,L|32:367,1,140
78,83,156499,1,0,0:0:0:0:
178,75,156733,2,0,B|109:93|109:93|77:82,1,105
457,97,157671,5,6,0:0:0:0:
488,259,158022,1,2,0:0:0:0:
331,204,158374,1,2,0:0:0:0:
432,183,158608,1,2,0:0:0:0:
249,163,158842,2,0,P|239:214|260:266,1,105.000004005432,2|2,0:0|0:0,0:0:0:0:
359,344,159546,2,0,P|328:345|305:358,1,52.5000020027161,2|0,0:0|0:0,0:0:0:0:
202,354,159897,2,0,P|179:343|153:344,1,52.5000020027161,2|0,0:0|0:0,0:0:0:0:
47,364,160249,1,2,0:0:0:0:
87,172,160483,2,0,L|94:252,1,78.7500030040742,2|0,0:0|0:0,0:0:0:0:
77,74,160952,1,6,0:0:0:0:
77,74,161421,6,0,L|145:69,1,52.5000020027161,2|0,0:0|0:0,0:0:0:0:
210,61,161772,2,0,L|278:56,1,52.5000020027161,2|0,0:0|0:0,0:0:0:0:
343,48,162124,2,0,L|377:45,1,26.2500010013581,2|0,0:0|0:0,0:0:0:0:
476,35,162358,1,2,0:0:0:0:
306,152,162592,1,0,0:0:0:0:
494,166,162827,1,0,0:0:0:0:
397,204,163061,1,0,0:0:0:0:
501,351,163296,2,0,L|437:340,1,52.5000020027161,2|0,0:0|0:0,0:0:0:0:
370,342,163647,2,0,L|318:350,1,52.5000020027161,2|0,0:0|0:0,0:0:0:0:
259,303,163999,2,0,L|258:271,1,26.2500010013581,2|0,0:0|0:0,0:0:0:0:
256,192,164233,1,2,0:0:0:0:
226,371,164467,1,0,0:0:0:0:
256,192,164702,1,0,0:0:0:0:
226,371,164936,1,0,0:0:0:0:
87,232,165171,5,4,0:3:0:0:
84,255,165522,1,2,0:0:0:0:
81,278,165874,1,2,0:0:0:0:
23,165,166108,1,2,0:0:0:0:
156,82,166342,2,0,P|103:92|57:71,1,105.000004005432,2|2,0:0|0:0,0:0:0:0:
233,56,167046,2,0,P|237:89|228:117,1,52.5000020027161,2|0,0:0|0:0,0:0:0:0:
279,56,167397,2,0,P|275:89|284:117,1,52.5000020027161,2|0,0:0|0:0,0:0:0:0:
256,173,167749,2,0,L|256:213,1,26.2500010013581,2|0,0:0|0:0,0:0:0:0:
256,304,167983,2,0,P|219:322|170:320,1,78.7500030040742,2|0,0:0|0:0,0:0:0:0:
321,248,168452,1,6,0:0:0:0:
321,248,168921,6,0,L|388:238,1,52.5000020027161,2|0,2:0|2:0,2:0:0:0:
465,134,169272,2,0,L|440:197,1,52.5000020027161,2|0,2:0|2:0,2:0:0:0:
491,316,169624,2,0,L|468:287,1,26.2500010013581,2|0,2:0|2:0,2:0:0:0:
512,226,169858,1,2,0:0:0:0:
419,370,170092,1,0,0:0:0:0:
314,355,170327,1,0,0:0:0:0:
210,340,170561,1,0,0:0:0:0:
72,256,170796,2,0,P|112:258|143:244,1,52.5000020027161,2|0,0:0|0:0,0:0:0:0:
123,129,171147,2,0,P|97:124|72:128,1,52.5000020027161,2|0,0:0|0:0,0:0:0:0:
15,192,171499,1,2,0:0:0:0:
256,192,171733,1,2,0:0:0:0:
256,298,171967,2,0,L|256:315,3,13.125000500679,2|0|0|0,0:0|0:0|0:0|0:0,0:0:0:0:
256,382,172202,1,2,0:0:0:0:
256,2,172671,6,0,P|198:22|134:18,1,122.500001168251,4|0,0:0|0:0,0:0:0:0:
349,145,173022,2,0,P|329:87|333:23,1,122.500001168251
231,207,173374,2,0,L|298:199,1,61.2500005841255
163,165,173608,1,0,0:0:0:0:
34,116,173842,2,0,P|44:148|42:179,1,61.2500005841255
15,244,174077,1,8,0:0:0:0:
0,315,174194,1,0,0:0:0:0:
56,361,174311,1,0,0:0:0:0:
111,313,174428,1,0,0:0:0:0:
94,242,174546,6,0,L|222:234,1,122.500001168251
418,242,174897,2,0,L|290:234,1,122.500001168251
256,303,175249,2,0,L|256:365,1,61.2500005841255
184,141,175483,2,0,P|255:92|329:137,1,183.750001752377
256,19,175952,1,12,0:0:0:0:
121,192,176186,1,0,0:0:0:0:
391,192,176421,6,0,P|417:249|412:313,1,122.500001168251
471,162,176772,2,0,P|445:105|450:41,1,122.500001168251
337,268,177124,2,0,L|272:271,1,61.2500005841255
196,276,177358,1,0,0:0:0:0:
351,363,177592,1,0,0:0:0:0:
290,45,177827,1,8,0:0:0:0:
285,120,177944,1,0,0:0:0:0:
280,195,178061,1,0,0:0:0:0:
275,270,178178,1,0,0:0:0:0:
270,345,178296,6,0,B|216:365|216:365|151:353,1,122.500001168251
152,267,178647,2,0,B|88:255|88:255|34:275,1,122.500001168251
34,361,178999,1,0,0:0:0:0:
158,75,179233,2,0,L|147:14,1,61.2500005841255
72,82,179467,2,0,L|61:21,1,61.2500005841255
126,155,179702,1,8,0:0:0:0:
209,137,179819,1,0,0:0:0:0:
238,57,179936,1,0,0:0:0:0:
331,291,180171,6,0,L|473:281,1,122.500001168251
276,364,180522,2,0,L|134:354,1,122.500001168251
351,260,180874,6,0,L|422:254,1,61.2500005841255
256,192,181108,1,0,0:0:0:0:
153,355,181342,2,0,L|82:349,1,61.2500005841255
18,343,181577,1,8,0:0:0:0:
32,271,181694,1,0,0:0:0:0:
47,199,181811,1,0,0:0:0:0:
62,127,181928,1,0,0:0:0:0:
117,176,182046,6,0,B|156:186|156:186|182:169|164:100,1,122.500001168251
104,55,182397,2,0,B|146:89|182:74|182:74|207:42,1,122.500001168251
408,55,182749,2,0,P|380:54|350:38,1,61.2500005841255
270,100,182983,2,0,L|257:164,1,61.2500005841255
197,342,183217,2,0,L|184:278,1,61.2500005841255
102,105,183452,1,8,0:0:0:0:
81,188,183569,1,0,0:0:0:0:
60,271,183686,6,0,L|72:364,1,81.6666674455007
11,384,183921,6,0,B|45:371|45:371|140:382,1,122.500001168251
316,338,184272,2,0,B|282:351|282:351|197:342,1,122.500001168251
388,301,184624,2,0,P|397:333|391:367,1,61.2500005841255
322,266,184858,1,0,0:0:0:0:
190,118,185092,1,0,0:0:0:0:
127,373,185327,2,0,L|118:313,1,61.2500005841255,8|0,0:0|0:0,0:0:0:0:
187,281,185561,2,0,L|196:341,1,61.2500005841255
46,360,185796,6,0,L|5:342,5,40.8333337227503
46,274,186264,6,0,L|22:241,5,40.8333337227503
92,202,186733,6,0,L|99:152,1,40.8333337227503,0|8,0:0|0:0,0:0:0:0:
8,343,187085,6,0,L|14:381,1,30.6250002920628
46,274,187202,2,0,B|8:197|91:197|46:106,1,175,8|0,0:0|0:0,0:0:0:0:
459,98,190952,6,0,L|446:265,1,157.500006008148
311,309,191421,6,0,P|362:309|426:348,1,122.500001168251,4|0,0:0|0:0,0:0:0:0:
243,362,191772,1,0,0:0:0:0:
213,358,191889,2,0,P|200:297|223:241,1,122.500001168251,8|0,0:0|0:0,0:0:0:0:
230,15,192241,5,0,0:0:0:0:
299,26,192358,6,0,P|312:87|289:143,1,122.500001168251
205,150,192710,1,0,0:0:0:0:
307,234,192827,2,0,P|337:244|371:242,1,61.2500005841255,8|0,0:0|0:0,0:0:0:0:
205,150,193061,2,0,P|175:140|141:142,1,61.2500005841255
18,224,193296,6,0,P|79:233|152:213,1,122.500001168251
100,310,193647,1,0,0:0:0:0:
171,378,193764,2,0,L|212:251,1,122.500001168251,8|0,0:0|0:0,0:0:0:0:
435,136,194233,2,0,P|353:180|268:136,1,183.750001752377
512,71,194702,2,0,P|429:37|352:80,1,183.750001752377,8|0,0:0|0:0,0:0:0:0:
208,261,195171,5,0,0:0:0:0:
346,361,195405,1,0,0:0:0:0:
346,361,195522,1,0,0:0:0:0:
424,350,195639,2,0,L|484:341,1,61.2500005841255,8|0,0:0|0:0,0:0:0:0:
286,269,195874,2,0,P|248:274|196:253,1,81.6666674455007
138,211,196108,6,0,P|123:249|155:327,1,122.500001168251
222,356,196460,1,0,0:0:0:0:
217,178,196577,2,0,P|222:148|214:116,1,61.2500005841255,8|0,0:0|0:0,0:0:0:0:
176,48,196811,1,0,0:0:0:0:
98,28,196928,1,0,0:0:0:0:
27,65,197046,6,0,P|4:111|15:180,1,122.500001168251
114,130,197397,1,0,0:0:0:0:
176,48,197514,2,0,L|300:37,1,122.500001168251,8|0,0:0|0:0,0:0:0:0:
433,328,197983,2,0,P|487:245|467:159,1,183.750001752377
298,37,198452,2,0,P|244:120|264:206,1,183.750001752377,8|0,0:0|0:0,0:0:0:0:
45,168,198921,6,0,L|181:178,1,122.500001168251
195,178,199272,1,0,0:0:0:0:
119,260,199389,1,0,0:0:0:0:
88,265,199506,1,8,0:0:0:0:
164,352,199624,2,0,L|251:348,1,81.6666674455007
324,366,199858,6,0,B|340:340|340:340|303:247,1,122.500001168251
303,384,200210,1,0,0:0:0:0:
404,302,200327,2,0,L|411:367,1,61.2500005841255,8|0,0:0|0:0,0:0:0:0:
511,276,200561,2,0,L|484:335,1,61.2500005841255,0|0,2:0|2:0,2:0:0:0:
371,180,200796,6,0,L|502:192,1,122.500001168251
427,114,201147,1,0,0:0:0:0:
321,36,201264,2,0,L|375:73,1,61.2500005841255,8|0,0:0|0:0,0:0:0:0:
467,44,201499,1,0,0:0:0:0:
432,19,201616,1,0,0:0:0:0:
249,75,201733,2,0,B|154:55|165:98|154:144|265:117,1,183.750001752377
263,263,202202,2,0,B|358:240|347:286|358:329|263:309,1,183.750001752377,8|0,0:0|0:0,0:0:0:0:
128,192,202671,5,0,0:0:0:0:
384,192,202905,1,0,0:0:0:0:
426,187,203022,1,0,0:0:0:0:
468,182,203139,2,0,P|481:120|457:66,1,122.500001168251,8|0,0:0|0:0,0:0:0:0:
431,257,203491,5,0,0:0:0:0:
477,309,203608,6,0,L|354:324,1,122.500001168251
274,334,203960,1,0,0:0:0:0:
133,340,204077,2,0,L|195:345,2,61.2500005841255,8|0|0,0:0|0:0|0:0,0:0:0:0:
379,76,204546,5,0,0:0:0:0:
256,250,204780,1,0,0:0:0:0:
133,76,205014,2,0,L|133:6,1,70
256,51,205717,5,0,0:0:0:0:
256,139,205835,1,0,0:0:0:0:
256,0,205952,2,0,L|256:51,1,52.5
