osu file format v14

[General]
AudioFilename: audio 1.300x (pitch raised).mp3
AudioLeadIn: 0
PreviewTime: 42398
Countdown: 0
SampleSet: None
StackLeniency: 0.7
Mode: 3
LetterboxInBreaks: 0
SpecialStyle: 0
WidescreenStoryboard: 0

[Editor]
DistanceSpacing: 0.8
BeatDivisor: 4
GridSize: 8
TimelineZoom: 2

[Metadata]
Title:Healing Vision (Angelic mix)
TitleUnicode:Healing Vision (Angelic mix)
Artist:2MB
ArtistUnicode:2MB
Creator:[ZtL] Marxder
Version:Critical rate // x1.3
Source:DanceDanceRevolution 5thMIX CS
Tags:electronic instrumental video game videogame music vgm ddr
BeatmapID:4542053
BeatmapSetID:2155036

[Difficulty]
HPDrainRate:8.5
CircleSize:4
OverallDifficulty:8
ApproachRate:6.3
SliderMultiplier:1.4
SliderTickRate:1

[Events]
//Background and Video events
0,0,"BG.jpg",0,0
//Break Periods
//Storyboard Layer 0 (Background)
//Storyboard Layer 1 (Fail)
//Storyboard Layer 2 (Pass)
//Storyboard Layer 3 (Foreground)
//Storyboard Layer 4 (Overlay)
//Storyboard Sound Samples

[TimingPoints]
12,235.478806907378,4,1,0,10,1,0
27327,-100,4,1,0,10,0,1
42398,-100,4,1,0,10,0,0
56997,-1000,4,1,0,10,0,0
57056,-500,4,1,0,10,0,0
57115,-333.333333333333,4,1,0,10,0,0
57174,-250,4,1,0,10,0,0
57233,-200,4,1,0,10,0,0
57292,-166.666666666667,4,1,0,10,0,0
57350,-142.857142857143,4,1,0,10,0,0
57410,-125,4,1,0,10,0,0
57468,-100,4,1,0,10,0,0

[HitObjects]
192,192,12,5,0,0:0:0:0:
192,192,247,1,0,0:0:0:0:
448,192,953,1,0,0:0:0:0:
192,192,953,1,0,0:0:0:0:
64,192,953,1,0,0:0:0:0:
320,192,1424,1,0,0:0:0:0:
320,192,1660,1,0,0:0:0:0:
192,192,2131,1,0,0:0:0:0:
192,192,2366,1,0,0:0:0:0:
320,192,3073,1,0,0:0:0:0:
320,192,3308,1,0,0:0:0:0:
192,192,3779,1,0,0:0:0:0:
192,192,4015,1,0,0:0:0:0:
192,192,4486,1,0,0:0:0:0:
448,192,4544,1,0,0:0:0:0:
320,192,4603,1,0,0:0:0:0:
192,192,4662,1,0,0:0:0:0:
192,192,4721,1,0,0:0:0:0:
448,192,4721,1,0,0:0:0:0:
320,192,4721,1,0,0:0:0:0:
64,192,4721,1,0,0:0:0:0:
448,192,4780,1,0,0:0:0:0:
320,192,4839,1,0,0:0:0:0:
192,192,4898,1,0,0:0:0:0:
64,192,4956,1,0,0:0:0:0:
448,192,4956,1,0,0:0:0:0:
320,192,5016,1,0,0:0:0:0:
192,192,5074,1,0,0:0:0:0:
64,192,5074,1,0,0:0:0:0:
448,192,5133,1,0,0:0:0:0:
320,192,5192,1,0,0:0:0:0:
64,192,5192,1,0,0:0:0:0:
192,192,5251,1,0,0:0:0:0:
448,192,5251,1,0,0:0:0:0:
320,192,5310,1,0,0:0:0:0:
64,192,5310,1,0,0:0:0:0:
192,192,5369,1,0,0:0:0:0:
320,192,5427,1,0,0:0:0:0:
448,192,5427,1,0,0:0:0:0:
192,192,5486,1,0,0:0:0:0:
64,192,5545,1,0,0:0:0:0:
448,192,5545,1,0,0:0:0:0:
320,192,5604,1,0,0:0:0:0:
320,192,5663,1,0,0:0:0:0:
448,192,5663,1,0,0:0:0:0:
64,192,5663,1,0,0:0:0:0:
192,192,5663,1,0,0:0:0:0:
192,192,5722,1,0,0:0:0:0:
64,192,5781,1,0,0:0:0:0:
448,192,5840,1,0,0:0:0:0:
320,192,5899,1,0,0:0:0:0:
64,192,5899,1,0,0:0:0:0:
192,192,5957,1,0,0:0:0:0:
320,192,6016,1,0,0:0:0:0:
448,192,6016,1,0,0:0:0:0:
64,192,6075,1,0,0:0:0:0:
192,192,6134,1,0,0:0:0:0:
448,192,6134,1,0,0:0:0:0:
320,192,6193,1,0,0:0:0:0:
64,192,6193,1,0,0:0:0:0:
192,192,6252,1,0,0:0:0:0:
448,192,6252,1,0,0:0:0:0:
320,192,6310,1,0,0:0:0:0:
192,192,6370,1,0,0:0:0:0:
64,192,6370,1,0,0:0:0:0:
320,192,6428,1,0,0:0:0:0:
64,192,6487,1,0,0:0:0:0:
448,192,6487,1,0,0:0:0:0:
192,192,6546,1,0,0:0:0:0:
448,192,6605,1,0,0:0:0:0:
320,192,6605,1,0,0:0:0:0:
64,192,6605,1,0,0:0:0:0:
192,192,6605,1,0,0:0:0:0:
320,192,6663,1,0,0:0:0:0:
192,192,6723,1,0,0:0:0:0:
64,192,6782,1,0,0:0:0:0:
192,192,6840,1,0,0:0:0:0:
320,192,6840,1,0,0:0:0:0:
448,192,6900,1,0,0:0:0:0:
64,192,6958,1,0,0:0:0:0:
320,192,6958,1,0,0:0:0:0:
192,192,7017,1,0,0:0:0:0:
320,192,7076,1,0,0:0:0:0:
448,192,7076,1,0,0:0:0:0:
192,192,7135,1,0,0:0:0:0:
64,192,7135,1,0,0:0:0:0:
320,192,7193,1,0,0:0:0:0:
448,192,7193,1,0,0:0:0:0:
192,192,7253,1,0,0:0:0:0:
64,192,7311,1,0,0:0:0:0:
448,192,7311,1,0,0:0:0:0:
320,192,7370,1,0,0:0:0:0:
192,192,7429,1,0,0:0:0:0:
64,192,7429,1,0,0:0:0:0:
448,192,7488,1,0,0:0:0:0:
320,192,7546,1,0,0:0:0:0:
448,192,7546,1,0,0:0:0:0:
64,192,7546,1,0,0:0:0:0:
192,192,7546,1,0,0:0:0:0:
64,192,7606,1,0,0:0:0:0:
320,192,7664,1,0,0:0:0:0:
192,192,7723,1,0,0:0:0:0:
320,192,7783,1,0,0:0:0:0:
448,192,7783,1,0,0:0:0:0:
64,192,7841,1,0,0:0:0:0:
192,192,7900,1,0,0:0:0:0:
448,192,7900,1,0,0:0:0:0:
320,192,7959,1,0,0:0:0:0:
192,192,8018,1,0,0:0:0:0:
64,192,8018,1,0,0:0:0:0:
448,192,8076,1,0,0:0:0:0:
320,192,8076,1,0,0:0:0:0:
192,192,8136,1,0,0:0:0:0:
64,192,8136,1,0,0:0:0:0:
320,192,8175,1,0,0:0:0:0:
192,192,8214,1,0,0:0:0:0:
64,192,8253,1,0,0:0:0:0:
448,192,8253,1,0,0:0:0:0:
320,192,8293,1,0,0:0:0:0:
192,192,8332,1,0,0:0:0:0:
320,192,8371,1,0,0:0:0:0:
448,192,8371,1,0,0:0:0:0:
64,192,8410,1,0,0:0:0:0:
192,192,8450,1,0,0:0:0:0:
320,192,8489,1,0,0:0:0:0:
448,192,8489,1,0,0:0:0:0:
64,192,8489,1,0,0:0:0:0:
192,192,8547,1,0,0:0:0:0:
448,192,8606,1,0,0:0:0:0:
320,192,8666,1,0,0:0:0:0:
192,192,8724,1,0,0:0:0:0:
64,192,8724,1,0,0:0:0:0:
320,192,8783,1,0,0:0:0:0:
448,192,8842,1,0,0:0:0:0:
64,192,8842,1,0,0:0:0:0:
192,192,8901,1,0,0:0:0:0:
320,192,8960,1,0,0:0:0:0:
448,192,8960,1,0,0:0:0:0:
192,192,9019,1,0,0:0:0:0:
64,192,9019,1,0,0:0:0:0:
320,192,9077,1,0,0:0:0:0:
448,192,9077,1,0,0:0:0:0:
64,192,9136,1,0,0:0:0:0:
192,192,9195,1,0,0:0:0:0:
320,192,9195,1,0,0:0:0:0:
448,192,9254,1,0,0:0:0:0:
192,192,9313,1,0,0:0:0:0:
64,192,9313,1,0,0:0:0:0:
448,192,9372,1,0,0:0:0:0:
320,192,9430,1,0,0:0:0:0:
448,192,9430,1,0,0:0:0:0:
64,192,9430,1,0,0:0:0:0:
192,192,9430,1,0,0:0:0:0:
64,192,9490,1,0,0:0:0:0:
192,192,9548,1,0,0:0:0:0:
320,192,9607,1,0,0:0:0:0:
192,192,9666,1,0,0:0:0:0:
448,192,9666,1,0,0:0:0:0:
64,192,9725,1,0,0:0:0:0:
320,192,9784,1,0,0:0:0:0:
448,192,9784,1,0,0:0:0:0:
64,192,9843,1,0,0:0:0:0:
192,192,9902,1,0,0:0:0:0:
448,192,9902,1,0,0:0:0:0:
320,192,9960,1,0,0:0:0:0:
64,192,9960,1,0,0:0:0:0:
192,192,10020,1,0,0:0:0:0:
448,192,10020,1,0,0:0:0:0:
320,192,10078,1,0,0:0:0:0:
192,192,10137,1,0,0:0:0:0:
64,192,10137,1,0,0:0:0:0:
320,192,10196,1,0,0:0:0:0:
64,192,10255,1,0,0:0:0:0:
448,192,10255,1,0,0:0:0:0:
192,192,10313,1,0,0:0:0:0:
320,192,10373,1,0,0:0:0:0:
448,192,10373,1,0,0:0:0:0:
64,192,10373,1,0,0:0:0:0:
192,192,10373,1,0,0:0:0:0:
320,192,10431,1,0,0:0:0:0:
192,192,10490,1,0,0:0:0:0:
64,192,10549,1,0,0:0:0:0:
320,192,10608,1,0,0:0:0:0:
448,192,10608,1,0,0:0:0:0:
64,192,10667,1,0,0:0:0:0:
320,192,10726,1,0,0:0:0:0:
192,192,10726,1,0,0:0:0:0:
448,192,10785,1,0,0:0:0:0:
192,192,10843,1,0,0:0:0:0:
64,192,10843,1,0,0:0:0:0:
320,192,10903,1,0,0:0:0:0:
448,192,10903,1,0,0:0:0:0:
192,192,10961,1,0,0:0:0:0:
64,192,10961,1,0,0:0:0:0:
320,192,11020,1,0,0:0:0:0:
64,192,11079,1,0,0:0:0:0:
448,192,11079,1,0,0:0:0:0:
192,192,11138,1,0,0:0:0:0:
320,192,11196,1,0,0:0:0:0:
448,192,11196,1,0,0:0:0:0:
192,192,11256,1,0,0:0:0:0:
320,192,11314,1,0,0:0:0:0:
448,192,11314,1,0,0:0:0:0:
64,192,11314,1,0,0:0:0:0:
192,192,11314,1,0,0:0:0:0:
320,192,11373,1,0,0:0:0:0:
192,192,11432,1,0,0:0:0:0:
448,192,11491,1,0,0:0:0:0:
320,192,11550,1,0,0:0:0:0:
192,192,11550,1,0,0:0:0:0:
64,192,11609,1,0,0:0:0:0:
192,192,11668,1,0,0:0:0:0:
448,192,11668,1,0,0:0:0:0:
320,192,11726,1,0,0:0:0:0:
192,192,11786,1,0,0:0:0:0:
64,192,11786,1,0,0:0:0:0:
320,192,11844,1,0,0:0:0:0:
448,192,11844,1,0,0:0:0:0:
192,192,11903,1,0,0:0:0:0:
64,192,11903,1,0,0:0:0:0:
320,192,11943,1,0,0:0:0:0:
192,192,11982,1,0,0:0:0:0:
64,192,12021,1,0,0:0:0:0:
448,192,12021,1,0,0:0:0:0:
320,192,12060,1,0,0:0:0:0:
192,192,12100,1,0,0:0:0:0:
64,192,12139,1,0,0:0:0:0:
448,192,12139,1,0,0:0:0:0:
320,192,12178,1,0,0:0:0:0:
192,192,12217,1,0,0:0:0:0:
320,192,12256,1,0,0:0:0:0:
448,192,12256,1,0,0:0:0:0:
64,192,12256,1,0,0:0:0:0:
192,192,12315,1,0,0:0:0:0:
320,192,12374,1,0,0:0:0:0:
448,192,12433,1,0,0:0:0:0:
64,192,12492,1,0,0:0:0:0:
192,192,12492,1,0,0:0:0:0:
448,192,12551,1,0,0:0:0:0:
64,192,12610,1,0,0:0:0:0:
320,192,12610,1,0,0:0:0:0:
192,192,12669,1,0,0:0:0:0:
320,192,12727,1,0,0:0:0:0:
448,192,12727,1,0,0:0:0:0:
192,192,12786,1,0,0:0:0:0:
64,192,12786,1,0,0:0:0:0:
320,192,12845,1,0,0:0:0:0:
448,192,12845,1,0,0:0:0:0:
192,192,12904,1,0,0:0:0:0:
64,192,12963,1,0,0:0:0:0:
448,192,12963,1,0,0:0:0:0:
320,192,13022,1,0,0:0:0:0:
192,192,13080,1,0,0:0:0:0:
64,192,13080,1,0,0:0:0:0:
320,192,13140,1,0,0:0:0:0:
320,192,13198,1,0,0:0:0:0:
448,192,13198,1,0,0:0:0:0:
64,192,13198,1,0,0:0:0:0:
192,192,13198,1,0,0:0:0:0:
192,192,13257,1,0,0:0:0:0:
448,192,13316,1,0,0:0:0:0:
320,192,13375,1,0,0:0:0:0:
192,192,13433,1,0,0:0:0:0:
64,192,13433,1,0,0:0:0:0:
448,192,13493,1,0,0:0:0:0:
320,192,13552,1,0,0:0:0:0:
64,192,13552,1,0,0:0:0:0:
192,192,13610,1,0,0:0:0:0:
320,192,13670,1,0,0:0:0:0:
448,192,13670,1,0,0:0:0:0:
192,192,13728,1,0,0:0:0:0:
64,192,13728,1,0,0:0:0:0:
320,192,13787,1,0,0:0:0:0:
448,192,13787,1,0,0:0:0:0:
192,192,13846,1,0,0:0:0:0:
448,192,13905,1,0,0:0:0:0:
64,192,13905,1,0,0:0:0:0:
320,192,13963,1,0,0:0:0:0:
192,192,14023,1,0,0:0:0:0:
64,192,14023,1,0,0:0:0:0:
448,192,14081,1,0,0:0:0:0:
320,192,14140,1,0,0:0:0:0:
448,192,14140,1,0,0:0:0:0:
64,192,14140,1,0,0:0:0:0:
192,192,14140,1,0,0:0:0:0:
64,192,14199,1,0,0:0:0:0:
192,192,14258,1,0,0:0:0:0:
448,192,14316,1,0,0:0:0:0:
192,192,14376,1,0,0:0:0:0:
320,192,14376,1,0,0:0:0:0:
64,192,14435,1,0,0:0:0:0:
320,192,14493,1,0,0:0:0:0:
448,192,14493,1,0,0:0:0:0:
64,192,14553,1,0,0:0:0:0:
192,192,14611,1,0,0:0:0:0:
448,192,14611,1,0,0:0:0:0:
320,192,14670,1,0,0:0:0:0:
64,192,14670,1,0,0:0:0:0:
192,192,14729,1,0,0:0:0:0:
448,192,14729,1,0,0:0:0:0:
320,192,14788,1,0,0:0:0:0:
192,192,14846,1,0,0:0:0:0:
64,192,14846,1,0,0:0:0:0:
320,192,14906,1,0,0:0:0:0:
64,192,14964,1,0,0:0:0:0:
448,192,14964,1,0,0:0:0:0:
192,192,15023,1,0,0:0:0:0:
320,192,15082,1,0,0:0:0:0:
448,192,15082,1,0,0:0:0:0:
64,192,15082,1,0,0:0:0:0:
192,192,15082,1,0,0:0:0:0:
448,192,15141,1,0,0:0:0:0:
320,192,15200,1,0,0:0:0:0:
192,192,15259,1,0,0:0:0:0:
448,192,15317,1,0,0:0:0:0:
64,192,15317,1,0,0:0:0:0:
320,192,15376,1,0,0:0:0:0:
192,192,15436,1,0,0:0:0:0:
64,192,15436,1,0,0:0:0:0:
320,192,15494,1,0,0:0:0:0:
448,192,15553,1,0,0:0:0:0:
64,192,15553,1,0,0:0:0:0:
192,192,15612,1,0,0:0:0:0:
320,192,15612,1,0,0:0:0:0:
64,192,15671,1,0,0:0:0:0:
448,192,15671,1,0,0:0:0:0:
192,192,15710,1,0,0:0:0:0:
320,192,15750,1,0,0:0:0:0:
64,192,15789,1,0,0:0:0:0:
448,192,15789,1,0,0:0:0:0:
192,192,15828,1,0,0:0:0:0:
320,192,15867,1,0,0:0:0:0:
64,192,15906,1,0,0:0:0:0:
192,192,15906,1,0,0:0:0:0:
448,192,15946,1,0,0:0:0:0:
320,192,15985,1,0,0:0:0:0:
192,192,16024,1,0,0:0:0:0:
448,192,16024,1,0,0:0:0:0:
64,192,16024,1,0,0:0:0:0:
320,192,16083,1,0,0:0:0:0:
64,192,16142,1,0,0:0:0:0:
192,192,16200,1,0,0:0:0:0:
320,192,16260,1,0,0:0:0:0:
448,192,16260,1,0,0:0:0:0:
64,192,16318,1,0,0:0:0:0:
320,192,16377,1,0,0:0:0:0:
192,192,16377,1,0,0:0:0:0:
448,192,16436,1,0,0:0:0:0:
192,192,16495,1,0,0:0:0:0:
64,192,16495,1,0,0:0:0:0:
320,192,16554,1,0,0:0:0:0:
448,192,16554,1,0,0:0:0:0:
192,192,16613,1,0,0:0:0:0:
64,192,16613,1,0,0:0:0:0:
320,192,16672,1,0,0:0:0:0:
64,192,16730,1,0,0:0:0:0:
448,192,16730,1,0,0:0:0:0:
192,192,16790,1,0,0:0:0:0:
320,192,16848,1,0,0:0:0:0:
448,192,16848,1,0,0:0:0:0:
64,192,16907,1,0,0:0:0:0:
320,192,16966,1,0,0:0:0:0:
448,192,16966,1,0,0:0:0:0:
192,192,16966,1,0,0:0:0:0:
64,192,16966,1,0,0:0:0:0:
320,192,17025,1,0,0:0:0:0:
192,192,17083,1,0,0:0:0:0:
64,192,17143,1,0,0:0:0:0:
320,192,17201,1,0,0:0:0:0:
448,192,17201,1,0,0:0:0:0:
64,192,17260,1,0,0:0:0:0:
192,192,17320,1,0,0:0:0:0:
448,192,17320,1,0,0:0:0:0:
320,192,17378,1,0,0:0:0:0:
64,192,17437,1,0,0:0:0:0:
192,192,17437,1,0,0:0:0:0:
320,192,17496,1,0,0:0:0:0:
448,192,17496,1,0,0:0:0:0:
192,192,17555,1,0,0:0:0:0:
64,192,17555,1,0,0:0:0:0:
448,192,17613,1,0,0:0:0:0:
320,192,17673,1,0,0:0:0:0:
64,192,17673,1,0,0:0:0:0:
192,192,17731,1,0,0:0:0:0:
320,192,17790,1,0,0:0:0:0:
448,192,17790,1,0,0:0:0:0:
64,192,17849,1,0,0:0:0:0:
320,192,17908,1,0,0:0:0:0:
448,192,17908,1,0,0:0:0:0:
192,192,17908,1,0,0:0:0:0:
64,192,17908,1,0,0:0:0:0:
448,192,17966,1,0,0:0:0:0:
320,192,18026,1,0,0:0:0:0:
192,192,18084,1,0,0:0:0:0:
64,192,18143,1,0,0:0:0:0:
448,192,18143,1,0,0:0:0:0:
320,192,18202,1,0,0:0:0:0:
192,192,18261,1,0,0:0:0:0:
64,192,18261,1,0,0:0:0:0:
448,192,18320,1,0,0:0:0:0:
64,192,18379,1,0,0:0:0:0:
320,192,18379,1,0,0:0:0:0:
448,192,18438,1,0,0:0:0:0:
192,192,18438,1,0,0:0:0:0:
64,192,18496,1,0,0:0:0:0:
320,192,18496,1,0,0:0:0:0:
192,192,18556,1,0,0:0:0:0:
320,192,18614,1,0,0:0:0:0:
448,192,18614,1,0,0:0:0:0:
192,192,18673,1,0,0:0:0:0:
64,192,18732,1,0,0:0:0:0:
448,192,18732,1,0,0:0:0:0:
320,192,18791,1,0,0:0:0:0:
448,192,18850,1,0,0:0:0:0:
320,192,18850,1,0,0:0:0:0:
192,192,18850,1,0,0:0:0:0:
64,192,18850,1,0,0:0:0:0:
192,192,18909,1,0,0:0:0:0:
320,192,18967,1,0,0:0:0:0:
448,192,19026,1,0,0:0:0:0:
192,192,19085,1,0,0:0:0:0:
64,192,19085,1,0,0:0:0:0:
448,192,19144,1,0,0:0:0:0:
320,192,19203,1,0,0:0:0:0:
192,192,19203,1,0,0:0:0:0:
64,192,19262,1,0,0:0:0:0:
320,192,19321,1,0,0:0:0:0:
448,192,19321,1,0,0:0:0:0:
192,192,19380,1,0,0:0:0:0:
64,192,19380,1,0,0:0:0:0:
320,192,19439,1,0,0:0:0:0:
448,192,19439,1,0,0:0:0:0:
192,192,19478,1,0,0:0:0:0:
320,192,19517,1,0,0:0:0:0:
64,192,19556,1,0,0:0:0:0:
448,192,19556,1,0,0:0:0:0:
192,192,19596,1,0,0:0:0:0:
320,192,19635,1,0,0:0:0:0:
64,192,19674,1,0,0:0:0:0:
192,192,19674,1,0,0:0:0:0:
448,192,19713,1,0,0:0:0:0:
320,192,19753,1,0,0:0:0:0:
448,192,19792,1,0,0:0:0:0:
192,192,19792,1,0,0:0:0:0:
64,192,19792,1,0,0:0:0:0:
320,192,19850,1,0,0:0:0:0:
64,192,19910,1,0,0:0:0:0:
192,192,19968,1,0,0:0:0:0:
320,192,20027,1,0,0:0:0:0:
448,192,20027,1,0,0:0:0:0:
192,192,20086,1,0,0:0:0:0:
64,192,20145,1,0,0:0:0:0:
448,192,20145,1,0,0:0:0:0:
320,192,20204,1,0,0:0:0:0:
192,192,20263,1,0,0:0:0:0:
64,192,20263,1,0,0:0:0:0:
320,192,20322,1,0,0:0:0:0:
448,192,20322,1,0,0:0:0:0:
192,192,20380,1,0,0:0:0:0:
64,192,20380,1,0,0:0:0:0:
448,192,20440,1,0,0:0:0:0:
320,192,20498,1,0,0:0:0:0:
192,192,20498,1,0,0:0:0:0:
64,192,20557,1,0,0:0:0:0:
320,192,20616,1,0,0:0:0:0:
448,192,20616,1,0,0:0:0:0:
192,192,20675,1,0,0:0:0:0:
448,192,20733,1,0,0:0:0:0:
320,192,20733,1,0,0:0:0:0:
192,192,20733,1,0,0:0:0:0:
64,192,20733,1,0,0:0:0:0:
448,192,20793,1,0,0:0:0:0:
64,192,20851,1,0,0:0:0:0:
192,192,20910,1,0,0:0:0:0:
320,192,20969,1,0,0:0:0:0:
448,192,20969,1,0,0:0:0:0:
64,192,21028,1,0,0:0:0:0:
192,192,21086,1,0,0:0:0:0:
448,192,21086,1,0,0:0:0:0:
320,192,21146,1,0,0:0:0:0:
192,192,21205,1,0,0:0:0:0:
64,192,21205,1,0,0:0:0:0:
320,192,21263,1,0,0:0:0:0:
448,192,21263,1,0,0:0:0:0:
64,192,21323,1,0,0:0:0:0:
192,192,21323,1,0,0:0:0:0:
448,192,21381,1,0,0:0:0:0:
320,192,21440,1,0,0:0:0:0:
64,192,21440,1,0,0:0:0:0:
192,192,21499,1,0,0:0:0:0:
320,192,21558,1,0,0:0:0:0:
448,192,21558,1,0,0:0:0:0:
64,192,21616,1,0,0:0:0:0:
320,192,21676,1,0,0:0:0:0:
448,192,21676,1,0,0:0:0:0:
192,192,21676,1,0,0:0:0:0:
64,192,21676,1,0,0:0:0:0:
320,192,21734,1,0,0:0:0:0:
192,192,21793,1,0,0:0:0:0:
64,192,21852,1,0,0:0:0:0:
448,192,21911,1,0,0:0:0:0:
320,192,21911,1,0,0:0:0:0:
192,192,21970,1,0,0:0:0:0:
64,192,22029,1,0,0:0:0:0:
448,192,22029,1,0,0:0:0:0:
320,192,22087,1,0,0:0:0:0:
192,192,22146,1,0,0:0:0:0:
64,192,22146,1,0,0:0:0:0:
320,192,22206,1,0,0:0:0:0:
448,192,22206,1,0,0:0:0:0:
192,192,22264,1,0,0:0:0:0:
64,192,22264,1,0,0:0:0:0:
448,192,22323,1,0,0:0:0:0:
320,192,22382,1,0,0:0:0:0:
192,192,22382,1,0,0:0:0:0:
64,192,22441,1,0,0:0:0:0:
320,192,22500,1,0,0:0:0:0:
448,192,22500,1,0,0:0:0:0:
192,192,22559,1,0,0:0:0:0:
448,192,22617,1,0,0:0:0:0:
320,192,22617,1,0,0:0:0:0:
192,192,22617,1,0,0:0:0:0:
64,192,22617,1,0,0:0:0:0:
320,192,22676,1,0,0:0:0:0:
64,192,22735,1,0,0:0:0:0:
192,192,22794,1,0,0:0:0:0:
320,192,22853,1,0,0:0:0:0:
448,192,22853,1,0,0:0:0:0:
192,192,22912,1,0,0:0:0:0:
64,192,22970,1,0,0:0:0:0:
448,192,22970,1,0,0:0:0:0:
320,192,23030,1,0,0:0:0:0:
192,192,23089,1,0,0:0:0:0:
64,192,23089,1,0,0:0:0:0:
320,192,23147,1,0,0:0:0:0:
448,192,23147,1,0,0:0:0:0:
192,192,23206,1,0,0:0:0:0:
64,192,23206,1,0,0:0:0:0:
448,192,23265,1,0,0:0:0:0:
320,192,23324,1,0,0:0:0:0:
192,192,23324,1,0,0:0:0:0:
64,192,23383,1,0,0:0:0:0:
320,192,23442,1,0,0:0:0:0:
448,192,23442,1,0,0:0:0:0:
64,192,23500,1,0,0:0:0:0:
320,192,23560,1,0,0:0:0:0:
448,192,23560,1,0,0:0:0:0:
192,192,23560,1,0,0:0:0:0:
64,192,23560,1,0,0:0:0:0:
192,192,23677,1,0,0:0:0:0:
448,192,23795,1,0,0:0:0:0:
320,192,23913,1,0,0:0:0:0:
448,192,23913,1,0,0:0:0:0:
192,192,23913,1,0,0:0:0:0:
64,192,23913,1,0,0:0:0:0:
192,192,24030,1,0,0:0:0:0:
320,192,24090,1,0,0:0:0:0:
192,192,24148,1,0,0:0:0:0:
448,192,24148,1,0,0:0:0:0:
320,192,24266,1,0,0:0:0:0:
192,192,24325,1,0,0:0:0:0:
448,192,24383,1,0,0:0:0:0:
64,192,24383,1,0,0:0:0:0:
320,192,24501,1,0,0:0:0:0:
448,192,24501,1,0,0:0:0:0:
192,192,24501,1,0,0:0:0:0:
64,192,24501,1,0,0:0:0:0:
320,192,24619,1,0,0:0:0:0:
64,192,24736,1,0,0:0:0:0:
320,192,24854,1,0,0:0:0:0:
448,192,24854,1,0,0:0:0:0:
192,192,24854,1,0,0:0:0:0:
64,192,24854,1,0,0:0:0:0:
320,192,24972,1,0,0:0:0:0:
192,192,25031,1,0,0:0:0:0:
64,192,25090,1,0,0:0:0:0:
320,192,25090,1,0,0:0:0:0:
64,192,25208,1,0,0:0:0:0:
448,192,25266,1,0,0:0:0:0:
192,192,25326,1,0,0:0:0:0:
320,192,25326,1,0,0:0:0:0:
320,192,25443,1,0,0:0:0:0:
448,192,25443,1,0,0:0:0:0:
192,192,25443,1,0,0:0:0:0:
64,192,25443,1,0,0:0:0:0:
64,192,25561,1,0,0:0:0:0:
448,192,25679,1,0,0:0:0:0:
64,192,25796,1,0,0:0:0:0:
192,192,25796,1,0,0:0:0:0:
320,192,25796,1,0,0:0:0:0:
448,192,25796,1,0,0:0:0:0:
192,192,25914,1,0,0:0:0:0:
320,192,25973,1,0,0:0:0:0:
64,192,26032,1,0,0:0:0:0:
448,192,26032,1,0,0:0:0:0:
448,192,26150,1,0,0:0:0:0:
320,192,26209,1,0,0:0:0:0:
64,192,26267,1,0,0:0:0:0:
192,192,26267,1,0,0:0:0:0:
448,192,26385,1,0,0:0:0:0:
320,192,26385,1,0,0:0:0:0:
192,192,26385,1,0,0:0:0:0:
64,192,26385,1,0,0:0:0:0:
320,192,26503,1,0,0:0:0:0:
448,192,26503,1,0,0:0:0:0:
192,192,26620,1,0,0:0:0:0:
64,192,26620,1,0,0:0:0:0:
320,192,26738,1,0,0:0:0:0:
64,192,26738,1,0,0:0:0:0:
448,192,26738,1,0,0:0:0:0:
192,192,26856,1,0,0:0:0:0:
320,192,26856,1,0,0:0:0:0:
192,192,26974,1,0,0:0:0:0:
64,192,26974,1,0,0:0:0:0:
448,192,27092,1,0,0:0:0:0:
320,192,27092,1,0,0:0:0:0:
192,192,27150,1,0,0:0:0:0:
64,192,27150,1,0,0:0:0:0:
320,192,27210,1,0,0:0:0:0:
448,192,27210,1,0,0:0:0:0:
192,192,27268,1,0,0:0:0:0:
64,192,27268,1,0,0:0:0:0:
320,192,27327,1,0,0:0:0:0:
448,192,27327,1,0,0:0:0:0:
64,192,27327,1,0,0:0:0:0:
192,192,27327,1,0,0:0:0:0:
320,192,27445,1,0,0:0:0:0:
448,192,27445,1,0,0:0:0:0:
320,192,27563,1,0,0:0:0:0:
64,192,27563,1,0,0:0:0:0:
192,192,27563,1,0,0:0:0:0:
64,192,27680,1,0,0:0:0:0:
448,192,27680,1,0,0:0:0:0:
320,192,27798,1,0,0:0:0:0:
448,192,27798,1,0,0:0:0:0:
192,192,27798,1,0,0:0:0:0:
320,192,27916,1,0,0:0:0:0:
64,192,27916,1,0,0:0:0:0:
64,192,28033,1,0,0:0:0:0:
320,192,28033,1,0,0:0:0:0:
192,192,28033,1,0,0:0:0:0:
448,192,28151,1,0,0:0:0:0:
192,192,28151,1,0,0:0:0:0:
192,192,28269,1,0,0:0:0:0:
448,192,28269,1,0,0:0:0:0:
320,192,28269,1,0,0:0:0:0:
64,192,28269,1,0,0:0:0:0:
320,192,28386,1,0,0:0:0:0:
192,192,28386,1,0,0:0:0:0:
192,192,28504,1,0,0:0:0:0:
320,192,28504,1,0,0:0:0:0:
448,192,28504,1,0,0:0:0:0:
448,192,28622,1,0,0:0:0:0:
64,192,28622,1,0,0:0:0:0:
64,192,28740,1,0,0:0:0:0:
320,192,28740,1,0,0:0:0:0:
192,192,28740,1,0,0:0:0:0:
320,192,28858,1,0,0:0:0:0:
448,192,28858,1,0,0:0:0:0:
192,192,28976,1,0,0:0:0:0:
320,192,28976,1,0,0:0:0:0:
448,192,28976,1,0,0:0:0:0:
192,192,29093,1,0,0:0:0:0:
64,192,29093,1,0,0:0:0:0:
320,192,29211,1,0,0:0:0:0:
448,192,29211,1,0,0:0:0:0:
192,192,29211,1,0,0:0:0:0:
64,192,29211,1,0,0:0:0:0:
320,192,29329,1,0,0:0:0:0:
448,192,29329,1,0,0:0:0:0:
192,192,29446,1,0,0:0:0:0:
320,192,29446,1,0,0:0:0:0:
64,192,29446,1,0,0:0:0:0:
192,192,29564,1,0,0:0:0:0:
448,192,29564,1,0,0:0:0:0:
320,192,29682,1,0,0:0:0:0:
448,192,29682,1,0,0:0:0:0:
64,192,29682,1,0,0:0:0:0:
192,192,29800,1,0,0:0:0:0:
320,192,29800,1,0,0:0:0:0:
192,192,29917,1,0,0:0:0:0:
64,192,29917,1,0,0:0:0:0:
448,192,29917,1,0,0:0:0:0:
320,192,30035,1,0,0:0:0:0:
64,192,30035,1,0,0:0:0:0:
64,192,30153,1,0,0:0:0:0:
192,192,30153,1,0,0:0:0:0:
320,192,30153,1,0,0:0:0:0:
448,192,30153,1,0,0:0:0:0:
192,192,30270,1,0,0:0:0:0:
320,192,30270,1,0,0:0:0:0:
192,192,30388,1,0,0:0:0:0:
448,192,30388,1,0,0:0:0:0:
320,192,30388,1,0,0:0:0:0:
64,192,30388,1,0,0:0:0:0:
192,192,30506,1,0,0:0:0:0:
320,192,30506,1,0,0:0:0:0:
192,192,30623,1,0,0:0:0:0:
320,192,30623,1,0,0:0:0:0:
448,192,30623,1,0,0:0:0:0:
64,192,30623,1,0,0:0:0:0:
64,192,30741,1,0,0:0:0:0:
448,192,30741,1,0,0:0:0:0:
192,192,30860,1,0,0:0:0:0:
320,192,30860,1,0,0:0:0:0:
448,192,30860,1,0,0:0:0:0:
64,192,30860,1,0,0:0:0:0:
64,192,30977,1,0,0:0:0:0:
448,192,30977,1,0,0:0:0:0:
64,192,31095,1,0,0:0:0:0:
192,192,31095,1,0,0:0:0:0:
320,192,31095,1,0,0:0:0:0:
448,192,31095,1,0,0:0:0:0:
192,192,31213,1,0,0:0:0:0:
64,192,31213,1,0,0:0:0:0:
192,192,31330,1,0,0:0:0:0:
320,192,31330,1,0,0:0:0:0:
448,192,31330,1,0,0:0:0:0:
320,192,31448,1,0,0:0:0:0:
64,192,31448,1,0,0:0:0:0:
192,192,31566,1,0,0:0:0:0:
64,192,31566,1,0,0:0:0:0:
448,192,31566,1,0,0:0:0:0:
192,192,31683,1,0,0:0:0:0:
448,192,31683,1,0,0:0:0:0:
192,192,31801,1,0,0:0:0:0:
320,192,31801,1,0,0:0:0:0:
448,192,31801,1,0,0:0:0:0:
64,192,31801,1,0,0:0:0:0:
320,192,31919,1,0,0:0:0:0:
448,192,31919,1,0,0:0:0:0:
64,192,32036,1,0,0:0:0:0:
192,192,32036,1,0,0:0:0:0:
320,192,32036,1,0,0:0:0:0:
448,192,32036,1,0,0:0:0:0:
320,192,32154,1,0,0:0:0:0:
64,192,32154,1,0,0:0:0:0:
192,192,32272,1,0,0:0:0:0:
64,192,32272,1,0,0:0:0:0:
448,192,32272,1,0,0:0:0:0:
320,192,32390,1,0,0:0:0:0:
192,192,32390,1,0,0:0:0:0:
64,192,32507,1,0,0:0:0:0:
320,192,32507,1,0,0:0:0:0:
448,192,32507,1,0,0:0:0:0:
64,192,32625,1,0,0:0:0:0:
192,192,32625,1,0,0:0:0:0:
192,192,32743,1,0,0:0:0:0:
320,192,32743,1,0,0:0:0:0:
448,192,32743,1,0,0:0:0:0:
448,192,32861,1,0,0:0:0:0:
192,192,32861,1,0,0:0:0:0:
64,192,32979,1,0,0:0:0:0:
192,192,32979,1,0,0:0:0:0:
320,192,32979,1,0,0:0:0:0:
448,192,32979,1,0,0:0:0:0:
320,192,33096,1,0,0:0:0:0:
448,192,33096,1,0,0:0:0:0:
192,192,33214,1,0,0:0:0:0:
320,192,33214,1,0,0:0:0:0:
64,192,33214,1,0,0:0:0:0:
192,192,33332,1,0,0:0:0:0:
448,192,33332,1,0,0:0:0:0:
192,192,33450,1,0,0:0:0:0:
320,192,33450,1,0,0:0:0:0:
64,192,33450,1,0,0:0:0:0:
448,192,33567,1,0,0:0:0:0:
320,192,33567,1,0,0:0:0:0:
320,192,33685,1,0,0:0:0:0:
192,192,33685,1,0,0:0:0:0:
448,192,33685,1,0,0:0:0:0:
192,192,33803,1,0,0:0:0:0:
64,192,33803,1,0,0:0:0:0:
192,192,33920,1,0,0:0:0:0:
64,192,33920,1,0,0:0:0:0:
320,192,33920,1,0,0:0:0:0:
448,192,33920,1,0,0:0:0:0:
320,192,34038,1,0,0:0:0:0:
448,192,34038,1,0,0:0:0:0:
192,192,34156,1,0,0:0:0:0:
320,192,34156,1,0,0:0:0:0:
64,192,34156,1,0,0:0:0:0:
192,192,34273,1,0,0:0:0:0:
448,192,34273,1,0,0:0:0:0:
64,192,34391,1,0,0:0:0:0:
448,192,34391,1,0,0:0:0:0:
320,192,34391,1,0,0:0:0:0:
192,192,34509,1,0,0:0:0:0:
64,192,34509,1,0,0:0:0:0:
192,192,34627,1,0,0:0:0:0:
320,192,34627,1,0,0:0:0:0:
448,192,34627,1,0,0:0:0:0:
320,192,34745,1,0,0:0:0:0:
448,192,34745,1,0,0:0:0:0:
64,192,34863,1,0,0:0:0:0:
192,192,34863,1,0,0:0:0:0:
320,192,34863,1,0,0:0:0:0:
448,192,34863,1,0,0:0:0:0:
192,192,34980,1,0,0:0:0:0:
64,192,34980,1,0,0:0:0:0:
192,192,35098,1,0,0:0:0:0:
320,192,35098,1,0,0:0:0:0:
448,192,35098,1,0,0:0:0:0:
64,192,35216,1,0,0:0:0:0:
320,192,35216,1,0,0:0:0:0:
192,192,35333,1,0,0:0:0:0:
64,192,35333,1,0,0:0:0:0:
448,192,35333,1,0,0:0:0:0:
192,192,35451,1,0,0:0:0:0:
448,192,35451,1,0,0:0:0:0:
320,192,35569,1,0,0:0:0:0:
448,192,35569,1,0,0:0:0:0:
192,192,35569,1,0,0:0:0:0:
64,192,35686,1,0,0:0:0:0:
320,192,35686,1,0,0:0:0:0:
448,192,35804,1,0,0:0:0:0:
320,192,35804,1,0,0:0:0:0:
192,192,35804,1,0,0:0:0:0:
64,192,35804,1,0,0:0:0:0:
320,192,35922,1,0,0:0:0:0:
448,192,35922,1,0,0:0:0:0:
64,192,36040,1,0,0:0:0:0:
192,192,36040,1,0,0:0:0:0:
448,192,36040,1,0,0:0:0:0:
320,192,36157,1,0,0:0:0:0:
64,192,36157,1,0,0:0:0:0:
192,192,36275,1,0,0:0:0:0:
448,192,36275,1,0,0:0:0:0:
320,192,36275,1,0,0:0:0:0:
192,192,36393,1,0,0:0:0:0:
448,192,36393,1,0,0:0:0:0:
320,192,36510,1,0,0:0:0:0:
64,192,36510,1,0,0:0:0:0:
448,192,36510,1,0,0:0:0:0:
320,192,36629,1,0,0:0:0:0:
192,192,36629,1,0,0:0:0:0:
64,192,36746,1,0,0:0:0:0:
192,192,36746,1,0,0:0:0:0:
320,192,36746,1,0,0:0:0:0:
448,192,36746,1,0,0:0:0:0:
192,192,36864,1,0,0:0:0:0:
64,192,36864,1,0,0:0:0:0:
64,192,36982,1,0,0:0:0:0:
448,192,36982,1,0,0:0:0:0:
320,192,36982,1,0,0:0:0:0:
192,192,37100,1,0,0:0:0:0:
448,192,37100,1,0,0:0:0:0:
192,192,37217,1,0,0:0:0:0:
320,192,37217,1,0,0:0:0:0:
64,192,37217,1,0,0:0:0:0:
320,192,37335,1,0,0:0:0:0:
64,192,37335,1,0,0:0:0:0:
64,192,37453,1,0,0:0:0:0:
448,192,37453,1,0,0:0:0:0:
192,192,37453,1,0,0:0:0:0:
448,192,37570,1,0,0:0:0:0:
320,192,37570,1,0,0:0:0:0:
448,192,37688,1,0,0:0:0:0:
320,192,37688,1,0,0:0:0:0:
192,192,37688,1,0,0:0:0:0:
64,192,37688,1,0,0:0:0:0:
192,192,37806,1,0,0:0:0:0:
64,192,37806,1,0,0:0:0:0:
320,192,37923,1,0,0:0:0:0:
448,192,37923,1,0,0:0:0:0:
192,192,37923,1,0,0:0:0:0:
64,192,37923,1,0,0:0:0:0:
192,192,38041,1,0,0:0:0:0:
64,192,38041,1,0,0:0:0:0:
64,192,38159,1,0,0:0:0:0:
192,192,38159,1,0,0:0:0:0:
320,192,38159,1,0,0:0:0:0:
448,192,38159,1,0,0:0:0:0:
320,192,38276,1,0,0:0:0:0:
448,192,38276,1,0,0:0:0:0:
448,192,38394,1,0,0:0:0:0:
320,192,38394,1,0,0:0:0:0:
192,192,38394,1,0,0:0:0:0:
64,192,38394,1,0,0:0:0:0:
320,192,38513,1,0,0:0:0:0:
448,192,38513,1,0,0:0:0:0:
64,192,38630,1,0,0:0:0:0:
192,192,38630,1,0,0:0:0:0:
320,192,38630,1,0,0:0:0:0:
448,192,38630,1,0,0:0:0:0:
64,192,38748,1,0,0:0:0:0:
448,192,38748,1,0,0:0:0:0:
320,192,38866,1,0,0:0:0:0:
64,192,38866,1,0,0:0:0:0:
192,192,38866,1,0,0:0:0:0:
192,192,38983,1,0,0:0:0:0:
448,192,38983,1,0,0:0:0:0:
192,192,39101,1,0,0:0:0:0:
320,192,39101,1,0,0:0:0:0:
448,192,39101,1,0,0:0:0:0:
64,192,39219,1,0,0:0:0:0:
320,192,39219,1,0,0:0:0:0:
320,192,39336,1,0,0:0:0:0:
448,192,39336,1,0,0:0:0:0:
192,192,39336,1,0,0:0:0:0:
64,192,39336,1,0,0:0:0:0:
448,192,39454,1,0,0:0:0:0:
320,192,39454,1,0,0:0:0:0:
64,192,39572,1,0,0:0:0:0:
192,192,39572,1,0,0:0:0:0:
448,192,39572,1,0,0:0:0:0:
320,192,39572,1,0,0:0:0:0:
64,192,39690,1,0,0:0:0:0:
192,192,39690,1,0,0:0:0:0:
320,192,39807,1,0,0:0:0:0:
448,192,39807,1,0,0:0:0:0:
64,192,39807,1,0,0:0:0:0:
320,192,39925,1,0,0:0:0:0:
448,192,39925,1,0,0:0:0:0:
192,192,40043,1,0,0:0:0:0:
320,192,40043,1,0,0:0:0:0:
64,192,40043,1,0,0:0:0:0:
192,192,40160,1,0,0:0:0:0:
448,192,40160,1,0,0:0:0:0:
64,192,40278,1,0,0:0:0:0:
320,192,40278,1,0,0:0:0:0:
448,192,40278,1,0,0:0:0:0:
192,192,40396,1,0,0:0:0:0:
320,192,40396,1,0,0:0:0:0:
64,192,40514,1,0,0:0:0:0:
192,192,40514,1,0,0:0:0:0:
320,192,40514,1,0,0:0:0:0:
448,192,40514,1,0,0:0:0:0:
64,192,40632,1,0,0:0:0:0:
448,192,40632,1,0,0:0:0:0:
320,192,40750,1,0,0:0:0:0:
192,192,40750,1,0,0:0:0:0:
64,192,40750,1,0,0:0:0:0:
192,192,40867,1,0,0:0:0:0:
448,192,40867,1,0,0:0:0:0:
192,192,40985,1,0,0:0:0:0:
320,192,40985,1,0,0:0:0:0:
64,192,40985,1,0,0:0:0:0:
320,192,41103,1,0,0:0:0:0:
64,192,41103,1,0,0:0:0:0:
320,192,41220,1,0,0:0:0:0:
192,192,41220,1,0,0:0:0:0:
448,192,41220,1,0,0:0:0:0:
192,192,41338,1,0,0:0:0:0:
64,192,41338,1,0,0:0:0:0:
64,192,41456,1,0,0:0:0:0:
192,192,41456,1,0,0:0:0:0:
320,192,41456,1,0,0:0:0:0:
448,192,41456,1,0,0:0:0:0:
320,192,41573,1,0,0:0:0:0:
448,192,41573,1,0,0:0:0:0:
64,192,41691,1,0,0:0:0:0:
448,192,41691,1,0,0:0:0:0:
192,192,41691,1,0,0:0:0:0:
320,192,41809,1,0,0:0:0:0:
64,192,41809,1,0,0:0:0:0:
192,192,41926,1,0,0:0:0:0:
320,192,41926,1,0,0:0:0:0:
448,192,41926,1,0,0:0:0:0:
192,192,42044,1,0,0:0:0:0:
448,192,42044,1,0,0:0:0:0:
192,192,42162,1,0,0:0:0:0:
320,192,42162,1,0,0:0:0:0:
64,192,42162,1,0,0:0:0:0:
320,192,42280,1,0,0:0:0:0:
448,192,42280,1,0,0:0:0:0:
64,192,42398,1,0,0:0:0:0:
192,192,42398,1,0,0:0:0:0:
448,192,42398,1,0,0:0:0:0:
320,192,42398,1,0,0:0:0:0:
64,192,42456,1,0,0:0:0:0:
192,192,42516,1,0,0:0:0:0:
320,192,42574,1,0,0:0:0:0:
192,192,42633,1,0,0:0:0:0:
448,192,42633,1,0,0:0:0:0:
64,192,42692,1,0,0:0:0:0:
448,192,42751,1,0,0:0:0:0:
320,192,42751,1,0,0:0:0:0:
64,192,42810,1,0,0:0:0:0:
192,192,42869,1,0,0:0:0:0:
448,192,42869,1,0,0:0:0:0:
64,192,42927,1,0,0:0:0:0:
320,192,42927,1,0,0:0:0:0:
192,192,42986,1,0,0:0:0:0:
448,192,42986,1,0,0:0:0:0:
320,192,43045,1,0,0:0:0:0:
64,192,43104,1,0,0:0:0:0:
192,192,43104,1,0,0:0:0:0:
320,192,43163,1,0,0:0:0:0:
448,192,43222,1,0,0:0:0:0:
64,192,43222,1,0,0:0:0:0:
192,192,43281,1,0,0:0:0:0:
64,192,43340,1,0,0:0:0:0:
192,192,43340,1,0,0:0:0:0:
320,192,43340,1,0,0:0:0:0:
448,192,43340,1,0,0:0:0:0:
448,192,43399,1,0,0:0:0:0:
64,192,43457,1,0,0:0:0:0:
192,192,43516,1,0,0:0:0:0:
320,192,43575,1,0,0:0:0:0:
448,192,43575,1,0,0:0:0:0:
192,192,43634,1,0,0:0:0:0:
64,192,43693,1,0,0:0:0:0:
320,192,43693,1,0,0:0:0:0:
448,192,43752,1,0,0:0:0:0:
192,192,43810,1,0,0:0:0:0:
64,192,43810,1,0,0:0:0:0:
320,192,43850,1,0,0:0:0:0:
192,192,43889,1,0,0:0:0:0:
448,192,43928,1,0,0:0:0:0:
64,192,43928,1,0,0:0:0:0:
320,192,43967,1,0,0:0:0:0:
192,192,44006,1,0,0:0:0:0:
64,192,44046,1,0,0:0:0:0:
448,192,44046,1,0,0:0:0:0:
320,192,44085,1,0,0:0:0:0:
192,192,44124,1,0,0:0:0:0:
448,192,44163,1,0,0:0:0:0:
320,192,44163,1,0,0:0:0:0:
64,192,44203,1,0,0:0:0:0:
192,192,44243,1,0,0:0:0:0:
64,192,44282,1,0,0:0:0:0:
320,192,44282,1,0,0:0:0:0:
448,192,44282,1,0,0:0:0:0:
192,192,44321,1,0,0:0:0:0:
320,192,44360,1,0,0:0:0:0:
448,192,44400,1,0,0:0:0:0:
64,192,44458,1,0,0:0:0:0:
192,192,44517,1,0,0:0:0:0:
448,192,44517,1,0,0:0:0:0:
320,192,44576,1,0,0:0:0:0:
64,192,44635,1,0,0:0:0:0:
192,192,44635,1,0,0:0:0:0:
320,192,44693,1,0,0:0:0:0:
448,192,44693,1,0,0:0:0:0:
64,192,44753,1,0,0:0:0:0:
192,192,44753,1,0,0:0:0:0:
320,192,44811,1,0,0:0:0:0:
448,192,44870,1,0,0:0:0:0:
64,192,44870,1,0,0:0:0:0:
192,192,44929,1,0,0:0:0:0:
448,192,44988,1,0,0:0:0:0:
320,192,44988,1,0,0:0:0:0:
192,192,45046,1,0,0:0:0:0:
64,192,45106,1,0,0:0:0:0:
448,192,45106,1,0,0:0:0:0:
320,192,45164,1,0,0:0:0:0:
64,192,45223,1,0,0:0:0:0:
192,192,45223,1,0,0:0:0:0:
448,192,45223,1,0,0:0:0:0:
320,192,45223,1,0,0:0:0:0:
320,192,45459,1,0,0:0:0:0:
448,192,45459,1,0,0:0:0:0:
192,192,45459,1,0,0:0:0:0:
64,192,45459,1,0,0:0:0:0:
320,192,45576,1,0,0:0:0:0:
448,192,45576,1,0,0:0:0:0:
64,192,45694,1,0,0:0:0:0:
192,192,45694,1,0,0:0:0:0:
320,192,45694,1,0,0:0:0:0:
448,192,45694,1,0,0:0:0:0:
192,192,45812,1,0,0:0:0:0:
64,192,45812,1,0,0:0:0:0:
192,192,45930,1,0,0:0:0:0:
64,192,45930,1,0,0:0:0:0:
320,192,45930,1,0,0:0:0:0:
448,192,45930,1,0,0:0:0:0:
320,192,46047,1,0,0:0:0:0:
448,192,46047,1,0,0:0:0:0:
64,192,46166,1,0,0:0:0:0:
192,192,46166,1,0,0:0:0:0:
320,192,46166,1,0,0:0:0:0:
448,192,46166,1,0,0:0:0:0:
192,192,46224,1,0,0:0:0:0:
320,192,46283,1,0,0:0:0:0:
192,192,46342,1,0,0:0:0:0:
64,192,46401,1,0,0:0:0:0:
448,192,46401,1,0,0:0:0:0:
320,192,46460,1,0,0:0:0:0:
192,192,46519,1,0,0:0:0:0:
64,192,46519,1,0,0:0:0:0:
320,192,46577,1,0,0:0:0:0:
448,192,46577,1,0,0:0:0:0:
192,192,46636,1,0,0:0:0:0:
64,192,46636,1,0,0:0:0:0:
448,192,46695,1,0,0:0:0:0:
192,192,46754,1,0,0:0:0:0:
320,192,46754,1,0,0:0:0:0:
64,192,46813,1,0,0:0:0:0:
448,192,46872,1,0,0:0:0:0:
320,192,46872,1,0,0:0:0:0:
64,192,46930,1,0,0:0:0:0:
192,192,46990,1,0,0:0:0:0:
448,192,46990,1,0,0:0:0:0:
320,192,47048,1,0,0:0:0:0:
64,192,47107,1,0,0:0:0:0:
192,192,47107,1,0,0:0:0:0:
320,192,47107,1,0,0:0:0:0:
448,192,47107,1,0,0:0:0:0:
64,192,47166,1,0,0:0:0:0:
192,192,47225,1,0,0:0:0:0:
320,192,47284,1,0,0:0:0:0:
64,192,47343,1,0,0:0:0:0:
448,192,47343,1,0,0:0:0:0:
192,192,47402,1,0,0:0:0:0:
320,192,47460,1,0,0:0:0:0:
448,192,47460,1,0,0:0:0:0:
192,192,47520,1,0,0:0:0:0:
448,192,47578,1,0,0:0:0:0:
64,192,47578,1,0,0:0:0:0:
320,192,47637,1,0,0:0:0:0:
64,192,47696,1,0,0:0:0:0:
192,192,47696,1,0,0:0:0:0:
448,192,47755,1,0,0:0:0:0:
192,192,47813,1,0,0:0:0:0:
320,192,47813,1,0,0:0:0:0:
64,192,47873,1,0,0:0:0:0:
448,192,47931,1,0,0:0:0:0:
320,192,47931,1,0,0:0:0:0:
64,192,47970,1,0,0:0:0:0:
192,192,48010,1,0,0:0:0:0:
64,192,48049,1,0,0:0:0:0:
320,192,48049,1,0,0:0:0:0:
448,192,48049,1,0,0:0:0:0:
192,192,48089,5,0,0:0:0:0:
320,192,48128,1,0,0:0:0:0:
448,192,48167,5,0,0:0:0:0:
64,192,48206,1,0,0:0:0:0:
192,192,48246,1,0,0:0:0:0:
320,192,48285,5,0,0:0:0:0:
448,192,48285,1,0,0:0:0:0:
192,192,48324,1,0,0:0:0:0:
64,192,48363,1,0,0:0:0:0:
320,192,48403,1,0,0:0:0:0:
448,192,48403,1,0,0:0:0:0:
192,192,48461,1,0,0:0:0:0:
448,192,48520,1,0,0:0:0:0:
64,192,48520,1,0,0:0:0:0:
320,192,48579,1,0,0:0:0:0:
64,192,48638,1,0,0:0:0:0:
192,192,48638,1,0,0:0:0:0:
320,192,48677,1,0,0:0:0:0:
448,192,48716,1,0,0:0:0:0:
64,192,48756,1,0,0:0:0:0:
192,192,48756,1,0,0:0:0:0:
320,192,48795,1,0,0:0:0:0:
64,192,48834,1,0,0:0:0:0:
320,192,48873,1,0,0:0:0:0:
192,192,48873,1,0,0:0:0:0:
448,192,48913,1,0,0:0:0:0:
64,192,48952,1,0,0:0:0:0:
192,192,48991,5,0,0:0:0:0:
320,192,48991,1,0,0:0:0:0:
448,192,48991,1,0,0:0:0:0:
64,192,49030,1,0,0:0:0:0:
192,192,49070,1,0,0:0:0:0:
448,192,49109,1,0,0:0:0:0:
320,192,49148,1,0,0:0:0:0:
192,192,49187,1,0,0:0:0:0:
320,192,49226,1,0,0:0:0:0:
448,192,49226,1,0,0:0:0:0:
64,192,49226,1,0,0:0:0:0:
192,192,49286,1,0,0:0:0:0:
64,192,49344,1,0,0:0:0:0:
64,192,49462,1,0,0:0:0:0:
192,192,49462,1,0,0:0:0:0:
320,192,49580,1,0,0:0:0:0:
448,192,49580,128,0,49658:0:0:0:0:
64,192,49697,1,0,0:0:0:0:
192,192,49697,1,0,0:0:0:0:
448,192,49815,1,0,0:0:0:0:
320,192,49815,128,0,49893:0:0:0:0:
64,192,49933,1,0,0:0:0:0:
192,192,49933,1,0,0:0:0:0:
320,192,49933,1,0,0:0:0:0:
448,192,49933,1,0,0:0:0:0:
192,192,50169,1,0,0:0:0:0:
64,192,50286,1,0,0:0:0:0:
192,192,50286,1,0,0:0:0:0:
320,192,50286,1,0,0:0:0:0:
448,192,50286,1,0,0:0:0:0:
320,192,50404,1,0,0:0:0:0:
192,192,50463,1,0,0:0:0:0:
448,192,50522,1,0,0:0:0:0:
64,192,50522,1,0,0:0:0:0:
192,192,50640,1,0,0:0:0:0:
320,192,50698,1,0,0:0:0:0:
448,192,50757,1,0,0:0:0:0:
64,192,50757,1,0,0:0:0:0:
64,192,50875,1,0,0:0:0:0:
192,192,50875,1,0,0:0:0:0:
448,192,50875,1,0,0:0:0:0:
320,192,50875,1,0,0:0:0:0:
320,192,50993,1,0,0:0:0:0:
192,192,51110,1,0,0:0:0:0:
320,192,51228,1,0,0:0:0:0:
448,192,51228,1,0,0:0:0:0:
192,192,51228,1,0,0:0:0:0:
64,192,51228,1,0,0:0:0:0:
320,192,51346,1,0,0:0:0:0:
192,192,51405,1,0,0:0:0:0:
64,192,51463,1,0,0:0:0:0:
320,192,51463,1,0,0:0:0:0:
192,192,51581,1,0,0:0:0:0:
320,192,51640,1,0,0:0:0:0:
192,192,51699,1,0,0:0:0:0:
448,192,51699,1,0,0:0:0:0:
320,192,51816,1,0,0:0:0:0:
448,192,51816,1,0,0:0:0:0:
192,192,51816,1,0,0:0:0:0:
64,192,51816,1,0,0:0:0:0:
64,192,51935,1,0,0:0:0:0:
448,192,52053,1,0,0:0:0:0:
448,192,52170,1,0,0:0:0:0:
320,192,52170,1,0,0:0:0:0:
192,192,52170,1,0,0:0:0:0:
64,192,52170,1,0,0:0:0:0:
192,192,52288,1,0,0:0:0:0:
320,192,52346,1,0,0:0:0:0:
448,192,52406,1,0,0:0:0:0:
64,192,52406,1,0,0:0:0:0:
320,192,52523,1,0,0:0:0:0:
192,192,52582,1,0,0:0:0:0:
64,192,52641,1,0,0:0:0:0:
448,192,52641,1,0,0:0:0:0:
320,192,52759,1,0,0:0:0:0:
448,192,52759,1,0,0:0:0:0:
192,192,52759,1,0,0:0:0:0:
64,192,52759,1,0,0:0:0:0:
192,192,52876,1,0,0:0:0:0:
448,192,52994,1,0,0:0:0:0:
320,192,53112,1,0,0:0:0:0:
448,192,53112,1,0,0:0:0:0:
192,192,53112,1,0,0:0:0:0:
64,192,53112,1,0,0:0:0:0:
64,192,53230,1,0,0:0:0:0:
192,192,53269,1,0,0:0:0:0:
320,192,53308,1,0,0:0:0:0:
64,192,53347,1,0,0:0:0:0:
448,192,53347,1,0,0:0:0:0:
192,192,53386,1,0,0:0:0:0:
320,192,53426,1,0,0:0:0:0:
448,192,53465,1,0,0:0:0:0:
64,192,53504,1,0,0:0:0:0:
192,192,53543,1,0,0:0:0:0:
320,192,53583,1,0,0:0:0:0:
448,192,53583,1,0,0:0:0:0:
64,192,53622,1,0,0:0:0:0:
192,192,53661,1,0,0:0:0:0:
320,192,53700,1,0,0:0:0:0:
448,192,53700,1,0,0:0:0:0:
64,192,53700,1,0,0:0:0:0:
192,192,53760,1,0,0:0:0:0:
448,192,53818,1,0,0:0:0:0:
320,192,53877,1,0,0:0:0:0:
192,192,53936,1,0,0:0:0:0:
64,192,53936,1,0,0:0:0:0:
448,192,53995,1,0,0:0:0:0:
64,192,54054,1,0,0:0:0:0:
192,192,54054,1,0,0:0:0:0:
320,192,54054,1,0,0:0:0:0:
448,192,54113,1,0,0:0:0:0:
320,192,54172,1,0,0:0:0:0:
64,192,54172,1,0,0:0:0:0:
192,192,54230,1,0,0:0:0:0:
448,192,54230,1,0,0:0:0:0:
320,192,54290,1,0,0:0:0:0:
64,192,54290,1,0,0:0:0:0:
192,192,54348,1,0,0:0:0:0:
448,192,54407,1,0,0:0:0:0:
320,192,54407,1,0,0:0:0:0:
192,192,54466,1,0,0:0:0:0:
64,192,54525,1,0,0:0:0:0:
448,192,54525,1,0,0:0:0:0:
320,192,54583,1,0,0:0:0:0:
64,192,54643,1,0,0:0:0:0:
192,192,54643,1,0,0:0:0:0:
320,192,54643,1,0,0:0:0:0:
448,192,54643,1,0,0:0:0:0:
64,192,54701,1,0,0:0:0:0:
448,192,54760,1,0,0:0:0:0:
320,192,54820,1,0,0:0:0:0:
64,192,54878,1,0,0:0:0:0:
192,192,54878,1,0,0:0:0:0:
448,192,54937,1,0,0:0:0:0:
192,192,54996,1,0,0:0:0:0:
64,192,54996,1,0,0:0:0:0:
320,192,54996,1,0,0:0:0:0:
448,192,55055,1,0,0:0:0:0:
64,192,55113,1,0,0:0:0:0:
320,192,55113,1,0,0:0:0:0:
448,192,55173,1,0,0:0:0:0:
192,192,55173,1,0,0:0:0:0:
320,192,55231,1,0,0:0:0:0:
64,192,55231,1,0,0:0:0:0:
192,192,55290,1,0,0:0:0:0:
320,192,55349,1,0,0:0:0:0:
448,192,55349,1,0,0:0:0:0:
64,192,55408,1,0,0:0:0:0:
192,192,55466,1,0,0:0:0:0:
448,192,55466,1,0,0:0:0:0:
320,192,55526,1,0,0:0:0:0:
64,192,55584,1,0,0:0:0:0:
192,192,55584,1,0,0:0:0:0:
320,192,55584,1,0,0:0:0:0:
448,192,55584,1,0,0:0:0:0:
64,192,55643,1,0,0:0:0:0:
192,192,55702,1,0,0:0:0:0:
320,192,55761,1,0,0:0:0:0:
64,192,55820,1,0,0:0:0:0:
448,192,55820,1,0,0:0:0:0:
192,192,55879,1,0,0:0:0:0:
64,192,55938,1,0,0:0:0:0:
448,192,55938,1,0,0:0:0:0:
320,192,55938,1,0,0:0:0:0:
192,192,55996,1,0,0:0:0:0:
320,192,56056,1,0,0:0:0:0:
448,192,56056,1,0,0:0:0:0:
64,192,56114,1,0,0:0:0:0:
192,192,56114,1,0,0:0:0:0:
320,192,56173,1,0,0:0:0:0:
448,192,56173,1,0,0:0:0:0:
192,192,56232,1,0,0:0:0:0:
448,192,56291,1,0,0:0:0:0:
64,192,56291,1,0,0:0:0:0:
320,192,56350,1,0,0:0:0:0:
192,192,56409,1,0,0:0:0:0:
64,192,56409,1,0,0:0:0:0:
448,192,56467,1,0,0:0:0:0:
192,192,56526,1,0,0:0:0:0:
64,192,56526,1,0,0:0:0:0:
320,192,56526,1,0,0:0:0:0:
448,192,56526,1,0,0:0:0:0:
192,192,56585,1,0,0:0:0:0:
320,192,56644,1,0,0:0:0:0:
448,192,56703,1,0,0:0:0:0:
192,192,56762,1,0,0:0:0:0:
64,192,56762,1,0,0:0:0:0:
320,192,56821,1,0,0:0:0:0:
192,192,56880,1,0,0:0:0:0:
320,192,56939,1,0,0:0:0:0:
192,192,56997,1,0,0:0:0:0:
320,192,56997,1,0,0:0:0:0:
448,192,56997,1,0,0:0:0:0:
64,192,56997,1,0,0:0:0:0:
64,192,57468,1,0,0:0:0:0:
192,192,57468,1,0,0:0:0:0:
320,192,57468,1,0,0:0:0:0:
448,192,57468,1,0,0:0:0:0:
64,192,57704,1,0,0:0:0:0:
448,192,57704,1,0,0:0:0:0:
192,192,57763,1,0,0:0:0:0:
320,192,57822,1,0,0:0:0:0:
448,192,57822,1,0,0:0:0:0:
64,192,57880,1,0,0:0:0:0:
192,192,57940,1,0,0:0:0:0:
448,192,57940,1,0,0:0:0:0:
64,192,57998,1,0,0:0:0:0:
320,192,57998,1,0,0:0:0:0:
448,192,58057,1,0,0:0:0:0:
192,192,58057,1,0,0:0:0:0:
320,192,58116,1,0,0:0:0:0:
64,192,58175,1,0,0:0:0:0:
192,192,58175,1,0,0:0:0:0:
320,192,58233,1,0,0:0:0:0:
448,192,58293,1,0,0:0:0:0:
64,192,58293,1,0,0:0:0:0:
192,192,58351,1,0,0:0:0:0:
192,192,58410,1,0,0:0:0:0:
64,192,58410,1,0,0:0:0:0:
320,192,58410,1,0,0:0:0:0:
448,192,58410,1,0,0:0:0:0:
448,192,58469,1,0,0:0:0:0:
64,192,58528,1,0,0:0:0:0:
192,192,58586,1,0,0:0:0:0:
320,192,58646,1,0,0:0:0:0:
448,192,58646,1,0,0:0:0:0:
64,192,58705,1,0,0:0:0:0:
448,192,58763,1,0,0:0:0:0:
192,192,58763,1,0,0:0:0:0:
320,192,58823,1,0,0:0:0:0:
192,192,58881,1,0,0:0:0:0:
64,192,58881,1,0,0:0:0:0:
320,192,58940,1,0,0:0:0:0:
448,192,58940,1,0,0:0:0:0:
192,192,58999,1,0,0:0:0:0:
64,192,58999,1,0,0:0:0:0:
448,192,59058,1,0,0:0:0:0:
64,192,59116,1,0,0:0:0:0:
320,192,59116,1,0,0:0:0:0:
192,192,59176,1,0,0:0:0:0:
320,192,59234,1,0,0:0:0:0:
448,192,59234,1,0,0:0:0:0:
64,192,59293,1,0,0:0:0:0:
192,192,59352,1,0,0:0:0:0:
64,192,59352,1,0,0:0:0:0:
320,192,59352,1,0,0:0:0:0:
448,192,59352,1,0,0:0:0:0:
320,192,59411,1,0,0:0:0:0:
64,192,59470,1,0,0:0:0:0:
192,192,59529,1,0,0:0:0:0:
320,192,59587,1,0,0:0:0:0:
448,192,59587,1,0,0:0:0:0:
64,192,59646,1,0,0:0:0:0:
448,192,59706,1,0,0:0:0:0:
192,192,59706,1,0,0:0:0:0:
320,192,59764,1,0,0:0:0:0:
192,192,59823,1,0,0:0:0:0:
64,192,59823,1,0,0:0:0:0:
320,192,59882,1,0,0:0:0:0:
448,192,59882,1,0,0:0:0:0:
192,192,59941,1,0,0:0:0:0:
64,192,59941,1,0,0:0:0:0:
448,192,60000,1,0,0:0:0:0:
320,192,60059,1,0,0:0:0:0:
64,192,60059,1,0,0:0:0:0:
192,192,60117,1,0,0:0:0:0:
320,192,60176,1,0,0:0:0:0:
448,192,60176,1,0,0:0:0:0:
192,192,60235,1,0,0:0:0:0:
64,192,60294,1,0,0:0:0:0:
192,192,60294,1,0,0:0:0:0:
448,192,60294,1,0,0:0:0:0:
320,192,60294,1,0,0:0:0:0:
320,192,60353,1,0,0:0:0:0:
192,192,60412,1,0,0:0:0:0:
64,192,60470,1,0,0:0:0:0:
320,192,60530,1,0,0:0:0:0:
448,192,60530,1,0,0:0:0:0:
64,192,60589,1,0,0:0:0:0:
192,192,60647,1,0,0:0:0:0:
448,192,60647,1,0,0:0:0:0:
320,192,60706,1,0,0:0:0:0:
192,192,60765,1,0,0:0:0:0:
64,192,60765,1,0,0:0:0:0:
320,192,60824,1,0,0:0:0:0:
448,192,60824,1,0,0:0:0:0:
64,192,60883,1,0,0:0:0:0:
192,192,60883,1,0,0:0:0:0:
320,192,60922,1,0,0:0:0:0:
192,192,60961,1,0,0:0:0:0:
448,192,61000,1,0,0:0:0:0:
64,192,61000,1,0,0:0:0:0:
320,192,61040,1,0,0:0:0:0:
192,192,61079,1,0,0:0:0:0:
320,192,61118,1,0,0:0:0:0:
448,192,61118,1,0,0:0:0:0:
64,192,61157,1,0,0:0:0:0:
192,192,61196,1,0,0:0:0:0:
64,192,61236,1,0,0:0:0:0:
448,192,61236,1,0,0:0:0:0:
320,192,61236,1,0,0:0:0:0:
192,192,61295,1,0,0:0:0:0:
320,192,61353,1,0,0:0:0:0:
448,192,61413,1,0,0:0:0:0:
192,192,61471,1,0,0:0:0:0:
64,192,61471,1,0,0:0:0:0:
448,192,61530,1,0,0:0:0:0:
320,192,61590,1,0,0:0:0:0:
64,192,61590,1,0,0:0:0:0:
192,192,61648,1,0,0:0:0:0:
320,192,61707,1,0,0:0:0:0:
448,192,61707,1,0,0:0:0:0:
192,192,61766,1,0,0:0:0:0:
64,192,61766,1,0,0:0:0:0:
320,192,61825,1,0,0:0:0:0:
448,192,61825,1,0,0:0:0:0:
192,192,61883,1,0,0:0:0:0:
64,192,61943,1,0,0:0:0:0:
448,192,61943,1,0,0:0:0:0:
320,192,62001,1,0,0:0:0:0:
64,192,62060,1,0,0:0:0:0:
192,192,62060,1,0,0:0:0:0:
448,192,62119,1,0,0:0:0:0:
192,192,62178,1,0,0:0:0:0:
64,192,62178,1,0,0:0:0:0:
448,192,62178,1,0,0:0:0:0:
320,192,62178,1,0,0:0:0:0:
64,192,62236,1,0,0:0:0:0:
192,192,62296,1,0,0:0:0:0:
320,192,62354,1,0,0:0:0:0:
64,192,62413,1,0,0:0:0:0:
448,192,62413,1,0,0:0:0:0:
192,192,62472,1,0,0:0:0:0:
448,192,62531,1,0,0:0:0:0:
320,192,62531,1,0,0:0:0:0:
64,192,62590,1,0,0:0:0:0:
192,192,62649,1,0,0:0:0:0:
448,192,62649,1,0,0:0:0:0:
320,192,62708,1,0,0:0:0:0:
64,192,62708,1,0,0:0:0:0:
448,192,62766,1,0,0:0:0:0:
192,192,62766,1,0,0:0:0:0:
320,192,62826,1,0,0:0:0:0:
192,192,62884,1,0,0:0:0:0:
64,192,62884,1,0,0:0:0:0:
320,192,62943,1,0,0:0:0:0:
448,192,63002,1,0,0:0:0:0:
64,192,63002,1,0,0:0:0:0:
192,192,63061,1,0,0:0:0:0:
64,192,63120,1,0,0:0:0:0:
192,192,63120,1,0,0:0:0:0:
448,192,63120,1,0,0:0:0:0:
320,192,63120,1,0,0:0:0:0:
320,192,63179,1,0,0:0:0:0:
192,192,63237,1,0,0:0:0:0:
64,192,63296,1,0,0:0:0:0:
320,192,63355,1,0,0:0:0:0:
448,192,63355,1,0,0:0:0:0:
64,192,63414,1,0,0:0:0:0:
192,192,63473,1,0,0:0:0:0:
448,192,63473,1,0,0:0:0:0:
320,192,63532,1,0,0:0:0:0:
192,192,63591,1,0,0:0:0:0:
64,192,63591,1,0,0:0:0:0:
320,192,63650,1,0,0:0:0:0:
448,192,63650,1,0,0:0:0:0:
64,192,63709,1,0,0:0:0:0:
192,192,63709,1,0,0:0:0:0:
448,192,63767,1,0,0:0:0:0:
64,192,63826,1,0,0:0:0:0:
320,192,63826,1,0,0:0:0:0:
192,192,63885,1,0,0:0:0:0:
448,192,63944,1,0,0:0:0:0:
320,192,63944,1,0,0:0:0:0:
64,192,64003,1,0,0:0:0:0:
64,192,64062,1,0,0:0:0:0:
192,192,64062,1,0,0:0:0:0:
320,192,64062,1,0,0:0:0:0:
448,192,64062,1,0,0:0:0:0:
448,192,64120,1,0,0:0:0:0:
192,192,64180,1,0,0:0:0:0:
320,192,64238,1,0,0:0:0:0:
64,192,64297,1,0,0:0:0:0:
448,192,64297,1,0,0:0:0:0:
192,192,64356,1,0,0:0:0:0:
320,192,64415,1,0,0:0:0:0:
448,192,64415,1,0,0:0:0:0:
64,192,64474,1,0,0:0:0:0:
320,192,64533,1,0,0:0:0:0:
448,192,64533,1,0,0:0:0:0:
192,192,64592,1,0,0:0:0:0:
64,192,64592,1,0,0:0:0:0:
448,192,64650,1,0,0:0:0:0:
320,192,64650,1,0,0:0:0:0:
192,192,64690,1,0,0:0:0:0:
320,192,64729,1,0,0:0:0:0:
64,192,64768,1,0,0:0:0:0:
448,192,64768,1,0,0:0:0:0:
192,192,64807,1,0,0:0:0:0:
320,192,64846,1,0,0:0:0:0:
64,192,64886,1,0,0:0:0:0:
192,192,64886,1,0,0:0:0:0:
448,192,64925,1,0,0:0:0:0:
320,192,64964,1,0,0:0:0:0:
448,192,65003,1,0,0:0:0:0:
64,192,65003,1,0,0:0:0:0:
192,192,65003,1,0,0:0:0:0:
320,192,65063,1,0,0:0:0:0:
192,192,65121,1,0,0:0:0:0:
64,192,65180,1,0,0:0:0:0:
192,192,65239,1,0,0:0:0:0:
320,192,65239,1,0,0:0:0:0:
448,192,65298,1,0,0:0:0:0:
192,192,65356,1,0,0:0:0:0:
64,192,65356,1,0,0:0:0:0:
448,192,65416,1,0,0:0:0:0:
320,192,65475,1,0,0:0:0:0:
64,192,65475,1,0,0:0:0:0:
192,192,65533,1,0,0:0:0:0:
448,192,65533,1,0,0:0:0:0:
320,192,65593,1,0,0:0:0:0:
64,192,65593,1,0,0:0:0:0:
192,192,65651,1,0,0:0:0:0:
320,192,65710,1,0,0:0:0:0:
448,192,65710,1,0,0:0:0:0:
64,192,65769,1,0,0:0:0:0:
448,192,65828,1,0,0:0:0:0:
192,192,65828,1,0,0:0:0:0:
320,192,65886,1,0,0:0:0:0:
64,192,65946,1,0,0:0:0:0:
192,192,65946,1,0,0:0:0:0:
448,192,65946,1,0,0:0:0:0:
320,192,65946,1,0,0:0:0:0:
192,192,66004,1,0,0:0:0:0:
448,192,66063,1,0,0:0:0:0:
320,192,66122,1,0,0:0:0:0:
192,192,66181,1,0,0:0:0:0:
64,192,66181,1,0,0:0:0:0:
448,192,66240,1,0,0:0:0:0:
320,192,66299,1,0,0:0:0:0:
64,192,66299,1,0,0:0:0:0:
192,192,66358,1,0,0:0:0:0:
320,192,66416,1,0,0:0:0:0:
448,192,66416,1,0,0:0:0:0:
192,192,66476,1,0,0:0:0:0:
64,192,66476,1,0,0:0:0:0:
320,192,66534,1,0,0:0:0:0:
448,192,66534,1,0,0:0:0:0:
192,192,66593,1,0,0:0:0:0:
64,192,66652,1,0,0:0:0:0:
448,192,66652,1,0,0:0:0:0:
320,192,66711,1,0,0:0:0:0:
64,192,66770,1,0,0:0:0:0:
192,192,66770,1,0,0:0:0:0:
448,192,66829,1,0,0:0:0:0:
64,192,66887,1,0,0:0:0:0:
192,192,66887,1,0,0:0:0:0:
448,192,66887,1,0,0:0:0:0:
320,192,66887,1,0,0:0:0:0:
64,192,66946,1,0,0:0:0:0:
192,192,67005,1,0,0:0:0:0:
320,192,67064,1,0,0:0:0:0:
64,192,67123,1,0,0:0:0:0:
448,192,67123,1,0,0:0:0:0:
192,192,67182,1,0,0:0:0:0:
320,192,67240,1,0,0:0:0:0:
448,192,67240,1,0,0:0:0:0:
64,192,67300,1,0,0:0:0:0:
192,192,67359,1,0,0:0:0:0:
448,192,67359,1,0,0:0:0:0:
320,192,67417,1,0,0:0:0:0:
64,192,67417,1,0,0:0:0:0:
448,192,67476,1,0,0:0:0:0:
192,192,67476,1,0,0:0:0:0:
320,192,67535,1,0,0:0:0:0:
192,192,67594,1,0,0:0:0:0:
64,192,67594,1,0,0:0:0:0:
320,192,67653,1,0,0:0:0:0:
64,192,67712,1,0,0:0:0:0:
448,192,67712,1,0,0:0:0:0:
192,192,67770,1,0,0:0:0:0:
64,192,67830,1,0,0:0:0:0:
192,192,67830,1,0,0:0:0:0:
448,192,67830,1,0,0:0:0:0:
320,192,67830,1,0,0:0:0:0:
320,192,67888,1,0,0:0:0:0:
64,192,67947,1,0,0:0:0:0:
192,192,68006,1,0,0:0:0:0:
320,192,68065,1,0,0:0:0:0:
448,192,68065,1,0,0:0:0:0:
192,192,68123,1,0,0:0:0:0:
64,192,68183,1,0,0:0:0:0:
448,192,68183,1,0,0:0:0:0:
320,192,68241,1,0,0:0:0:0:
64,192,68300,1,0,0:0:0:0:
192,192,68300,1,0,0:0:0:0:
320,192,68360,1,0,0:0:0:0:
448,192,68360,1,0,0:0:0:0:
192,192,68418,1,0,0:0:0:0:
64,192,68418,1,0,0:0:0:0:
320,192,68457,1,0,0:0:0:0:
192,192,68496,1,0,0:0:0:0:
448,192,68536,1,0,0:0:0:0:
64,192,68536,1,0,0:0:0:0:
320,192,68575,1,0,0:0:0:0:
192,192,68614,1,0,0:0:0:0:
448,192,68653,1,0,0:0:0:0:
320,192,68653,1,0,0:0:0:0:
64,192,68693,1,0,0:0:0:0:
192,192,68732,1,0,0:0:0:0:
320,192,68771,1,0,0:0:0:0:
448,192,68771,1,0,0:0:0:0:
64,192,68771,1,0,0:0:0:0:
192,192,68830,1,0,0:0:0:0:
448,192,68889,1,0,0:0:0:0:
320,192,68948,1,0,0:0:0:0:
192,192,69006,1,0,0:0:0:0:
64,192,69006,1,0,0:0:0:0:
320,192,69066,1,0,0:0:0:0:
64,192,69124,1,0,0:0:0:0:
448,192,69124,1,0,0:0:0:0:
192,192,69183,1,0,0:0:0:0:
320,192,69243,1,0,0:0:0:0:
448,192,69243,1,0,0:0:0:0:
192,192,69301,1,0,0:0:0:0:
64,192,69301,1,0,0:0:0:0:
448,192,69360,1,0,0:0:0:0:
320,192,69360,1,0,0:0:0:0:
64,192,69419,1,0,0:0:0:0:
448,192,69478,1,0,0:0:0:0:
192,192,69478,1,0,0:0:0:0:
320,192,69536,1,0,0:0:0:0:
64,192,69596,1,0,0:0:0:0:
192,192,69596,1,0,0:0:0:0:
320,192,69654,1,0,0:0:0:0:
64,192,69713,1,0,0:0:0:0:
192,192,69713,1,0,0:0:0:0:
320,192,69713,1,0,0:0:0:0:
448,192,69713,1,0,0:0:0:0:
192,192,69772,1,0,0:0:0:0:
448,192,69831,1,0,0:0:0:0:
320,192,69890,1,0,0:0:0:0:
192,192,69949,1,0,0:0:0:0:
64,192,69949,1,0,0:0:0:0:
320,192,70007,1,0,0:0:0:0:
448,192,70066,1,0,0:0:0:0:
64,192,70066,1,0,0:0:0:0:
192,192,70125,1,0,0:0:0:0:
448,192,70184,1,0,0:0:0:0:
320,192,70184,1,0,0:0:0:0:
192,192,70243,1,0,0:0:0:0:
64,192,70243,1,0,0:0:0:0:
320,192,70302,1,0,0:0:0:0:
448,192,70302,1,0,0:0:0:0:
64,192,70361,1,0,0:0:0:0:
192,192,70420,1,0,0:0:0:0:
320,192,70420,1,0,0:0:0:0:
448,192,70479,1,0,0:0:0:0:
64,192,70537,1,0,0:0:0:0:
192,192,70537,1,0,0:0:0:0:
320,192,70596,1,0,0:0:0:0:
192,192,70655,1,0,0:0:0:0:
64,192,70655,1,0,0:0:0:0:
320,192,70655,1,0,0:0:0:0:
448,192,70655,1,0,0:0:0:0:
64,192,70714,1,0,0:0:0:0:
192,192,70773,1,0,0:0:0:0:
320,192,70832,1,0,0:0:0:0:
64,192,70890,1,0,0:0:0:0:
448,192,70890,1,0,0:0:0:0:
192,192,70950,1,0,0:0:0:0:
320,192,71008,1,0,0:0:0:0:
448,192,71008,1,0,0:0:0:0:
64,192,71067,1,0,0:0:0:0:
192,192,71126,1,0,0:0:0:0:
448,192,71126,1,0,0:0:0:0:
320,192,71185,1,0,0:0:0:0:
64,192,71185,1,0,0:0:0:0:
192,192,71244,1,0,0:0:0:0:
448,192,71244,1,0,0:0:0:0:
320,192,71303,1,0,0:0:0:0:
192,192,71362,1,0,0:0:0:0:
64,192,71362,1,0,0:0:0:0:
320,192,71420,1,0,0:0:0:0:
64,192,71480,1,0,0:0:0:0:
448,192,71480,1,0,0:0:0:0:
192,192,71538,1,0,0:0:0:0:
192,192,71597,1,0,0:0:0:0:
448,192,71597,1,0,0:0:0:0:
64,192,71597,1,0,0:0:0:0:
320,192,71597,1,0,0:0:0:0:
448,192,71656,1,0,0:0:0:0:
64,192,71715,1,0,0:0:0:0:
192,192,71773,1,0,0:0:0:0:
320,192,71833,1,0,0:0:0:0:
448,192,71833,1,0,0:0:0:0:
64,192,71891,1,0,0:0:0:0:
192,192,71950,1,0,0:0:0:0:
448,192,71950,1,0,0:0:0:0:
320,192,72009,1,0,0:0:0:0:
192,192,72068,1,0,0:0:0:0:
64,192,72068,1,0,0:0:0:0:
448,192,72127,1,0,0:0:0:0:
320,192,72127,1,0,0:0:0:0:
64,192,72186,1,0,0:0:0:0:
192,192,72186,1,0,0:0:0:0:
320,192,72225,1,0,0:0:0:0:
192,192,72264,1,0,0:0:0:0:
448,192,72303,1,0,0:0:0:0:
64,192,72303,1,0,0:0:0:0:
320,192,72343,1,0,0:0:0:0:
192,192,72382,1,0,0:0:0:0:
448,192,72421,1,0,0:0:0:0:
320,192,72421,1,0,0:0:0:0:
64,192,72460,1,0,0:0:0:0:
192,192,72500,1,0,0:0:0:0:
64,192,72539,1,0,0:0:0:0:
320,192,72539,1,0,0:0:0:0:
448,192,72539,1,0,0:0:0:0:
320,192,72774,1,0,0:0:0:0:
192,192,73952,1,0,0:0:0:0:
192,192,74187,1,0,0:0:0:0:
320,192,74658,1,0,0:0:0:0:
320,192,74893,1,0,0:0:0:0:
192,192,75600,1,0,0:0:0:0:
192,192,75836,1,0,0:0:0:0:
320,192,76306,1,0,0:0:0:0:
320,192,76542,1,0,0:0:0:0:
