osu file format v14

[General]
AudioFilename: audio.mp3
AudioLeadIn: 0
PreviewTime: 55118
Countdown: 0
SampleSet: None
StackLeniency: 0.7
Mode: 3
LetterboxInBreaks: 0
SpecialStyle: 0
WidescreenStoryboard: 0

[Editor]
DistanceSpacing: 0.8
BeatDivisor: 4
GridSize: 8
TimelineZoom: 2

[Metadata]
Title:Healing Vision (Angelic mix)
TitleUnicode:Healing Vision (Angelic mix)
Artist:2MB
ArtistUnicode:2MB
Creator:[ZtL] Marxder
Version:Critical rate // x1.0
Source:DanceDanceRevolution 5thMIX CS
Tags:electronic instrumental video game videogame music vgm ddr
BeatmapID:4542050
BeatmapSetID:2155036

[Difficulty]
HPDrainRate:8.5
CircleSize:4
OverallDifficulty:8
ApproachRate:5
SliderMultiplier:1.4
SliderTickRate:1

[Events]
//Background and Video events
0,0,"BG.jpg",0,0
//Break Periods
//Storyboard Layer 0 (Background)
//Storyboard Layer 1 (Fail)
//Storyboard Layer 2 (Pass)
//Storyboard Layer 3 (Foreground)
//Storyboard Layer 4 (Overlay)
//Storyboard Sound Samples

[TimingPoints]
16,306.122448979592,4,1,0,10,1,0
35526,-100,4,1,0,10,0,1
55118,-100,4,1,0,10,0,0
74097,-1000,4,1,0,10,0,0
74174,-500,4,1,0,10,0,0
74250,-333.333333333333,4,1,0,10,0,0
74327,-250,4,1,0,10,0,0
74403,-200,4,1,0,10,0,0
74480,-166.666666666667,4,1,0,10,0,0
74556,-142.857142857143,4,1,0,10,0,0
74633,-125,4,1,0,10,0,0
74709,-100,4,1,0,10,0,0

[HitObjects]
192,192,16,5,0,0:0:0:0:
192,192,322,1,0,0:0:0:0:
448,192,1240,1,0,0:0:0:0:
192,192,1240,1,0,0:0:0:0:
64,192,1240,1,0,0:0:0:0:
320,192,1852,1,0,0:0:0:0:
320,192,2158,1,0,0:0:0:0:
192,192,2771,1,0,0:0:0:0:
192,192,3077,1,0,0:0:0:0:
320,192,3995,1,0,0:0:0:0:
320,192,4301,1,0,0:0:0:0:
192,192,4913,1,0,0:0:0:0:
192,192,5220,1,0,0:0:0:0:
192,192,5832,1,0,0:0:0:0:
448,192,5908,1,0,0:0:0:0:
320,192,5985,1,0,0:0:0:0:
192,192,6061,1,0,0:0:0:0:
192,192,6138,1,0,0:0:0:0:
448,192,6138,1,0,0:0:0:0:
320,192,6138,1,0,0:0:0:0:
64,192,6138,1,0,0:0:0:0:
448,192,6214,1,0,0:0:0:0:
320,192,6291,1,0,0:0:0:0:
192,192,6368,1,0,0:0:0:0:
64,192,6444,1,0,0:0:0:0:
448,192,6444,1,0,0:0:0:0:
320,192,6521,1,0,0:0:0:0:
192,192,6597,1,0,0:0:0:0:
64,192,6597,1,0,0:0:0:0:
448,192,6674,1,0,0:0:0:0:
320,192,6750,1,0,0:0:0:0:
64,192,6750,1,0,0:0:0:0:
192,192,6827,1,0,0:0:0:0:
448,192,6827,1,0,0:0:0:0:
320,192,6903,1,0,0:0:0:0:
64,192,6903,1,0,0:0:0:0:
192,192,6980,1,0,0:0:0:0:
320,192,7056,1,0,0:0:0:0:
448,192,7056,1,0,0:0:0:0:
192,192,7133,1,0,0:0:0:0:
64,192,7209,1,0,0:0:0:0:
448,192,7209,1,0,0:0:0:0:
320,192,7286,1,0,0:0:0:0:
320,192,7362,1,0,0:0:0:0:
448,192,7362,1,0,0:0:0:0:
64,192,7362,1,0,0:0:0:0:
192,192,7362,1,0,0:0:0:0:
192,192,7439,1,0,0:0:0:0:
64,192,7516,1,0,0:0:0:0:
448,192,7592,1,0,0:0:0:0:
320,192,7669,1,0,0:0:0:0:
64,192,7669,1,0,0:0:0:0:
192,192,7745,1,0,0:0:0:0:
320,192,7822,1,0,0:0:0:0:
448,192,7822,1,0,0:0:0:0:
64,192,7898,1,0,0:0:0:0:
192,192,7975,1,0,0:0:0:0:
448,192,7975,1,0,0:0:0:0:
320,192,8051,1,0,0:0:0:0:
64,192,8051,1,0,0:0:0:0:
192,192,8128,1,0,0:0:0:0:
448,192,8128,1,0,0:0:0:0:
320,192,8204,1,0,0:0:0:0:
192,192,8281,1,0,0:0:0:0:
64,192,8281,1,0,0:0:0:0:
320,192,8357,1,0,0:0:0:0:
64,192,8434,1,0,0:0:0:0:
448,192,8434,1,0,0:0:0:0:
192,192,8510,1,0,0:0:0:0:
448,192,8587,1,0,0:0:0:0:
320,192,8587,1,0,0:0:0:0:
64,192,8587,1,0,0:0:0:0:
192,192,8587,1,0,0:0:0:0:
320,192,8663,1,0,0:0:0:0:
192,192,8740,1,0,0:0:0:0:
64,192,8817,1,0,0:0:0:0:
192,192,8893,1,0,0:0:0:0:
320,192,8893,1,0,0:0:0:0:
448,192,8970,1,0,0:0:0:0:
64,192,9046,1,0,0:0:0:0:
320,192,9046,1,0,0:0:0:0:
192,192,9123,1,0,0:0:0:0:
320,192,9199,1,0,0:0:0:0:
448,192,9199,1,0,0:0:0:0:
192,192,9276,1,0,0:0:0:0:
64,192,9276,1,0,0:0:0:0:
320,192,9352,1,0,0:0:0:0:
448,192,9352,1,0,0:0:0:0:
192,192,9429,1,0,0:0:0:0:
64,192,9505,1,0,0:0:0:0:
448,192,9505,1,0,0:0:0:0:
320,192,9582,1,0,0:0:0:0:
192,192,9658,1,0,0:0:0:0:
64,192,9658,1,0,0:0:0:0:
448,192,9735,1,0,0:0:0:0:
320,192,9811,1,0,0:0:0:0:
448,192,9811,1,0,0:0:0:0:
64,192,9811,1,0,0:0:0:0:
192,192,9811,1,0,0:0:0:0:
64,192,9888,1,0,0:0:0:0:
320,192,9964,1,0,0:0:0:0:
192,192,10041,1,0,0:0:0:0:
320,192,10118,1,0,0:0:0:0:
448,192,10118,1,0,0:0:0:0:
64,192,10194,1,0,0:0:0:0:
192,192,10271,1,0,0:0:0:0:
448,192,10271,1,0,0:0:0:0:
320,192,10347,1,0,0:0:0:0:
192,192,10424,1,0,0:0:0:0:
64,192,10424,1,0,0:0:0:0:
448,192,10500,1,0,0:0:0:0:
320,192,10500,1,0,0:0:0:0:
192,192,10577,1,0,0:0:0:0:
64,192,10577,1,0,0:0:0:0:
320,192,10628,1,0,0:0:0:0:
192,192,10679,1,0,0:0:0:0:
64,192,10730,1,0,0:0:0:0:
448,192,10730,1,0,0:0:0:0:
320,192,10781,1,0,0:0:0:0:
192,192,10832,1,0,0:0:0:0:
320,192,10883,1,0,0:0:0:0:
448,192,10883,1,0,0:0:0:0:
64,192,10934,1,0,0:0:0:0:
192,192,10985,1,0,0:0:0:0:
320,192,11036,1,0,0:0:0:0:
448,192,11036,1,0,0:0:0:0:
64,192,11036,1,0,0:0:0:0:
192,192,11112,1,0,0:0:0:0:
448,192,11189,1,0,0:0:0:0:
320,192,11266,1,0,0:0:0:0:
192,192,11342,1,0,0:0:0:0:
64,192,11342,1,0,0:0:0:0:
320,192,11419,1,0,0:0:0:0:
448,192,11495,1,0,0:0:0:0:
64,192,11495,1,0,0:0:0:0:
192,192,11572,1,0,0:0:0:0:
320,192,11648,1,0,0:0:0:0:
448,192,11648,1,0,0:0:0:0:
192,192,11725,1,0,0:0:0:0:
64,192,11725,1,0,0:0:0:0:
320,192,11801,1,0,0:0:0:0:
448,192,11801,1,0,0:0:0:0:
64,192,11878,1,0,0:0:0:0:
192,192,11954,1,0,0:0:0:0:
320,192,11954,1,0,0:0:0:0:
448,192,12031,1,0,0:0:0:0:
192,192,12107,1,0,0:0:0:0:
64,192,12107,1,0,0:0:0:0:
448,192,12184,1,0,0:0:0:0:
320,192,12260,1,0,0:0:0:0:
448,192,12260,1,0,0:0:0:0:
64,192,12260,1,0,0:0:0:0:
192,192,12260,1,0,0:0:0:0:
64,192,12337,1,0,0:0:0:0:
192,192,12413,1,0,0:0:0:0:
320,192,12490,1,0,0:0:0:0:
192,192,12567,1,0,0:0:0:0:
448,192,12567,1,0,0:0:0:0:
64,192,12643,1,0,0:0:0:0:
320,192,12720,1,0,0:0:0:0:
448,192,12720,1,0,0:0:0:0:
64,192,12796,1,0,0:0:0:0:
192,192,12873,1,0,0:0:0:0:
448,192,12873,1,0,0:0:0:0:
320,192,12949,1,0,0:0:0:0:
64,192,12949,1,0,0:0:0:0:
192,192,13026,1,0,0:0:0:0:
448,192,13026,1,0,0:0:0:0:
320,192,13102,1,0,0:0:0:0:
192,192,13179,1,0,0:0:0:0:
64,192,13179,1,0,0:0:0:0:
320,192,13255,1,0,0:0:0:0:
64,192,13332,1,0,0:0:0:0:
448,192,13332,1,0,0:0:0:0:
192,192,13408,1,0,0:0:0:0:
320,192,13485,1,0,0:0:0:0:
448,192,13485,1,0,0:0:0:0:
64,192,13485,1,0,0:0:0:0:
192,192,13485,1,0,0:0:0:0:
320,192,13561,1,0,0:0:0:0:
192,192,13638,1,0,0:0:0:0:
64,192,13714,1,0,0:0:0:0:
320,192,13791,1,0,0:0:0:0:
448,192,13791,1,0,0:0:0:0:
64,192,13868,1,0,0:0:0:0:
320,192,13944,1,0,0:0:0:0:
192,192,13944,1,0,0:0:0:0:
448,192,14021,1,0,0:0:0:0:
192,192,14097,1,0,0:0:0:0:
64,192,14097,1,0,0:0:0:0:
320,192,14174,1,0,0:0:0:0:
448,192,14174,1,0,0:0:0:0:
192,192,14250,1,0,0:0:0:0:
64,192,14250,1,0,0:0:0:0:
320,192,14327,1,0,0:0:0:0:
64,192,14403,1,0,0:0:0:0:
448,192,14403,1,0,0:0:0:0:
192,192,14480,1,0,0:0:0:0:
320,192,14556,1,0,0:0:0:0:
448,192,14556,1,0,0:0:0:0:
192,192,14633,1,0,0:0:0:0:
320,192,14709,1,0,0:0:0:0:
448,192,14709,1,0,0:0:0:0:
64,192,14709,1,0,0:0:0:0:
192,192,14709,1,0,0:0:0:0:
320,192,14786,1,0,0:0:0:0:
192,192,14862,1,0,0:0:0:0:
448,192,14939,1,0,0:0:0:0:
320,192,15016,1,0,0:0:0:0:
192,192,15016,1,0,0:0:0:0:
64,192,15092,1,0,0:0:0:0:
192,192,15169,1,0,0:0:0:0:
448,192,15169,1,0,0:0:0:0:
320,192,15245,1,0,0:0:0:0:
192,192,15322,1,0,0:0:0:0:
64,192,15322,1,0,0:0:0:0:
320,192,15398,1,0,0:0:0:0:
448,192,15398,1,0,0:0:0:0:
192,192,15475,1,0,0:0:0:0:
64,192,15475,1,0,0:0:0:0:
320,192,15526,1,0,0:0:0:0:
192,192,15577,1,0,0:0:0:0:
64,192,15628,1,0,0:0:0:0:
448,192,15628,1,0,0:0:0:0:
320,192,15679,1,0,0:0:0:0:
192,192,15730,1,0,0:0:0:0:
64,192,15781,1,0,0:0:0:0:
448,192,15781,1,0,0:0:0:0:
320,192,15832,1,0,0:0:0:0:
192,192,15883,1,0,0:0:0:0:
320,192,15934,1,0,0:0:0:0:
448,192,15934,1,0,0:0:0:0:
64,192,15934,1,0,0:0:0:0:
192,192,16010,1,0,0:0:0:0:
320,192,16087,1,0,0:0:0:0:
448,192,16163,1,0,0:0:0:0:
64,192,16240,1,0,0:0:0:0:
192,192,16240,1,0,0:0:0:0:
448,192,16317,1,0,0:0:0:0:
64,192,16393,1,0,0:0:0:0:
320,192,16393,1,0,0:0:0:0:
192,192,16470,1,0,0:0:0:0:
320,192,16546,1,0,0:0:0:0:
448,192,16546,1,0,0:0:0:0:
192,192,16623,1,0,0:0:0:0:
64,192,16623,1,0,0:0:0:0:
320,192,16699,1,0,0:0:0:0:
448,192,16699,1,0,0:0:0:0:
192,192,16776,1,0,0:0:0:0:
64,192,16852,1,0,0:0:0:0:
448,192,16852,1,0,0:0:0:0:
320,192,16929,1,0,0:0:0:0:
192,192,17005,1,0,0:0:0:0:
64,192,17005,1,0,0:0:0:0:
320,192,17082,1,0,0:0:0:0:
320,192,17158,1,0,0:0:0:0:
448,192,17158,1,0,0:0:0:0:
64,192,17158,1,0,0:0:0:0:
192,192,17158,1,0,0:0:0:0:
192,192,17235,1,0,0:0:0:0:
448,192,17311,1,0,0:0:0:0:
320,192,17388,1,0,0:0:0:0:
192,192,17464,1,0,0:0:0:0:
64,192,17464,1,0,0:0:0:0:
448,192,17541,1,0,0:0:0:0:
320,192,17618,1,0,0:0:0:0:
64,192,17618,1,0,0:0:0:0:
192,192,17694,1,0,0:0:0:0:
320,192,17771,1,0,0:0:0:0:
448,192,17771,1,0,0:0:0:0:
192,192,17847,1,0,0:0:0:0:
64,192,17847,1,0,0:0:0:0:
320,192,17924,1,0,0:0:0:0:
448,192,17924,1,0,0:0:0:0:
192,192,18000,1,0,0:0:0:0:
448,192,18077,1,0,0:0:0:0:
64,192,18077,1,0,0:0:0:0:
320,192,18153,1,0,0:0:0:0:
192,192,18230,1,0,0:0:0:0:
64,192,18230,1,0,0:0:0:0:
448,192,18306,1,0,0:0:0:0:
320,192,18383,1,0,0:0:0:0:
448,192,18383,1,0,0:0:0:0:
64,192,18383,1,0,0:0:0:0:
192,192,18383,1,0,0:0:0:0:
64,192,18459,1,0,0:0:0:0:
192,192,18536,1,0,0:0:0:0:
448,192,18612,1,0,0:0:0:0:
192,192,18689,1,0,0:0:0:0:
320,192,18689,1,0,0:0:0:0:
64,192,18766,1,0,0:0:0:0:
320,192,18842,1,0,0:0:0:0:
448,192,18842,1,0,0:0:0:0:
64,192,18919,1,0,0:0:0:0:
192,192,18995,1,0,0:0:0:0:
448,192,18995,1,0,0:0:0:0:
320,192,19072,1,0,0:0:0:0:
64,192,19072,1,0,0:0:0:0:
192,192,19148,1,0,0:0:0:0:
448,192,19148,1,0,0:0:0:0:
320,192,19225,1,0,0:0:0:0:
192,192,19301,1,0,0:0:0:0:
64,192,19301,1,0,0:0:0:0:
320,192,19378,1,0,0:0:0:0:
64,192,19454,1,0,0:0:0:0:
448,192,19454,1,0,0:0:0:0:
192,192,19531,1,0,0:0:0:0:
320,192,19607,1,0,0:0:0:0:
448,192,19607,1,0,0:0:0:0:
64,192,19607,1,0,0:0:0:0:
192,192,19607,1,0,0:0:0:0:
448,192,19684,1,0,0:0:0:0:
320,192,19760,1,0,0:0:0:0:
192,192,19837,1,0,0:0:0:0:
448,192,19913,1,0,0:0:0:0:
64,192,19913,1,0,0:0:0:0:
320,192,19990,1,0,0:0:0:0:
192,192,20067,1,0,0:0:0:0:
64,192,20067,1,0,0:0:0:0:
320,192,20143,1,0,0:0:0:0:
448,192,20220,1,0,0:0:0:0:
64,192,20220,1,0,0:0:0:0:
192,192,20296,1,0,0:0:0:0:
320,192,20296,1,0,0:0:0:0:
64,192,20373,1,0,0:0:0:0:
448,192,20373,1,0,0:0:0:0:
192,192,20424,1,0,0:0:0:0:
320,192,20475,1,0,0:0:0:0:
64,192,20526,1,0,0:0:0:0:
448,192,20526,1,0,0:0:0:0:
192,192,20577,1,0,0:0:0:0:
320,192,20628,1,0,0:0:0:0:
64,192,20679,1,0,0:0:0:0:
192,192,20679,1,0,0:0:0:0:
448,192,20730,1,0,0:0:0:0:
320,192,20781,1,0,0:0:0:0:
192,192,20832,1,0,0:0:0:0:
448,192,20832,1,0,0:0:0:0:
64,192,20832,1,0,0:0:0:0:
320,192,20908,1,0,0:0:0:0:
64,192,20985,1,0,0:0:0:0:
192,192,21061,1,0,0:0:0:0:
320,192,21138,1,0,0:0:0:0:
448,192,21138,1,0,0:0:0:0:
64,192,21214,1,0,0:0:0:0:
320,192,21291,1,0,0:0:0:0:
192,192,21291,1,0,0:0:0:0:
448,192,21368,1,0,0:0:0:0:
192,192,21444,1,0,0:0:0:0:
64,192,21444,1,0,0:0:0:0:
320,192,21521,1,0,0:0:0:0:
448,192,21521,1,0,0:0:0:0:
192,192,21597,1,0,0:0:0:0:
64,192,21597,1,0,0:0:0:0:
320,192,21674,1,0,0:0:0:0:
64,192,21750,1,0,0:0:0:0:
448,192,21750,1,0,0:0:0:0:
192,192,21827,1,0,0:0:0:0:
320,192,21903,1,0,0:0:0:0:
448,192,21903,1,0,0:0:0:0:
64,192,21980,1,0,0:0:0:0:
320,192,22056,1,0,0:0:0:0:
448,192,22056,1,0,0:0:0:0:
192,192,22056,1,0,0:0:0:0:
64,192,22056,1,0,0:0:0:0:
320,192,22133,1,0,0:0:0:0:
192,192,22209,1,0,0:0:0:0:
64,192,22286,1,0,0:0:0:0:
320,192,22362,1,0,0:0:0:0:
448,192,22362,1,0,0:0:0:0:
64,192,22439,1,0,0:0:0:0:
192,192,22516,1,0,0:0:0:0:
448,192,22516,1,0,0:0:0:0:
320,192,22592,1,0,0:0:0:0:
64,192,22669,1,0,0:0:0:0:
192,192,22669,1,0,0:0:0:0:
320,192,22745,1,0,0:0:0:0:
448,192,22745,1,0,0:0:0:0:
192,192,22822,1,0,0:0:0:0:
64,192,22822,1,0,0:0:0:0:
448,192,22898,1,0,0:0:0:0:
320,192,22975,1,0,0:0:0:0:
64,192,22975,1,0,0:0:0:0:
192,192,23051,1,0,0:0:0:0:
320,192,23128,1,0,0:0:0:0:
448,192,23128,1,0,0:0:0:0:
64,192,23204,1,0,0:0:0:0:
320,192,23281,1,0,0:0:0:0:
448,192,23281,1,0,0:0:0:0:
192,192,23281,1,0,0:0:0:0:
64,192,23281,1,0,0:0:0:0:
448,192,23357,1,0,0:0:0:0:
320,192,23434,1,0,0:0:0:0:
192,192,23510,1,0,0:0:0:0:
64,192,23587,1,0,0:0:0:0:
448,192,23587,1,0,0:0:0:0:
320,192,23663,1,0,0:0:0:0:
192,192,23740,1,0,0:0:0:0:
64,192,23740,1,0,0:0:0:0:
448,192,23817,1,0,0:0:0:0:
64,192,23893,1,0,0:0:0:0:
320,192,23893,1,0,0:0:0:0:
448,192,23970,1,0,0:0:0:0:
192,192,23970,1,0,0:0:0:0:
64,192,24046,1,0,0:0:0:0:
320,192,24046,1,0,0:0:0:0:
192,192,24123,1,0,0:0:0:0:
320,192,24199,1,0,0:0:0:0:
448,192,24199,1,0,0:0:0:0:
192,192,24276,1,0,0:0:0:0:
64,192,24352,1,0,0:0:0:0:
448,192,24352,1,0,0:0:0:0:
320,192,24429,1,0,0:0:0:0:
448,192,24505,1,0,0:0:0:0:
320,192,24505,1,0,0:0:0:0:
192,192,24505,1,0,0:0:0:0:
64,192,24505,1,0,0:0:0:0:
192,192,24582,1,0,0:0:0:0:
320,192,24658,1,0,0:0:0:0:
448,192,24735,1,0,0:0:0:0:
192,192,24811,1,0,0:0:0:0:
64,192,24811,1,0,0:0:0:0:
448,192,24888,1,0,0:0:0:0:
320,192,24964,1,0,0:0:0:0:
192,192,24964,1,0,0:0:0:0:
64,192,25041,1,0,0:0:0:0:
320,192,25118,1,0,0:0:0:0:
448,192,25118,1,0,0:0:0:0:
192,192,25194,1,0,0:0:0:0:
64,192,25194,1,0,0:0:0:0:
320,192,25271,1,0,0:0:0:0:
448,192,25271,1,0,0:0:0:0:
192,192,25322,1,0,0:0:0:0:
320,192,25373,1,0,0:0:0:0:
64,192,25424,1,0,0:0:0:0:
448,192,25424,1,0,0:0:0:0:
192,192,25475,1,0,0:0:0:0:
320,192,25526,1,0,0:0:0:0:
64,192,25577,1,0,0:0:0:0:
192,192,25577,1,0,0:0:0:0:
448,192,25628,1,0,0:0:0:0:
320,192,25679,1,0,0:0:0:0:
448,192,25730,1,0,0:0:0:0:
192,192,25730,1,0,0:0:0:0:
64,192,25730,1,0,0:0:0:0:
320,192,25806,1,0,0:0:0:0:
64,192,25883,1,0,0:0:0:0:
192,192,25959,1,0,0:0:0:0:
320,192,26036,1,0,0:0:0:0:
448,192,26036,1,0,0:0:0:0:
192,192,26112,1,0,0:0:0:0:
64,192,26189,1,0,0:0:0:0:
448,192,26189,1,0,0:0:0:0:
320,192,26266,1,0,0:0:0:0:
192,192,26342,1,0,0:0:0:0:
64,192,26342,1,0,0:0:0:0:
320,192,26419,1,0,0:0:0:0:
448,192,26419,1,0,0:0:0:0:
192,192,26495,1,0,0:0:0:0:
64,192,26495,1,0,0:0:0:0:
448,192,26572,1,0,0:0:0:0:
320,192,26648,1,0,0:0:0:0:
192,192,26648,1,0,0:0:0:0:
64,192,26725,1,0,0:0:0:0:
320,192,26801,1,0,0:0:0:0:
448,192,26801,1,0,0:0:0:0:
192,192,26878,1,0,0:0:0:0:
448,192,26954,1,0,0:0:0:0:
320,192,26954,1,0,0:0:0:0:
192,192,26954,1,0,0:0:0:0:
64,192,26954,1,0,0:0:0:0:
448,192,27031,1,0,0:0:0:0:
64,192,27107,1,0,0:0:0:0:
192,192,27184,1,0,0:0:0:0:
320,192,27260,1,0,0:0:0:0:
448,192,27260,1,0,0:0:0:0:
64,192,27337,1,0,0:0:0:0:
192,192,27413,1,0,0:0:0:0:
448,192,27413,1,0,0:0:0:0:
320,192,27490,1,0,0:0:0:0:
192,192,27567,1,0,0:0:0:0:
64,192,27567,1,0,0:0:0:0:
320,192,27643,1,0,0:0:0:0:
448,192,27643,1,0,0:0:0:0:
64,192,27720,1,0,0:0:0:0:
192,192,27720,1,0,0:0:0:0:
448,192,27796,1,0,0:0:0:0:
320,192,27873,1,0,0:0:0:0:
64,192,27873,1,0,0:0:0:0:
192,192,27949,1,0,0:0:0:0:
320,192,28026,1,0,0:0:0:0:
448,192,28026,1,0,0:0:0:0:
64,192,28102,1,0,0:0:0:0:
320,192,28179,1,0,0:0:0:0:
448,192,28179,1,0,0:0:0:0:
192,192,28179,1,0,0:0:0:0:
64,192,28179,1,0,0:0:0:0:
320,192,28255,1,0,0:0:0:0:
192,192,28332,1,0,0:0:0:0:
64,192,28408,1,0,0:0:0:0:
448,192,28485,1,0,0:0:0:0:
320,192,28485,1,0,0:0:0:0:
192,192,28561,1,0,0:0:0:0:
64,192,28638,1,0,0:0:0:0:
448,192,28638,1,0,0:0:0:0:
320,192,28714,1,0,0:0:0:0:
192,192,28791,1,0,0:0:0:0:
64,192,28791,1,0,0:0:0:0:
320,192,28868,1,0,0:0:0:0:
448,192,28868,1,0,0:0:0:0:
192,192,28944,1,0,0:0:0:0:
64,192,28944,1,0,0:0:0:0:
448,192,29021,1,0,0:0:0:0:
320,192,29097,1,0,0:0:0:0:
192,192,29097,1,0,0:0:0:0:
64,192,29174,1,0,0:0:0:0:
320,192,29250,1,0,0:0:0:0:
448,192,29250,1,0,0:0:0:0:
192,192,29327,1,0,0:0:0:0:
448,192,29403,1,0,0:0:0:0:
320,192,29403,1,0,0:0:0:0:
192,192,29403,1,0,0:0:0:0:
64,192,29403,1,0,0:0:0:0:
320,192,29480,1,0,0:0:0:0:
64,192,29556,1,0,0:0:0:0:
192,192,29633,1,0,0:0:0:0:
320,192,29709,1,0,0:0:0:0:
448,192,29709,1,0,0:0:0:0:
192,192,29786,1,0,0:0:0:0:
64,192,29862,1,0,0:0:0:0:
448,192,29862,1,0,0:0:0:0:
320,192,29939,1,0,0:0:0:0:
192,192,30016,1,0,0:0:0:0:
64,192,30016,1,0,0:0:0:0:
320,192,30092,1,0,0:0:0:0:
448,192,30092,1,0,0:0:0:0:
192,192,30169,1,0,0:0:0:0:
64,192,30169,1,0,0:0:0:0:
448,192,30245,1,0,0:0:0:0:
320,192,30322,1,0,0:0:0:0:
192,192,30322,1,0,0:0:0:0:
64,192,30398,1,0,0:0:0:0:
320,192,30475,1,0,0:0:0:0:
448,192,30475,1,0,0:0:0:0:
64,192,30551,1,0,0:0:0:0:
320,192,30628,1,0,0:0:0:0:
448,192,30628,1,0,0:0:0:0:
192,192,30628,1,0,0:0:0:0:
64,192,30628,1,0,0:0:0:0:
192,192,30781,1,0,0:0:0:0:
448,192,30934,1,0,0:0:0:0:
320,192,31087,1,0,0:0:0:0:
448,192,31087,1,0,0:0:0:0:
192,192,31087,1,0,0:0:0:0:
64,192,31087,1,0,0:0:0:0:
192,192,31240,1,0,0:0:0:0:
320,192,31317,1,0,0:0:0:0:
192,192,31393,1,0,0:0:0:0:
448,192,31393,1,0,0:0:0:0:
320,192,31546,1,0,0:0:0:0:
192,192,31623,1,0,0:0:0:0:
448,192,31699,1,0,0:0:0:0:
64,192,31699,1,0,0:0:0:0:
320,192,31852,1,0,0:0:0:0:
448,192,31852,1,0,0:0:0:0:
192,192,31852,1,0,0:0:0:0:
64,192,31852,1,0,0:0:0:0:
320,192,32005,1,0,0:0:0:0:
64,192,32158,1,0,0:0:0:0:
320,192,32311,1,0,0:0:0:0:
448,192,32311,1,0,0:0:0:0:
192,192,32311,1,0,0:0:0:0:
64,192,32311,1,0,0:0:0:0:
320,192,32464,1,0,0:0:0:0:
192,192,32541,1,0,0:0:0:0:
64,192,32618,1,0,0:0:0:0:
320,192,32618,1,0,0:0:0:0:
64,192,32771,1,0,0:0:0:0:
448,192,32847,1,0,0:0:0:0:
192,192,32924,1,0,0:0:0:0:
320,192,32924,1,0,0:0:0:0:
320,192,33077,1,0,0:0:0:0:
448,192,33077,1,0,0:0:0:0:
192,192,33077,1,0,0:0:0:0:
64,192,33077,1,0,0:0:0:0:
64,192,33230,1,0,0:0:0:0:
448,192,33383,1,0,0:0:0:0:
64,192,33536,1,0,0:0:0:0:
192,192,33536,1,0,0:0:0:0:
320,192,33536,1,0,0:0:0:0:
448,192,33536,1,0,0:0:0:0:
192,192,33689,1,0,0:0:0:0:
320,192,33766,1,0,0:0:0:0:
64,192,33842,1,0,0:0:0:0:
448,192,33842,1,0,0:0:0:0:
448,192,33995,1,0,0:0:0:0:
320,192,34072,1,0,0:0:0:0:
64,192,34148,1,0,0:0:0:0:
192,192,34148,1,0,0:0:0:0:
448,192,34301,1,0,0:0:0:0:
320,192,34301,1,0,0:0:0:0:
192,192,34301,1,0,0:0:0:0:
64,192,34301,1,0,0:0:0:0:
320,192,34454,1,0,0:0:0:0:
448,192,34454,1,0,0:0:0:0:
192,192,34607,1,0,0:0:0:0:
64,192,34607,1,0,0:0:0:0:
320,192,34760,1,0,0:0:0:0:
64,192,34760,1,0,0:0:0:0:
448,192,34760,1,0,0:0:0:0:
192,192,34913,1,0,0:0:0:0:
320,192,34913,1,0,0:0:0:0:
192,192,35067,1,0,0:0:0:0:
64,192,35067,1,0,0:0:0:0:
448,192,35220,1,0,0:0:0:0:
320,192,35220,1,0,0:0:0:0:
192,192,35296,1,0,0:0:0:0:
64,192,35296,1,0,0:0:0:0:
320,192,35373,1,0,0:0:0:0:
448,192,35373,1,0,0:0:0:0:
192,192,35449,1,0,0:0:0:0:
64,192,35449,1,0,0:0:0:0:
320,192,35526,1,0,0:0:0:0:
448,192,35526,1,0,0:0:0:0:
64,192,35526,1,0,0:0:0:0:
192,192,35526,1,0,0:0:0:0:
320,192,35679,1,0,0:0:0:0:
448,192,35679,1,0,0:0:0:0:
320,192,35832,1,0,0:0:0:0:
64,192,35832,1,0,0:0:0:0:
192,192,35832,1,0,0:0:0:0:
64,192,35985,1,0,0:0:0:0:
448,192,35985,1,0,0:0:0:0:
320,192,36138,1,0,0:0:0:0:
448,192,36138,1,0,0:0:0:0:
192,192,36138,1,0,0:0:0:0:
320,192,36291,1,0,0:0:0:0:
64,192,36291,1,0,0:0:0:0:
64,192,36444,1,0,0:0:0:0:
320,192,36444,1,0,0:0:0:0:
192,192,36444,1,0,0:0:0:0:
448,192,36597,1,0,0:0:0:0:
192,192,36597,1,0,0:0:0:0:
192,192,36750,1,0,0:0:0:0:
448,192,36750,1,0,0:0:0:0:
320,192,36750,1,0,0:0:0:0:
64,192,36750,1,0,0:0:0:0:
320,192,36903,1,0,0:0:0:0:
192,192,36903,1,0,0:0:0:0:
192,192,37056,1,0,0:0:0:0:
320,192,37056,1,0,0:0:0:0:
448,192,37056,1,0,0:0:0:0:
448,192,37209,1,0,0:0:0:0:
64,192,37209,1,0,0:0:0:0:
64,192,37362,1,0,0:0:0:0:
320,192,37362,1,0,0:0:0:0:
192,192,37362,1,0,0:0:0:0:
320,192,37516,1,0,0:0:0:0:
448,192,37516,1,0,0:0:0:0:
192,192,37669,1,0,0:0:0:0:
320,192,37669,1,0,0:0:0:0:
448,192,37669,1,0,0:0:0:0:
192,192,37822,1,0,0:0:0:0:
64,192,37822,1,0,0:0:0:0:
320,192,37975,1,0,0:0:0:0:
448,192,37975,1,0,0:0:0:0:
192,192,37975,1,0,0:0:0:0:
64,192,37975,1,0,0:0:0:0:
320,192,38128,1,0,0:0:0:0:
448,192,38128,1,0,0:0:0:0:
192,192,38281,1,0,0:0:0:0:
320,192,38281,1,0,0:0:0:0:
64,192,38281,1,0,0:0:0:0:
192,192,38434,1,0,0:0:0:0:
448,192,38434,1,0,0:0:0:0:
320,192,38587,1,0,0:0:0:0:
448,192,38587,1,0,0:0:0:0:
64,192,38587,1,0,0:0:0:0:
192,192,38740,1,0,0:0:0:0:
320,192,38740,1,0,0:0:0:0:
192,192,38893,1,0,0:0:0:0:
64,192,38893,1,0,0:0:0:0:
448,192,38893,1,0,0:0:0:0:
320,192,39046,1,0,0:0:0:0:
64,192,39046,1,0,0:0:0:0:
64,192,39199,1,0,0:0:0:0:
192,192,39199,1,0,0:0:0:0:
320,192,39199,1,0,0:0:0:0:
448,192,39199,1,0,0:0:0:0:
192,192,39352,1,0,0:0:0:0:
320,192,39352,1,0,0:0:0:0:
192,192,39505,1,0,0:0:0:0:
448,192,39505,1,0,0:0:0:0:
320,192,39505,1,0,0:0:0:0:
64,192,39505,1,0,0:0:0:0:
192,192,39658,1,0,0:0:0:0:
320,192,39658,1,0,0:0:0:0:
192,192,39811,1,0,0:0:0:0:
320,192,39811,1,0,0:0:0:0:
448,192,39811,1,0,0:0:0:0:
64,192,39811,1,0,0:0:0:0:
64,192,39964,1,0,0:0:0:0:
448,192,39964,1,0,0:0:0:0:
192,192,40118,1,0,0:0:0:0:
320,192,40118,1,0,0:0:0:0:
448,192,40118,1,0,0:0:0:0:
64,192,40118,1,0,0:0:0:0:
64,192,40271,1,0,0:0:0:0:
448,192,40271,1,0,0:0:0:0:
64,192,40424,1,0,0:0:0:0:
192,192,40424,1,0,0:0:0:0:
320,192,40424,1,0,0:0:0:0:
448,192,40424,1,0,0:0:0:0:
192,192,40577,1,0,0:0:0:0:
64,192,40577,1,0,0:0:0:0:
192,192,40730,1,0,0:0:0:0:
320,192,40730,1,0,0:0:0:0:
448,192,40730,1,0,0:0:0:0:
320,192,40883,1,0,0:0:0:0:
64,192,40883,1,0,0:0:0:0:
192,192,41036,1,0,0:0:0:0:
64,192,41036,1,0,0:0:0:0:
448,192,41036,1,0,0:0:0:0:
192,192,41189,1,0,0:0:0:0:
448,192,41189,1,0,0:0:0:0:
192,192,41342,1,0,0:0:0:0:
320,192,41342,1,0,0:0:0:0:
448,192,41342,1,0,0:0:0:0:
64,192,41342,1,0,0:0:0:0:
320,192,41495,1,0,0:0:0:0:
448,192,41495,1,0,0:0:0:0:
64,192,41648,1,0,0:0:0:0:
192,192,41648,1,0,0:0:0:0:
320,192,41648,1,0,0:0:0:0:
448,192,41648,1,0,0:0:0:0:
320,192,41801,1,0,0:0:0:0:
64,192,41801,1,0,0:0:0:0:
192,192,41954,1,0,0:0:0:0:
64,192,41954,1,0,0:0:0:0:
448,192,41954,1,0,0:0:0:0:
320,192,42107,1,0,0:0:0:0:
192,192,42107,1,0,0:0:0:0:
64,192,42260,1,0,0:0:0:0:
320,192,42260,1,0,0:0:0:0:
448,192,42260,1,0,0:0:0:0:
64,192,42413,1,0,0:0:0:0:
192,192,42413,1,0,0:0:0:0:
192,192,42567,1,0,0:0:0:0:
320,192,42567,1,0,0:0:0:0:
448,192,42567,1,0,0:0:0:0:
448,192,42720,1,0,0:0:0:0:
192,192,42720,1,0,0:0:0:0:
64,192,42873,1,0,0:0:0:0:
192,192,42873,1,0,0:0:0:0:
320,192,42873,1,0,0:0:0:0:
448,192,42873,1,0,0:0:0:0:
320,192,43026,1,0,0:0:0:0:
448,192,43026,1,0,0:0:0:0:
192,192,43179,1,0,0:0:0:0:
320,192,43179,1,0,0:0:0:0:
64,192,43179,1,0,0:0:0:0:
192,192,43332,1,0,0:0:0:0:
448,192,43332,1,0,0:0:0:0:
192,192,43485,1,0,0:0:0:0:
320,192,43485,1,0,0:0:0:0:
64,192,43485,1,0,0:0:0:0:
448,192,43638,1,0,0:0:0:0:
320,192,43638,1,0,0:0:0:0:
320,192,43791,1,0,0:0:0:0:
192,192,43791,1,0,0:0:0:0:
448,192,43791,1,0,0:0:0:0:
192,192,43944,1,0,0:0:0:0:
64,192,43944,1,0,0:0:0:0:
192,192,44097,1,0,0:0:0:0:
64,192,44097,1,0,0:0:0:0:
320,192,44097,1,0,0:0:0:0:
448,192,44097,1,0,0:0:0:0:
320,192,44250,1,0,0:0:0:0:
448,192,44250,1,0,0:0:0:0:
192,192,44403,1,0,0:0:0:0:
320,192,44403,1,0,0:0:0:0:
64,192,44403,1,0,0:0:0:0:
192,192,44556,1,0,0:0:0:0:
448,192,44556,1,0,0:0:0:0:
64,192,44709,1,0,0:0:0:0:
448,192,44709,1,0,0:0:0:0:
320,192,44709,1,0,0:0:0:0:
192,192,44862,1,0,0:0:0:0:
64,192,44862,1,0,0:0:0:0:
192,192,45016,1,0,0:0:0:0:
320,192,45016,1,0,0:0:0:0:
448,192,45016,1,0,0:0:0:0:
320,192,45169,1,0,0:0:0:0:
448,192,45169,1,0,0:0:0:0:
64,192,45322,1,0,0:0:0:0:
192,192,45322,1,0,0:0:0:0:
320,192,45322,1,0,0:0:0:0:
448,192,45322,1,0,0:0:0:0:
192,192,45475,1,0,0:0:0:0:
64,192,45475,1,0,0:0:0:0:
192,192,45628,1,0,0:0:0:0:
320,192,45628,1,0,0:0:0:0:
448,192,45628,1,0,0:0:0:0:
64,192,45781,1,0,0:0:0:0:
320,192,45781,1,0,0:0:0:0:
192,192,45934,1,0,0:0:0:0:
64,192,45934,1,0,0:0:0:0:
448,192,45934,1,0,0:0:0:0:
192,192,46087,1,0,0:0:0:0:
448,192,46087,1,0,0:0:0:0:
320,192,46240,1,0,0:0:0:0:
448,192,46240,1,0,0:0:0:0:
192,192,46240,1,0,0:0:0:0:
64,192,46393,1,0,0:0:0:0:
320,192,46393,1,0,0:0:0:0:
448,192,46546,1,0,0:0:0:0:
320,192,46546,1,0,0:0:0:0:
192,192,46546,1,0,0:0:0:0:
64,192,46546,1,0,0:0:0:0:
320,192,46699,1,0,0:0:0:0:
448,192,46699,1,0,0:0:0:0:
64,192,46852,1,0,0:0:0:0:
192,192,46852,1,0,0:0:0:0:
448,192,46852,1,0,0:0:0:0:
320,192,47005,1,0,0:0:0:0:
64,192,47005,1,0,0:0:0:0:
192,192,47158,1,0,0:0:0:0:
448,192,47158,1,0,0:0:0:0:
320,192,47158,1,0,0:0:0:0:
192,192,47311,1,0,0:0:0:0:
448,192,47311,1,0,0:0:0:0:
320,192,47464,1,0,0:0:0:0:
64,192,47464,1,0,0:0:0:0:
448,192,47464,1,0,0:0:0:0:
320,192,47618,1,0,0:0:0:0:
192,192,47618,1,0,0:0:0:0:
64,192,47771,1,0,0:0:0:0:
192,192,47771,1,0,0:0:0:0:
320,192,47771,1,0,0:0:0:0:
448,192,47771,1,0,0:0:0:0:
192,192,47924,1,0,0:0:0:0:
64,192,47924,1,0,0:0:0:0:
64,192,48077,1,0,0:0:0:0:
448,192,48077,1,0,0:0:0:0:
320,192,48077,1,0,0:0:0:0:
192,192,48230,1,0,0:0:0:0:
448,192,48230,1,0,0:0:0:0:
192,192,48383,1,0,0:0:0:0:
320,192,48383,1,0,0:0:0:0:
64,192,48383,1,0,0:0:0:0:
320,192,48536,1,0,0:0:0:0:
64,192,48536,1,0,0:0:0:0:
64,192,48689,1,0,0:0:0:0:
448,192,48689,1,0,0:0:0:0:
192,192,48689,1,0,0:0:0:0:
448,192,48842,1,0,0:0:0:0:
320,192,48842,1,0,0:0:0:0:
448,192,48995,1,0,0:0:0:0:
320,192,48995,1,0,0:0:0:0:
192,192,48995,1,0,0:0:0:0:
64,192,48995,1,0,0:0:0:0:
192,192,49148,1,0,0:0:0:0:
64,192,49148,1,0,0:0:0:0:
320,192,49301,1,0,0:0:0:0:
448,192,49301,1,0,0:0:0:0:
192,192,49301,1,0,0:0:0:0:
64,192,49301,1,0,0:0:0:0:
192,192,49454,1,0,0:0:0:0:
64,192,49454,1,0,0:0:0:0:
64,192,49607,1,0,0:0:0:0:
192,192,49607,1,0,0:0:0:0:
320,192,49607,1,0,0:0:0:0:
448,192,49607,1,0,0:0:0:0:
320,192,49760,1,0,0:0:0:0:
448,192,49760,1,0,0:0:0:0:
448,192,49913,1,0,0:0:0:0:
320,192,49913,1,0,0:0:0:0:
192,192,49913,1,0,0:0:0:0:
64,192,49913,1,0,0:0:0:0:
320,192,50067,1,0,0:0:0:0:
448,192,50067,1,0,0:0:0:0:
64,192,50220,1,0,0:0:0:0:
192,192,50220,1,0,0:0:0:0:
320,192,50220,1,0,0:0:0:0:
448,192,50220,1,0,0:0:0:0:
64,192,50373,1,0,0:0:0:0:
448,192,50373,1,0,0:0:0:0:
320,192,50526,1,0,0:0:0:0:
64,192,50526,1,0,0:0:0:0:
192,192,50526,1,0,0:0:0:0:
192,192,50679,1,0,0:0:0:0:
448,192,50679,1,0,0:0:0:0:
192,192,50832,1,0,0:0:0:0:
320,192,50832,1,0,0:0:0:0:
448,192,50832,1,0,0:0:0:0:
64,192,50985,1,0,0:0:0:0:
320,192,50985,1,0,0:0:0:0:
320,192,51138,1,0,0:0:0:0:
448,192,51138,1,0,0:0:0:0:
192,192,51138,1,0,0:0:0:0:
64,192,51138,1,0,0:0:0:0:
448,192,51291,1,0,0:0:0:0:
320,192,51291,1,0,0:0:0:0:
64,192,51444,1,0,0:0:0:0:
192,192,51444,1,0,0:0:0:0:
448,192,51444,1,0,0:0:0:0:
320,192,51444,1,0,0:0:0:0:
64,192,51597,1,0,0:0:0:0:
192,192,51597,1,0,0:0:0:0:
320,192,51750,1,0,0:0:0:0:
448,192,51750,1,0,0:0:0:0:
64,192,51750,1,0,0:0:0:0:
320,192,51903,1,0,0:0:0:0:
448,192,51903,1,0,0:0:0:0:
192,192,52056,1,0,0:0:0:0:
320,192,52056,1,0,0:0:0:0:
64,192,52056,1,0,0:0:0:0:
192,192,52209,1,0,0:0:0:0:
448,192,52209,1,0,0:0:0:0:
64,192,52362,1,0,0:0:0:0:
320,192,52362,1,0,0:0:0:0:
448,192,52362,1,0,0:0:0:0:
192,192,52516,1,0,0:0:0:0:
320,192,52516,1,0,0:0:0:0:
64,192,52669,1,0,0:0:0:0:
192,192,52669,1,0,0:0:0:0:
320,192,52669,1,0,0:0:0:0:
448,192,52669,1,0,0:0:0:0:
64,192,52822,1,0,0:0:0:0:
448,192,52822,1,0,0:0:0:0:
320,192,52975,1,0,0:0:0:0:
192,192,52975,1,0,0:0:0:0:
64,192,52975,1,0,0:0:0:0:
192,192,53128,1,0,0:0:0:0:
448,192,53128,1,0,0:0:0:0:
192,192,53281,1,0,0:0:0:0:
320,192,53281,1,0,0:0:0:0:
64,192,53281,1,0,0:0:0:0:
320,192,53434,1,0,0:0:0:0:
64,192,53434,1,0,0:0:0:0:
320,192,53587,1,0,0:0:0:0:
192,192,53587,1,0,0:0:0:0:
448,192,53587,1,0,0:0:0:0:
192,192,53740,1,0,0:0:0:0:
64,192,53740,1,0,0:0:0:0:
64,192,53893,1,0,0:0:0:0:
192,192,53893,1,0,0:0:0:0:
320,192,53893,1,0,0:0:0:0:
448,192,53893,1,0,0:0:0:0:
320,192,54046,1,0,0:0:0:0:
448,192,54046,1,0,0:0:0:0:
64,192,54199,1,0,0:0:0:0:
448,192,54199,1,0,0:0:0:0:
192,192,54199,1,0,0:0:0:0:
320,192,54352,1,0,0:0:0:0:
64,192,54352,1,0,0:0:0:0:
192,192,54505,1,0,0:0:0:0:
320,192,54505,1,0,0:0:0:0:
448,192,54505,1,0,0:0:0:0:
192,192,54658,1,0,0:0:0:0:
448,192,54658,1,0,0:0:0:0:
192,192,54811,1,0,0:0:0:0:
320,192,54811,1,0,0:0:0:0:
64,192,54811,1,0,0:0:0:0:
320,192,54964,1,0,0:0:0:0:
448,192,54964,1,0,0:0:0:0:
64,192,55118,1,0,0:0:0:0:
192,192,55118,1,0,0:0:0:0:
448,192,55118,1,0,0:0:0:0:
320,192,55118,1,0,0:0:0:0:
64,192,55194,1,0,0:0:0:0:
192,192,55271,1,0,0:0:0:0:
320,192,55347,1,0,0:0:0:0:
192,192,55424,1,0,0:0:0:0:
448,192,55424,1,0,0:0:0:0:
64,192,55500,1,0,0:0:0:0:
448,192,55577,1,0,0:0:0:0:
320,192,55577,1,0,0:0:0:0:
64,192,55653,1,0,0:0:0:0:
192,192,55730,1,0,0:0:0:0:
448,192,55730,1,0,0:0:0:0:
64,192,55806,1,0,0:0:0:0:
320,192,55806,1,0,0:0:0:0:
192,192,55883,1,0,0:0:0:0:
448,192,55883,1,0,0:0:0:0:
320,192,55959,1,0,0:0:0:0:
64,192,56036,1,0,0:0:0:0:
192,192,56036,1,0,0:0:0:0:
320,192,56112,1,0,0:0:0:0:
448,192,56189,1,0,0:0:0:0:
64,192,56189,1,0,0:0:0:0:
192,192,56266,1,0,0:0:0:0:
64,192,56342,1,0,0:0:0:0:
192,192,56342,1,0,0:0:0:0:
320,192,56342,1,0,0:0:0:0:
448,192,56342,1,0,0:0:0:0:
448,192,56419,1,0,0:0:0:0:
64,192,56495,1,0,0:0:0:0:
192,192,56572,1,0,0:0:0:0:
320,192,56648,1,0,0:0:0:0:
448,192,56648,1,0,0:0:0:0:
192,192,56725,1,0,0:0:0:0:
64,192,56801,1,0,0:0:0:0:
320,192,56801,1,0,0:0:0:0:
448,192,56878,1,0,0:0:0:0:
192,192,56954,1,0,0:0:0:0:
64,192,56954,1,0,0:0:0:0:
320,192,57005,1,0,0:0:0:0:
192,192,57056,1,0,0:0:0:0:
448,192,57107,1,0,0:0:0:0:
64,192,57107,1,0,0:0:0:0:
320,192,57158,1,0,0:0:0:0:
192,192,57209,1,0,0:0:0:0:
64,192,57260,1,0,0:0:0:0:
448,192,57260,1,0,0:0:0:0:
320,192,57311,1,0,0:0:0:0:
192,192,57362,1,0,0:0:0:0:
448,192,57413,1,0,0:0:0:0:
320,192,57413,1,0,0:0:0:0:
64,192,57464,1,0,0:0:0:0:
192,192,57516,1,0,0:0:0:0:
64,192,57567,1,0,0:0:0:0:
320,192,57567,1,0,0:0:0:0:
448,192,57567,1,0,0:0:0:0:
192,192,57618,1,0,0:0:0:0:
320,192,57669,1,0,0:0:0:0:
448,192,57720,1,0,0:0:0:0:
64,192,57796,1,0,0:0:0:0:
192,192,57873,1,0,0:0:0:0:
448,192,57873,1,0,0:0:0:0:
320,192,57949,1,0,0:0:0:0:
64,192,58026,1,0,0:0:0:0:
192,192,58026,1,0,0:0:0:0:
320,192,58102,1,0,0:0:0:0:
448,192,58102,1,0,0:0:0:0:
64,192,58179,1,0,0:0:0:0:
192,192,58179,1,0,0:0:0:0:
320,192,58255,1,0,0:0:0:0:
448,192,58332,1,0,0:0:0:0:
64,192,58332,1,0,0:0:0:0:
192,192,58408,1,0,0:0:0:0:
448,192,58485,1,0,0:0:0:0:
320,192,58485,1,0,0:0:0:0:
192,192,58561,1,0,0:0:0:0:
64,192,58638,1,0,0:0:0:0:
448,192,58638,1,0,0:0:0:0:
320,192,58714,1,0,0:0:0:0:
64,192,58791,1,0,0:0:0:0:
192,192,58791,1,0,0:0:0:0:
448,192,58791,1,0,0:0:0:0:
320,192,58791,1,0,0:0:0:0:
320,192,59097,1,0,0:0:0:0:
448,192,59097,1,0,0:0:0:0:
192,192,59097,1,0,0:0:0:0:
64,192,59097,1,0,0:0:0:0:
320,192,59250,1,0,0:0:0:0:
448,192,59250,1,0,0:0:0:0:
64,192,59403,1,0,0:0:0:0:
192,192,59403,1,0,0:0:0:0:
320,192,59403,1,0,0:0:0:0:
448,192,59403,1,0,0:0:0:0:
192,192,59556,1,0,0:0:0:0:
64,192,59556,1,0,0:0:0:0:
192,192,59709,1,0,0:0:0:0:
64,192,59709,1,0,0:0:0:0:
320,192,59709,1,0,0:0:0:0:
448,192,59709,1,0,0:0:0:0:
320,192,59862,1,0,0:0:0:0:
448,192,59862,1,0,0:0:0:0:
64,192,60016,1,0,0:0:0:0:
192,192,60016,1,0,0:0:0:0:
320,192,60016,1,0,0:0:0:0:
448,192,60016,1,0,0:0:0:0:
192,192,60092,1,0,0:0:0:0:
320,192,60169,1,0,0:0:0:0:
192,192,60245,1,0,0:0:0:0:
64,192,60322,1,0,0:0:0:0:
448,192,60322,1,0,0:0:0:0:
320,192,60398,1,0,0:0:0:0:
192,192,60475,1,0,0:0:0:0:
64,192,60475,1,0,0:0:0:0:
320,192,60551,1,0,0:0:0:0:
448,192,60551,1,0,0:0:0:0:
192,192,60628,1,0,0:0:0:0:
64,192,60628,1,0,0:0:0:0:
448,192,60704,1,0,0:0:0:0:
192,192,60781,1,0,0:0:0:0:
320,192,60781,1,0,0:0:0:0:
64,192,60857,1,0,0:0:0:0:
448,192,60934,1,0,0:0:0:0:
320,192,60934,1,0,0:0:0:0:
64,192,61010,1,0,0:0:0:0:
192,192,61087,1,0,0:0:0:0:
448,192,61087,1,0,0:0:0:0:
320,192,61163,1,0,0:0:0:0:
64,192,61240,1,0,0:0:0:0:
192,192,61240,1,0,0:0:0:0:
320,192,61240,1,0,0:0:0:0:
448,192,61240,1,0,0:0:0:0:
64,192,61317,1,0,0:0:0:0:
192,192,61393,1,0,0:0:0:0:
320,192,61470,1,0,0:0:0:0:
64,192,61546,1,0,0:0:0:0:
448,192,61546,1,0,0:0:0:0:
192,192,61623,1,0,0:0:0:0:
320,192,61699,1,0,0:0:0:0:
448,192,61699,1,0,0:0:0:0:
192,192,61776,1,0,0:0:0:0:
448,192,61852,1,0,0:0:0:0:
64,192,61852,1,0,0:0:0:0:
320,192,61929,1,0,0:0:0:0:
64,192,62005,1,0,0:0:0:0:
192,192,62005,1,0,0:0:0:0:
448,192,62082,1,0,0:0:0:0:
192,192,62158,1,0,0:0:0:0:
320,192,62158,1,0,0:0:0:0:
64,192,62235,1,0,0:0:0:0:
448,192,62311,1,0,0:0:0:0:
320,192,62311,1,0,0:0:0:0:
64,192,62362,1,0,0:0:0:0:
192,192,62413,1,0,0:0:0:0:
64,192,62464,1,0,0:0:0:0:
320,192,62464,1,0,0:0:0:0:
448,192,62464,1,0,0:0:0:0:
192,192,62516,5,0,0:0:0:0:
320,192,62567,1,0,0:0:0:0:
448,192,62618,5,0,0:0:0:0:
64,192,62669,1,0,0:0:0:0:
192,192,62720,1,0,0:0:0:0:
320,192,62771,5,0,0:0:0:0:
448,192,62771,1,0,0:0:0:0:
192,192,62822,1,0,0:0:0:0:
64,192,62873,1,0,0:0:0:0:
320,192,62924,1,0,0:0:0:0:
448,192,62924,1,0,0:0:0:0:
192,192,63000,1,0,0:0:0:0:
448,192,63077,1,0,0:0:0:0:
64,192,63077,1,0,0:0:0:0:
320,192,63153,1,0,0:0:0:0:
64,192,63230,1,0,0:0:0:0:
192,192,63230,1,0,0:0:0:0:
320,192,63281,1,0,0:0:0:0:
448,192,63332,1,0,0:0:0:0:
64,192,63383,1,0,0:0:0:0:
192,192,63383,1,0,0:0:0:0:
320,192,63434,1,0,0:0:0:0:
64,192,63485,1,0,0:0:0:0:
320,192,63536,1,0,0:0:0:0:
192,192,63536,1,0,0:0:0:0:
448,192,63587,1,0,0:0:0:0:
64,192,63638,1,0,0:0:0:0:
192,192,63689,5,0,0:0:0:0:
320,192,63689,1,0,0:0:0:0:
448,192,63689,1,0,0:0:0:0:
64,192,63740,1,0,0:0:0:0:
192,192,63791,1,0,0:0:0:0:
448,192,63842,1,0,0:0:0:0:
320,192,63893,1,0,0:0:0:0:
192,192,63944,1,0,0:0:0:0:
320,192,63995,1,0,0:0:0:0:
448,192,63995,1,0,0:0:0:0:
64,192,63995,1,0,0:0:0:0:
192,192,64072,1,0,0:0:0:0:
64,192,64148,1,0,0:0:0:0:
64,192,64301,1,0,0:0:0:0:
192,192,64301,1,0,0:0:0:0:
320,192,64454,1,0,0:0:0:0:
448,192,64454,128,0,64556:0:0:0:0:
64,192,64607,1,0,0:0:0:0:
192,192,64607,1,0,0:0:0:0:
448,192,64760,1,0,0:0:0:0:
320,192,64760,128,0,64862:0:0:0:0:
64,192,64913,1,0,0:0:0:0:
192,192,64913,1,0,0:0:0:0:
320,192,64913,1,0,0:0:0:0:
448,192,64913,1,0,0:0:0:0:
192,192,65220,1,0,0:0:0:0:
64,192,65373,1,0,0:0:0:0:
192,192,65373,1,0,0:0:0:0:
320,192,65373,1,0,0:0:0:0:
448,192,65373,1,0,0:0:0:0:
320,192,65526,1,0,0:0:0:0:
192,192,65602,1,0,0:0:0:0:
448,192,65679,1,0,0:0:0:0:
64,192,65679,1,0,0:0:0:0:
192,192,65832,1,0,0:0:0:0:
320,192,65908,1,0,0:0:0:0:
448,192,65985,1,0,0:0:0:0:
64,192,65985,1,0,0:0:0:0:
64,192,66138,1,0,0:0:0:0:
192,192,66138,1,0,0:0:0:0:
448,192,66138,1,0,0:0:0:0:
320,192,66138,1,0,0:0:0:0:
320,192,66291,1,0,0:0:0:0:
192,192,66444,1,0,0:0:0:0:
320,192,66597,1,0,0:0:0:0:
448,192,66597,1,0,0:0:0:0:
192,192,66597,1,0,0:0:0:0:
64,192,66597,1,0,0:0:0:0:
320,192,66750,1,0,0:0:0:0:
192,192,66827,1,0,0:0:0:0:
64,192,66903,1,0,0:0:0:0:
320,192,66903,1,0,0:0:0:0:
192,192,67056,1,0,0:0:0:0:
320,192,67133,1,0,0:0:0:0:
192,192,67209,1,0,0:0:0:0:
448,192,67209,1,0,0:0:0:0:
320,192,67362,1,0,0:0:0:0:
448,192,67362,1,0,0:0:0:0:
192,192,67362,1,0,0:0:0:0:
64,192,67362,1,0,0:0:0:0:
64,192,67516,1,0,0:0:0:0:
448,192,67669,1,0,0:0:0:0:
448,192,67822,1,0,0:0:0:0:
320,192,67822,1,0,0:0:0:0:
192,192,67822,1,0,0:0:0:0:
64,192,67822,1,0,0:0:0:0:
192,192,67975,1,0,0:0:0:0:
320,192,68051,1,0,0:0:0:0:
448,192,68128,1,0,0:0:0:0:
64,192,68128,1,0,0:0:0:0:
320,192,68281,1,0,0:0:0:0:
192,192,68357,1,0,0:0:0:0:
64,192,68434,1,0,0:0:0:0:
448,192,68434,1,0,0:0:0:0:
320,192,68587,1,0,0:0:0:0:
448,192,68587,1,0,0:0:0:0:
192,192,68587,1,0,0:0:0:0:
64,192,68587,1,0,0:0:0:0:
192,192,68740,1,0,0:0:0:0:
448,192,68893,1,0,0:0:0:0:
320,192,69046,1,0,0:0:0:0:
448,192,69046,1,0,0:0:0:0:
192,192,69046,1,0,0:0:0:0:
64,192,69046,1,0,0:0:0:0:
64,192,69199,1,0,0:0:0:0:
192,192,69250,1,0,0:0:0:0:
320,192,69301,1,0,0:0:0:0:
64,192,69352,1,0,0:0:0:0:
448,192,69352,1,0,0:0:0:0:
192,192,69403,1,0,0:0:0:0:
320,192,69454,1,0,0:0:0:0:
448,192,69505,1,0,0:0:0:0:
64,192,69556,1,0,0:0:0:0:
192,192,69607,1,0,0:0:0:0:
320,192,69658,1,0,0:0:0:0:
448,192,69658,1,0,0:0:0:0:
64,192,69709,1,0,0:0:0:0:
192,192,69760,1,0,0:0:0:0:
320,192,69811,1,0,0:0:0:0:
448,192,69811,1,0,0:0:0:0:
64,192,69811,1,0,0:0:0:0:
192,192,69888,1,0,0:0:0:0:
448,192,69964,1,0,0:0:0:0:
320,192,70041,1,0,0:0:0:0:
192,192,70118,1,0,0:0:0:0:
64,192,70118,1,0,0:0:0:0:
448,192,70194,1,0,0:0:0:0:
64,192,70271,1,0,0:0:0:0:
192,192,70271,1,0,0:0:0:0:
320,192,70271,1,0,0:0:0:0:
448,192,70347,1,0,0:0:0:0:
320,192,70424,1,0,0:0:0:0:
64,192,70424,1,0,0:0:0:0:
192,192,70500,1,0,0:0:0:0:
448,192,70500,1,0,0:0:0:0:
320,192,70577,1,0,0:0:0:0:
64,192,70577,1,0,0:0:0:0:
192,192,70653,1,0,0:0:0:0:
448,192,70730,1,0,0:0:0:0:
320,192,70730,1,0,0:0:0:0:
192,192,70806,1,0,0:0:0:0:
64,192,70883,1,0,0:0:0:0:
448,192,70883,1,0,0:0:0:0:
320,192,70959,1,0,0:0:0:0:
64,192,71036,1,0,0:0:0:0:
192,192,71036,1,0,0:0:0:0:
320,192,71036,1,0,0:0:0:0:
448,192,71036,1,0,0:0:0:0:
64,192,71112,1,0,0:0:0:0:
448,192,71189,1,0,0:0:0:0:
320,192,71266,1,0,0:0:0:0:
64,192,71342,1,0,0:0:0:0:
192,192,71342,1,0,0:0:0:0:
448,192,71419,1,0,0:0:0:0:
192,192,71495,1,0,0:0:0:0:
64,192,71495,1,0,0:0:0:0:
320,192,71495,1,0,0:0:0:0:
448,192,71572,1,0,0:0:0:0:
64,192,71648,1,0,0:0:0:0:
320,192,71648,1,0,0:0:0:0:
448,192,71725,1,0,0:0:0:0:
192,192,71725,1,0,0:0:0:0:
320,192,71801,1,0,0:0:0:0:
64,192,71801,1,0,0:0:0:0:
192,192,71878,1,0,0:0:0:0:
320,192,71954,1,0,0:0:0:0:
448,192,71954,1,0,0:0:0:0:
64,192,72031,1,0,0:0:0:0:
192,192,72107,1,0,0:0:0:0:
448,192,72107,1,0,0:0:0:0:
320,192,72184,1,0,0:0:0:0:
64,192,72260,1,0,0:0:0:0:
192,192,72260,1,0,0:0:0:0:
320,192,72260,1,0,0:0:0:0:
448,192,72260,1,0,0:0:0:0:
64,192,72337,1,0,0:0:0:0:
192,192,72413,1,0,0:0:0:0:
320,192,72490,1,0,0:0:0:0:
64,192,72567,1,0,0:0:0:0:
448,192,72567,1,0,0:0:0:0:
192,192,72643,1,0,0:0:0:0:
64,192,72720,1,0,0:0:0:0:
448,192,72720,1,0,0:0:0:0:
320,192,72720,1,0,0:0:0:0:
192,192,72796,1,0,0:0:0:0:
320,192,72873,1,0,0:0:0:0:
448,192,72873,1,0,0:0:0:0:
64,192,72949,1,0,0:0:0:0:
192,192,72949,1,0,0:0:0:0:
320,192,73026,1,0,0:0:0:0:
448,192,73026,1,0,0:0:0:0:
192,192,73102,1,0,0:0:0:0:
448,192,73179,1,0,0:0:0:0:
64,192,73179,1,0,0:0:0:0:
320,192,73255,1,0,0:0:0:0:
192,192,73332,1,0,0:0:0:0:
64,192,73332,1,0,0:0:0:0:
448,192,73408,1,0,0:0:0:0:
192,192,73485,1,0,0:0:0:0:
64,192,73485,1,0,0:0:0:0:
320,192,73485,1,0,0:0:0:0:
448,192,73485,1,0,0:0:0:0:
192,192,73561,1,0,0:0:0:0:
320,192,73638,1,0,0:0:0:0:
448,192,73714,1,0,0:0:0:0:
192,192,73791,1,0,0:0:0:0:
64,192,73791,1,0,0:0:0:0:
320,192,73868,1,0,0:0:0:0:
192,192,73944,1,0,0:0:0:0:
320,192,74021,1,0,0:0:0:0:
192,192,74097,1,0,0:0:0:0:
320,192,74097,1,0,0:0:0:0:
448,192,74097,1,0,0:0:0:0:
64,192,74097,1,0,0:0:0:0:
64,192,74709,1,0,0:0:0:0:
192,192,74709,1,0,0:0:0:0:
320,192,74709,1,0,0:0:0:0:
448,192,74709,1,0,0:0:0:0:
64,192,75016,1,0,0:0:0:0:
448,192,75016,1,0,0:0:0:0:
192,192,75092,1,0,0:0:0:0:
320,192,75169,1,0,0:0:0:0:
448,192,75169,1,0,0:0:0:0:
64,192,75245,1,0,0:0:0:0:
192,192,75322,1,0,0:0:0:0:
448,192,75322,1,0,0:0:0:0:
64,192,75398,1,0,0:0:0:0:
320,192,75398,1,0,0:0:0:0:
448,192,75475,1,0,0:0:0:0:
192,192,75475,1,0,0:0:0:0:
320,192,75551,1,0,0:0:0:0:
64,192,75628,1,0,0:0:0:0:
192,192,75628,1,0,0:0:0:0:
320,192,75704,1,0,0:0:0:0:
448,192,75781,1,0,0:0:0:0:
64,192,75781,1,0,0:0:0:0:
192,192,75857,1,0,0:0:0:0:
192,192,75934,1,0,0:0:0:0:
64,192,75934,1,0,0:0:0:0:
320,192,75934,1,0,0:0:0:0:
448,192,75934,1,0,0:0:0:0:
448,192,76010,1,0,0:0:0:0:
64,192,76087,1,0,0:0:0:0:
192,192,76163,1,0,0:0:0:0:
320,192,76240,1,0,0:0:0:0:
448,192,76240,1,0,0:0:0:0:
64,192,76317,1,0,0:0:0:0:
448,192,76393,1,0,0:0:0:0:
192,192,76393,1,0,0:0:0:0:
320,192,76470,1,0,0:0:0:0:
192,192,76546,1,0,0:0:0:0:
64,192,76546,1,0,0:0:0:0:
320,192,76623,1,0,0:0:0:0:
448,192,76623,1,0,0:0:0:0:
192,192,76699,1,0,0:0:0:0:
64,192,76699,1,0,0:0:0:0:
448,192,76776,1,0,0:0:0:0:
64,192,76852,1,0,0:0:0:0:
320,192,76852,1,0,0:0:0:0:
192,192,76929,1,0,0:0:0:0:
320,192,77005,1,0,0:0:0:0:
448,192,77005,1,0,0:0:0:0:
64,192,77082,1,0,0:0:0:0:
192,192,77158,1,0,0:0:0:0:
64,192,77158,1,0,0:0:0:0:
320,192,77158,1,0,0:0:0:0:
448,192,77158,1,0,0:0:0:0:
320,192,77235,1,0,0:0:0:0:
64,192,77311,1,0,0:0:0:0:
192,192,77388,1,0,0:0:0:0:
320,192,77464,1,0,0:0:0:0:
448,192,77464,1,0,0:0:0:0:
64,192,77541,1,0,0:0:0:0:
448,192,77618,1,0,0:0:0:0:
192,192,77618,1,0,0:0:0:0:
320,192,77694,1,0,0:0:0:0:
192,192,77771,1,0,0:0:0:0:
64,192,77771,1,0,0:0:0:0:
320,192,77847,1,0,0:0:0:0:
448,192,77847,1,0,0:0:0:0:
192,192,77924,1,0,0:0:0:0:
64,192,77924,1,0,0:0:0:0:
448,192,78000,1,0,0:0:0:0:
320,192,78077,1,0,0:0:0:0:
64,192,78077,1,0,0:0:0:0:
192,192,78153,1,0,0:0:0:0:
320,192,78230,1,0,0:0:0:0:
448,192,78230,1,0,0:0:0:0:
192,192,78306,1,0,0:0:0:0:
64,192,78383,1,0,0:0:0:0:
192,192,78383,1,0,0:0:0:0:
448,192,78383,1,0,0:0:0:0:
320,192,78383,1,0,0:0:0:0:
320,192,78459,1,0,0:0:0:0:
192,192,78536,1,0,0:0:0:0:
64,192,78612,1,0,0:0:0:0:
320,192,78689,1,0,0:0:0:0:
448,192,78689,1,0,0:0:0:0:
64,192,78766,1,0,0:0:0:0:
192,192,78842,1,0,0:0:0:0:
448,192,78842,1,0,0:0:0:0:
320,192,78919,1,0,0:0:0:0:
192,192,78995,1,0,0:0:0:0:
64,192,78995,1,0,0:0:0:0:
320,192,79072,1,0,0:0:0:0:
448,192,79072,1,0,0:0:0:0:
64,192,79148,1,0,0:0:0:0:
192,192,79148,1,0,0:0:0:0:
320,192,79199,1,0,0:0:0:0:
192,192,79250,1,0,0:0:0:0:
448,192,79301,1,0,0:0:0:0:
64,192,79301,1,0,0:0:0:0:
320,192,79352,1,0,0:0:0:0:
192,192,79403,1,0,0:0:0:0:
320,192,79454,1,0,0:0:0:0:
448,192,79454,1,0,0:0:0:0:
64,192,79505,1,0,0:0:0:0:
192,192,79556,1,0,0:0:0:0:
64,192,79607,1,0,0:0:0:0:
448,192,79607,1,0,0:0:0:0:
320,192,79607,1,0,0:0:0:0:
192,192,79684,1,0,0:0:0:0:
320,192,79760,1,0,0:0:0:0:
448,192,79837,1,0,0:0:0:0:
192,192,79913,1,0,0:0:0:0:
64,192,79913,1,0,0:0:0:0:
448,192,79990,1,0,0:0:0:0:
320,192,80067,1,0,0:0:0:0:
64,192,80067,1,0,0:0:0:0:
192,192,80143,1,0,0:0:0:0:
320,192,80220,1,0,0:0:0:0:
448,192,80220,1,0,0:0:0:0:
192,192,80296,1,0,0:0:0:0:
64,192,80296,1,0,0:0:0:0:
320,192,80373,1,0,0:0:0:0:
448,192,80373,1,0,0:0:0:0:
192,192,80449,1,0,0:0:0:0:
64,192,80526,1,0,0:0:0:0:
448,192,80526,1,0,0:0:0:0:
320,192,80602,1,0,0:0:0:0:
64,192,80679,1,0,0:0:0:0:
192,192,80679,1,0,0:0:0:0:
448,192,80755,1,0,0:0:0:0:
192,192,80832,1,0,0:0:0:0:
64,192,80832,1,0,0:0:0:0:
448,192,80832,1,0,0:0:0:0:
320,192,80832,1,0,0:0:0:0:
64,192,80908,1,0,0:0:0:0:
192,192,80985,1,0,0:0:0:0:
320,192,81061,1,0,0:0:0:0:
64,192,81138,1,0,0:0:0:0:
448,192,81138,1,0,0:0:0:0:
192,192,81214,1,0,0:0:0:0:
448,192,81291,1,0,0:0:0:0:
320,192,81291,1,0,0:0:0:0:
64,192,81368,1,0,0:0:0:0:
192,192,81444,1,0,0:0:0:0:
448,192,81444,1,0,0:0:0:0:
320,192,81521,1,0,0:0:0:0:
64,192,81521,1,0,0:0:0:0:
448,192,81597,1,0,0:0:0:0:
192,192,81597,1,0,0:0:0:0:
320,192,81674,1,0,0:0:0:0:
192,192,81750,1,0,0:0:0:0:
64,192,81750,1,0,0:0:0:0:
320,192,81827,1,0,0:0:0:0:
448,192,81903,1,0,0:0:0:0:
64,192,81903,1,0,0:0:0:0:
192,192,81980,1,0,0:0:0:0:
64,192,82056,1,0,0:0:0:0:
192,192,82056,1,0,0:0:0:0:
448,192,82056,1,0,0:0:0:0:
320,192,82056,1,0,0:0:0:0:
320,192,82133,1,0,0:0:0:0:
192,192,82209,1,0,0:0:0:0:
64,192,82286,1,0,0:0:0:0:
320,192,82362,1,0,0:0:0:0:
448,192,82362,1,0,0:0:0:0:
64,192,82439,1,0,0:0:0:0:
192,192,82516,1,0,0:0:0:0:
448,192,82516,1,0,0:0:0:0:
320,192,82592,1,0,0:0:0:0:
192,192,82669,1,0,0:0:0:0:
64,192,82669,1,0,0:0:0:0:
320,192,82745,1,0,0:0:0:0:
448,192,82745,1,0,0:0:0:0:
64,192,82822,1,0,0:0:0:0:
192,192,82822,1,0,0:0:0:0:
448,192,82898,1,0,0:0:0:0:
64,192,82975,1,0,0:0:0:0:
320,192,82975,1,0,0:0:0:0:
192,192,83051,1,0,0:0:0:0:
448,192,83128,1,0,0:0:0:0:
320,192,83128,1,0,0:0:0:0:
64,192,83204,1,0,0:0:0:0:
64,192,83281,1,0,0:0:0:0:
192,192,83281,1,0,0:0:0:0:
320,192,83281,1,0,0:0:0:0:
448,192,83281,1,0,0:0:0:0:
448,192,83357,1,0,0:0:0:0:
192,192,83434,1,0,0:0:0:0:
320,192,83510,1,0,0:0:0:0:
64,192,83587,1,0,0:0:0:0:
448,192,83587,1,0,0:0:0:0:
192,192,83663,1,0,0:0:0:0:
320,192,83740,1,0,0:0:0:0:
448,192,83740,1,0,0:0:0:0:
64,192,83817,1,0,0:0:0:0:
320,192,83893,1,0,0:0:0:0:
448,192,83893,1,0,0:0:0:0:
192,192,83970,1,0,0:0:0:0:
64,192,83970,1,0,0:0:0:0:
448,192,84046,1,0,0:0:0:0:
320,192,84046,1,0,0:0:0:0:
192,192,84097,1,0,0:0:0:0:
320,192,84148,1,0,0:0:0:0:
64,192,84199,1,0,0:0:0:0:
448,192,84199,1,0,0:0:0:0:
192,192,84250,1,0,0:0:0:0:
320,192,84301,1,0,0:0:0:0:
64,192,84352,1,0,0:0:0:0:
192,192,84352,1,0,0:0:0:0:
448,192,84403,1,0,0:0:0:0:
320,192,84454,1,0,0:0:0:0:
448,192,84505,1,0,0:0:0:0:
64,192,84505,1,0,0:0:0:0:
192,192,84505,1,0,0:0:0:0:
320,192,84582,1,0,0:0:0:0:
192,192,84658,1,0,0:0:0:0:
64,192,84735,1,0,0:0:0:0:
192,192,84811,1,0,0:0:0:0:
320,192,84811,1,0,0:0:0:0:
448,192,84888,1,0,0:0:0:0:
192,192,84964,1,0,0:0:0:0:
64,192,84964,1,0,0:0:0:0:
448,192,85041,1,0,0:0:0:0:
320,192,85118,1,0,0:0:0:0:
64,192,85118,1,0,0:0:0:0:
192,192,85194,1,0,0:0:0:0:
448,192,85194,1,0,0:0:0:0:
320,192,85271,1,0,0:0:0:0:
64,192,85271,1,0,0:0:0:0:
192,192,85347,1,0,0:0:0:0:
320,192,85424,1,0,0:0:0:0:
448,192,85424,1,0,0:0:0:0:
64,192,85500,1,0,0:0:0:0:
448,192,85577,1,0,0:0:0:0:
192,192,85577,1,0,0:0:0:0:
320,192,85653,1,0,0:0:0:0:
64,192,85730,1,0,0:0:0:0:
192,192,85730,1,0,0:0:0:0:
448,192,85730,1,0,0:0:0:0:
320,192,85730,1,0,0:0:0:0:
192,192,85806,1,0,0:0:0:0:
448,192,85883,1,0,0:0:0:0:
320,192,85959,1,0,0:0:0:0:
192,192,86036,1,0,0:0:0:0:
64,192,86036,1,0,0:0:0:0:
448,192,86112,1,0,0:0:0:0:
320,192,86189,1,0,0:0:0:0:
64,192,86189,1,0,0:0:0:0:
192,192,86266,1,0,0:0:0:0:
320,192,86342,1,0,0:0:0:0:
448,192,86342,1,0,0:0:0:0:
192,192,86419,1,0,0:0:0:0:
64,192,86419,1,0,0:0:0:0:
320,192,86495,1,0,0:0:0:0:
448,192,86495,1,0,0:0:0:0:
192,192,86572,1,0,0:0:0:0:
64,192,86648,1,0,0:0:0:0:
448,192,86648,1,0,0:0:0:0:
320,192,86725,1,0,0:0:0:0:
64,192,86801,1,0,0:0:0:0:
192,192,86801,1,0,0:0:0:0:
448,192,86878,1,0,0:0:0:0:
64,192,86954,1,0,0:0:0:0:
192,192,86954,1,0,0:0:0:0:
448,192,86954,1,0,0:0:0:0:
320,192,86954,1,0,0:0:0:0:
64,192,87031,1,0,0:0:0:0:
192,192,87107,1,0,0:0:0:0:
320,192,87184,1,0,0:0:0:0:
64,192,87260,1,0,0:0:0:0:
448,192,87260,1,0,0:0:0:0:
192,192,87337,1,0,0:0:0:0:
320,192,87413,1,0,0:0:0:0:
448,192,87413,1,0,0:0:0:0:
64,192,87490,1,0,0:0:0:0:
192,192,87567,1,0,0:0:0:0:
448,192,87567,1,0,0:0:0:0:
320,192,87643,1,0,0:0:0:0:
64,192,87643,1,0,0:0:0:0:
448,192,87720,1,0,0:0:0:0:
192,192,87720,1,0,0:0:0:0:
320,192,87796,1,0,0:0:0:0:
192,192,87873,1,0,0:0:0:0:
64,192,87873,1,0,0:0:0:0:
320,192,87949,1,0,0:0:0:0:
64,192,88026,1,0,0:0:0:0:
448,192,88026,1,0,0:0:0:0:
192,192,88102,1,0,0:0:0:0:
64,192,88179,1,0,0:0:0:0:
192,192,88179,1,0,0:0:0:0:
448,192,88179,1,0,0:0:0:0:
320,192,88179,1,0,0:0:0:0:
320,192,88255,1,0,0:0:0:0:
64,192,88332,1,0,0:0:0:0:
192,192,88408,1,0,0:0:0:0:
320,192,88485,1,0,0:0:0:0:
448,192,88485,1,0,0:0:0:0:
192,192,88561,1,0,0:0:0:0:
64,192,88638,1,0,0:0:0:0:
448,192,88638,1,0,0:0:0:0:
320,192,88714,1,0,0:0:0:0:
64,192,88791,1,0,0:0:0:0:
192,192,88791,1,0,0:0:0:0:
320,192,88868,1,0,0:0:0:0:
448,192,88868,1,0,0:0:0:0:
192,192,88944,1,0,0:0:0:0:
64,192,88944,1,0,0:0:0:0:
320,192,88995,1,0,0:0:0:0:
192,192,89046,1,0,0:0:0:0:
448,192,89097,1,0,0:0:0:0:
64,192,89097,1,0,0:0:0:0:
320,192,89148,1,0,0:0:0:0:
192,192,89199,1,0,0:0:0:0:
448,192,89250,1,0,0:0:0:0:
320,192,89250,1,0,0:0:0:0:
64,192,89301,1,0,0:0:0:0:
192,192,89352,1,0,0:0:0:0:
320,192,89403,1,0,0:0:0:0:
448,192,89403,1,0,0:0:0:0:
64,192,89403,1,0,0:0:0:0:
192,192,89480,1,0,0:0:0:0:
448,192,89556,1,0,0:0:0:0:
320,192,89633,1,0,0:0:0:0:
192,192,89709,1,0,0:0:0:0:
64,192,89709,1,0,0:0:0:0:
320,192,89786,1,0,0:0:0:0:
64,192,89862,1,0,0:0:0:0:
448,192,89862,1,0,0:0:0:0:
192,192,89939,1,0,0:0:0:0:
320,192,90016,1,0,0:0:0:0:
448,192,90016,1,0,0:0:0:0:
192,192,90092,1,0,0:0:0:0:
64,192,90092,1,0,0:0:0:0:
448,192,90169,1,0,0:0:0:0:
320,192,90169,1,0,0:0:0:0:
64,192,90245,1,0,0:0:0:0:
448,192,90322,1,0,0:0:0:0:
192,192,90322,1,0,0:0:0:0:
320,192,90398,1,0,0:0:0:0:
64,192,90475,1,0,0:0:0:0:
192,192,90475,1,0,0:0:0:0:
320,192,90551,1,0,0:0:0:0:
64,192,90628,1,0,0:0:0:0:
192,192,90628,1,0,0:0:0:0:
320,192,90628,1,0,0:0:0:0:
448,192,90628,1,0,0:0:0:0:
192,192,90704,1,0,0:0:0:0:
448,192,90781,1,0,0:0:0:0:
320,192,90857,1,0,0:0:0:0:
192,192,90934,1,0,0:0:0:0:
64,192,90934,1,0,0:0:0:0:
320,192,91010,1,0,0:0:0:0:
448,192,91087,1,0,0:0:0:0:
64,192,91087,1,0,0:0:0:0:
192,192,91163,1,0,0:0:0:0:
448,192,91240,1,0,0:0:0:0:
320,192,91240,1,0,0:0:0:0:
192,192,91317,1,0,0:0:0:0:
64,192,91317,1,0,0:0:0:0:
320,192,91393,1,0,0:0:0:0:
448,192,91393,1,0,0:0:0:0:
64,192,91470,1,0,0:0:0:0:
192,192,91546,1,0,0:0:0:0:
320,192,91546,1,0,0:0:0:0:
448,192,91623,1,0,0:0:0:0:
64,192,91699,1,0,0:0:0:0:
192,192,91699,1,0,0:0:0:0:
320,192,91776,1,0,0:0:0:0:
192,192,91852,1,0,0:0:0:0:
64,192,91852,1,0,0:0:0:0:
320,192,91852,1,0,0:0:0:0:
448,192,91852,1,0,0:0:0:0:
64,192,91929,1,0,0:0:0:0:
192,192,92005,1,0,0:0:0:0:
320,192,92082,1,0,0:0:0:0:
64,192,92158,1,0,0:0:0:0:
448,192,92158,1,0,0:0:0:0:
192,192,92235,1,0,0:0:0:0:
320,192,92311,1,0,0:0:0:0:
448,192,92311,1,0,0:0:0:0:
64,192,92388,1,0,0:0:0:0:
192,192,92464,1,0,0:0:0:0:
448,192,92464,1,0,0:0:0:0:
320,192,92541,1,0,0:0:0:0:
64,192,92541,1,0,0:0:0:0:
192,192,92618,1,0,0:0:0:0:
448,192,92618,1,0,0:0:0:0:
320,192,92694,1,0,0:0:0:0:
192,192,92771,1,0,0:0:0:0:
64,192,92771,1,0,0:0:0:0:
320,192,92847,1,0,0:0:0:0:
64,192,92924,1,0,0:0:0:0:
448,192,92924,1,0,0:0:0:0:
192,192,93000,1,0,0:0:0:0:
192,192,93077,1,0,0:0:0:0:
448,192,93077,1,0,0:0:0:0:
64,192,93077,1,0,0:0:0:0:
320,192,93077,1,0,0:0:0:0:
448,192,93153,1,0,0:0:0:0:
64,192,93230,1,0,0:0:0:0:
192,192,93306,1,0,0:0:0:0:
320,192,93383,1,0,0:0:0:0:
448,192,93383,1,0,0:0:0:0:
64,192,93459,1,0,0:0:0:0:
192,192,93536,1,0,0:0:0:0:
448,192,93536,1,0,0:0:0:0:
320,192,93612,1,0,0:0:0:0:
192,192,93689,1,0,0:0:0:0:
64,192,93689,1,0,0:0:0:0:
448,192,93766,1,0,0:0:0:0:
320,192,93766,1,0,0:0:0:0:
64,192,93842,1,0,0:0:0:0:
192,192,93842,1,0,0:0:0:0:
320,192,93893,1,0,0:0:0:0:
192,192,93944,1,0,0:0:0:0:
448,192,93995,1,0,0:0:0:0:
64,192,93995,1,0,0:0:0:0:
320,192,94046,1,0,0:0:0:0:
192,192,94097,1,0,0:0:0:0:
448,192,94148,1,0,0:0:0:0:
320,192,94148,1,0,0:0:0:0:
64,192,94199,1,0,0:0:0:0:
192,192,94250,1,0,0:0:0:0:
64,192,94301,1,0,0:0:0:0:
320,192,94301,1,0,0:0:0:0:
448,192,94301,1,0,0:0:0:0:
320,192,94607,1,0,0:0:0:0:
192,192,96138,1,0,0:0:0:0:
192,192,96444,1,0,0:0:0:0:
320,192,97056,1,0,0:0:0:0:
320,192,97362,1,0,0:0:0:0:
192,192,98281,1,0,0:0:0:0:
192,192,98587,1,0,0:0:0:0:
320,192,99199,1,0,0:0:0:0:
320,192,99505,1,0,0:0:0:0:
